<?xml version="1.0" standalone="no"?>
<!DOCTYPE svg PUBLIC "-//W3C//DTD SVG 1.1//EN" "http://www.w3.org/Graphics/SVG/1.1/DTD/svg11.dtd" >
<svg>
<metadata>
Created by FontForge 20090622 at Wed Sep 14 07:32:13 2016
 By deploy user
&#194;&#169; 2003 Adobe Systems Incorporated. All Rights Reserved.
</metadata>
<defs>
<font id="KeplerStd-BoldItDisp" horiz-adv-x="1000" >
  <font-face 
    font-family="Kepler Std Disp"
    font-weight="700"
    font-style="italic"
    font-stretch="normal"
    units-per-em="1000"
    panose-1="2 4 8 3 6 7 10 9 2 4"
    ascent="700"
    descent="-300"
    x-height="433"
    cap-height="642"
    bbox="-220 -292 3458.12 883"
    underline-thickness="58"
    underline-position="-82"
    slope="-13"
    unicode-range="U+0020-U+FB06"
  />
<missing-glyph horiz-adv-x="500" 
d="M0 0v700h500v-700h-500zM250 395l170 255h-340zM280 350l170 -255v510zM80 50h340l-170 255zM50 605v-510l170 255z" />
    <glyph glyph-name="T_h" unicode="Th" horiz-adv-x="1010" 
d="M107 447l-9 9q40 83 75 194q20 -8 89 -11q62 -3 142 -3h68q169 0 213 9q6 20 7 23q108 9 140 15q-20 -48 -127 -388q53 68 105 103t117 35q35 0 52 -17q6 -5 9 -12.5t3.5 -13.5t-1 -16t-3 -14.5t-4.5 -15.5t-4 -13q-74 -217 -92 -281q-6 -20 7 -20q23 0 49.5 27t46.5 67
l9 -15q-63 -122 -176 -122q-49 0 -58 30.5t11 80.5q71 211 84 256q11 39 -11 39q-20 0 -54 -27.5t-65 -72.5q-35 -54 -70 -162q-22 -60 -42 -133q-18 0 -132 -6q137 429 191 621q-50 8 -171 8l-90 -286q-58 -188 -82 -291q-5 -27 18 -28q42 -6 68 -7l-7 -13q-7 0 -69 2
t-98 2q-37 0 -95.5 -2t-72.5 -2l5 13q18 2 50 6q33 5 42 26q30 73 102 304q64 198 84 276q-65 1 -104 -11.5t-62 -40.5q-49 -55 -88 -122z" />
    <glyph glyph-name="T_h.swash" unicode="&#xe060;h" horiz-adv-x="1083" 
d="M902 683q-14 -33 -126 -388q53 68 104.5 103t116.5 35q34 0 53 -17q4 -4 6.5 -9t4 -9.5t1 -12t-1 -11.5t-2.5 -12t-3 -11l-4 -11.5t-3 -9.5q-63 -188 -89 -278q-7 -21 5 -21q22 0 49 27.5t48 68.5l9 -15q-63 -125 -177 -125q-49 0 -58.5 30.5t10.5 80.5q71 211 84 255
q11 39 -9 39q-22 0 -54.5 -25.5t-64.5 -74.5q-33 -52 -71 -161q-23 -68 -41 -133q-19 0 -133 -6l118 372q58 191 75 258q-32 -9 -97 -9q-13 0 -51.5 1.5t-49.5 1.5l-88 -290q-52 -175 -75 -279q-7 -27 16 -30q52 -6 82 -8l-6 -13q-20 0 -85.5 2t-96.5 2q-45 0 -110.5 -2
t-68.5 -2l4 13q12 1 67 7q27 3 36 22q26 60 100 297q54 176 85 287q-84 4 -91 4q-68 0 -95 -21.5t-27 -62.5q0 -27 20 -56q9 -16 5 -36q-3 -19 -18.5 -30.5t-36.5 -11.5q-24 0 -43 21.5t-19 59.5q0 75 59 116t167 40q26 0 191 -3q108 -4 143 -4q84 0 136.5 11.5t92.5 38.5z
" />
    <glyph glyph-name="f_f" unicode="ff" horiz-adv-x="548" 
d="M62 418h71q36 122 98 175q74 66 173 66q74 0 105 -36q63 60 144 60q47 0 73 -20.5t26 -58.5q0 -29 -20.5 -44t-42.5 -15t-31.5 8t-7.5 20q7 37 7 51q1 19 -5.5 31t-17.5 12q-27 0 -47 -54q-19 -54 -53 -195h87l-8 -15l-83 -4q-75 -301 -116 -396q-54 -115 -173 -183
q-57 -33 -101 -33q-20 0 -38.5 12t-18.5 31q0 16 20.5 38t35.5 24q15 4 29 -14q30 -43 60 -43q13 0 19.5 8t14.5 28q12 31 131 528h-130q-81 -325 -126 -424q-55 -121 -173 -188q-46 -28 -95 -28q-28 0 -50.5 17t-22.5 40q0 22 20 41.5t34 22.5q17 4 34 -22q34 -55 63 -55
q23 0 39 46q24 66 141 550l-71 4zM268 418h130q20 68 57 139q-3 42 -21 63t-45 21q-45 0 -70 -65q-28 -69 -51 -158z" />
    <glyph glyph-name="f_i" unicode="fi" horiz-adv-x="543" 
d="M63 418h69q26 82 51 127.5t63 78.5q70 59 169 59q72 0 107 -27t35 -70q0 -26 -19 -44.5t-52 -18.5q-26 0 -42 13q-15 11 -7 35q9 21 9 39q2 55 -45 55q-45 0 -73 -64q-26 -61 -60 -183q202 -5 272 16l2 -4q-22 -49 -74 -214q-36 -112 -46 -165q-3 -21 8 -21q17 0 44.5 27
t47.5 64l11 -13q-68 -121 -172 -121q-57 0 -68.5 28t7.5 73q73 223 99 314l-137 -5q-76 -309 -126 -422q-55 -115 -172 -187q-47 -29 -97 -29q-29 0 -50 17t-21 39q0 21 18 41.5t37 22.5q18 4 33 -22q30 -54 62 -54q14 0 22 10.5t16 34.5q25 67 142 549l-70 6z" />
    <glyph glyph-name="f_l" unicode="fl" horiz-adv-x="539" 
d="M61 418h70q40 141 119 206q73 59 157 59q64 0 93 -25q20 2 116 22q-31 -73 -104 -314q-70 -236 -85 -311q-4 -25 10 -25q17 0 46 24t46 59l9 -13q-29 -53 -74 -83t-99 -30t-66.5 29.5t5.5 76.5q121 389 154 514q-16 59 -65 59q-40 0 -67 -61q-27 -62 -60 -187h98l-9 -16
l-94 -5q-77 -313 -126 -421q-55 -120 -174 -190q-47 -27 -93 -27q-30 0 -51.5 17.5t-21.5 38.5q0 19 17.5 39t35.5 24q19 4 34 -19q30 -56 63 -56q24 0 38 44q25 67 142 550l-70 6z" />
    <glyph glyph-name="f_f_i" unicode="ffi" horiz-adv-x="808" 
d="M62 418h71q35 120 98 177q75 64 171 64q38 0 67.5 -11t42.5 -26q77 61 176 61q71 0 103.5 -25t30.5 -68q-1 -27 -19.5 -46.5t-51.5 -19.5q-25 0 -36 9q-21 15 -12 40q9 23 9 38q2 54 -45 54q-46 0 -74 -66q-29 -67 -60 -181q201 -5 271 16l2 -4q-22 -48 -74 -214
q-35 -112 -45 -167q-4 -20 8 -20q17 0 45 28t47 67l11 -12q-29 -56 -75 -90.5t-98 -34.5q-30 0 -47 8t-21 23.5t-2 31t10 38.5q6 20 26 82l39.5 123.5l33.5 108.5l-136 -4q-31 -128 -66 -245t-49 -150q-54 -115 -172 -183q-58 -33 -101 -33q-20 0 -38.5 12t-18.5 31
q0 16 21 38t35 24q16 4 29 -14q31 -43 60 -43q12 0 18.5 8t14.5 28q16 43 132 528h-130q-81 -323 -126 -424q-56 -120 -173 -188q-49 -28 -99 -28q-26 0 -47.5 17.5t-21.5 38.5q0 22 19.5 41.5t34.5 22.5q17 4 34 -22q35 -54 61 -54t40 46q21 58 142 550l-71 4zM268 418h129
q22 74 57 140q-2 41 -19.5 62.5t-44.5 21.5q-43 0 -72 -66q-28 -68 -50 -158z" />
    <glyph glyph-name="f_f_l" unicode="ffl" horiz-adv-x="804" 
d="M61 418h71q35 119 98 175q74 66 174 66q74 0 104 -34q28 25 71 41.5t87 16.5q71 0 99 -26l115 23q-38 -92 -104 -314q-74 -249 -85 -311q-3 -13 -1 -19t11 -6q17 0 46 24t45 59l10 -13q-29 -53 -73.5 -83t-97.5 -30q-55 0 -68 29.5t5 76.5q127 410 154 513q-15 60 -63 60
q-39 0 -66 -57q-30 -62 -61 -191h98l-9 -16l-94 -4q-33 -135 -67 -249t-48 -146q-55 -116 -172 -183q-58 -33 -102 -33q-19 0 -37.5 12t-18.5 31q0 16 20.5 38t35.5 24q16 4 29 -14q30 -43 59 -43q13 0 19.5 8t14.5 28q12 31 131 528h-129q-81 -325 -126 -424
q-55 -121 -173 -188q-46 -28 -100 -28q-26 0 -47 17.5t-21 39.5q0 20 19 38.5t35 24.5q18 6 34 -22q32 -54 61 -54q25 0 41 46q26 74 141 550l-71 4zM267 418h129q21 77 58 140q-2 41 -20.5 62t-44.5 21q-43 0 -72 -65q-28 -70 -50 -158z" />
    <glyph glyph-name=".notdef" horiz-adv-x="500" 
d="M0 0v700h500v-700h-500zM250 395l170 255h-340zM280 350l170 -255v510zM80 50h340l-170 255zM50 605v-510l170 255z" />
    <glyph glyph-name=".null" horiz-adv-x="0" 
 />
    <glyph glyph-name="nonmarkingreturn" horiz-adv-x="333" 
 />
    <glyph glyph-name="space" unicode=" " horiz-adv-x="161" 
 />
    <glyph glyph-name="exclam" unicode="!" horiz-adv-x="256" 
d="M261 645h1q27 0 51.5 -34t13.5 -71q-5 -18 -43 -71q-110 -149 -140 -250h-17q31 121 15 253q-7 57 -2 77q9 35 49.5 65.5t71.5 30.5zM91 -13h-1q-27 0 -45 19t-17 51q2 36 25 61.5t59 25.5q32 0 48.5 -22t14.5 -51q-2 -39 -25.5 -61.5t-58.5 -22.5z" />
    <glyph glyph-name="quotedbl" unicode="&#x22;" horiz-adv-x="328" 
d="M292 453l-14 5q42 139 40 207q61 22 78 22q14 0 17 -22.5t-2 -33.5q-3 -11 -11.5 -26.5t-17.5 -29.5t-24 -34.5l-23.5 -31.5l-24 -31.5zM143 453l-12 5q41 139 39 207q66 22 79 22q14 0 17 -20t-3 -36q-3 -9 -9 -21t-15 -26.5l-17.5 -27t-21.5 -29.5l-20.5 -26.5
l-20.5 -26.5z" />
    <glyph glyph-name="numbersign" unicode="#" horiz-adv-x="423" 
d="M327 399h-98l-38 -92h97zM283 592l30 4q-25 -51 -52 -118h97l47 114l31 4q-32 -63 -53 -118q27 0 54 0.5t31 0.5q-18 -31 -31 -82q-3 0 -31 0.5t-56 0.5l-37 -90q87 2 96 2q-12 -22 -30 -82h-20.5h-35h-40.5l-28.5 -74.5l-21.5 -57.5l-32 -4q8 17 56 136h-98
q-12 -28 -29 -73.5t-23 -58.5l-34 -7q18 34 61 139q-49 0 -83 -1q13 28 27 82q8 0 19 -0.5t31.5 -1t38.5 -0.5l38 92q-29 2 -97 -1q22 51 29 81q16 1 100 -1q10 22 26 63z" />
    <glyph glyph-name="dollar" unicode="$" horiz-adv-x="493" 
d="M345 128v1q0 32 -17.5 55t-60.5 55q-40 -121 -66 -210q6 -2 21 -2q50 0 86.5 26t36.5 75zM227 502v-1q0 -51 71 -102l39 120t25 78q-10 3 -30 3q-43 0 -74 -26t-31 -72zM387 679l28 4l-27 -73q28 -5 53.5 -19t34.5 -26q1 0 16.5 18t17.5 22l6 -9q-51 -134 -64 -188l-12 4
q30 147 -59 181q-8 -28 -67 -206q67 -51 90 -74q48 -46 48 -110q0 -76 -54 -128q-70 -64 -183 -64q-14 0 -19 1l-24 -75l-28 -8l29 85q-72 4 -151 52q31 62 61 173l15 6q-13 -49 -14 -82q-6 -111 96 -129q5 14 29 90t42 127q-71 60 -72 61q-54 41 -54 114q0 89 74 149
q51 41 132 41q12 0 36 -3z" />
    <glyph glyph-name="percent" unicode="%" horiz-adv-x="645" 
d="M120 15l-14 23l462 559q-60 -35 -128 -35q-43 0 -67 12q5 -17 5 -49q0 -47 -20 -96t-61 -84.5t-91 -35.5q-46 0 -74 26.5t-28 77.5q0 83 53.5 150.5t134.5 67.5q25 0 51 -14l10 9q36 -44 106 -44t125 44q14 11 29 33l39 6zM305 612h-1q-19 0 -34 -15q-30 -34 -53 -104
t-23 -121q0 -43 30 -43q39 0 69.5 38.5t43.5 85.5t13 86q0 73 -45 73zM532 352h1q44 0 67 -26t23 -69q0 -82 -47.5 -154.5t-123.5 -72.5q-48 0 -75.5 26t-27.5 77q0 78 53 148.5t130 70.5zM552 331h-1q-21 0 -37 -19q-33 -39 -53.5 -100.5t-20.5 -114.5q0 -47 35 -47
q36 0 65.5 39.5t43 86.5t13.5 82q0 73 -45 73z" />
    <glyph glyph-name="ampersand" unicode="&#x26;" horiz-adv-x="673" 
d="M397 354l-26 -22q-20 4 -39 4q-63 0 -99 -49t-36 -119t37 -108t105 -38q80 0 129.5 57t57.5 130l8 1l13 -53q-39 -84 -112.5 -128.5t-170.5 -44.5q-99 0 -163.5 42t-64.5 129q0 85 70 137q76 53 195 54l1 5q-138 14 -138 116q0 80 65 120.5t152 40.5q92 0 130.5 -32
t38.5 -72q0 -33 -18.5 -47t-40.5 -14q-24 0 -36 11.5t-6 31.5q8 27 8 38q2 67 -56 67q-49 0 -77 -58t-28 -115q0 -79 45 -81q7 0 25 1.5t28 1.5zM351 182l-7 13q24 60 66.5 98.5t94.5 38.5q24 0 66.5 -4.5t57.5 -4.5q52 -3 57 26q6 25 -3 49l3 3q9 -2 16 -10t7 -20
q-1 -37 -27 -74t-53 -53q-34 -20 -69 -20q-25 1 -71 5t-62 4q-53 0 -76 -51z" />
    <glyph glyph-name="quotesingle" unicode="'" horiz-adv-x="177" 
d="M143 453l-11 5q39 135 37 207q56 22 77 22q15 0 19 -22.5t-1 -33.5q-2 -9 -8 -20.5t-15 -26t-17.5 -26.5l-21.5 -29.5l-20.5 -27l-21.5 -27t-17 -21.5z" />
    <glyph glyph-name="parenleft" unicode="(" horiz-adv-x="330" 
d="M440 714l5 -14q-98 -29 -172 -154q-68 -109 -106.5 -244.5t-38.5 -276.5q0 -152 65 -204q-4 -5 -12 -13q-137 92 -137 302q1 146 63.5 290.5t171.5 230.5q82 61 161 83z" />
    <glyph glyph-name="parenright" unicode=")" horiz-adv-x="330" 
d="M-68 -192l-5 14q99 29 172 154q69 109 107 244t38 277q0 151 -66 204q3 4 12 13q138 -92 138 -302q0 -148 -63 -291t-172 -230q-81 -61 -161 -83z" />
    <glyph glyph-name="asterisk" unicode="*" horiz-adv-x="354" 
d="M280 541l-10 3q7 22 2.5 63.5t-2.5 47.5q6 14 24.5 18t28.5 1q11 -4 23.5 -17.5t5.5 -27.5q-3 -6 -32.5 -37t-39.5 -51zM296 518l-2 11q21 7 54 33.5t40 28.5q14 3 26.5 -12t13.5 -24q2 -12 -4 -31t-21 -21q-6 -1 -45.5 8.5t-61.5 6.5zM283 495l9 7q15 -16 52.5 -30
t41.5 -19q7 -15 1 -32.5t-14 -24.5q-10 -9 -25 -13t-30 8q-3 4 -12.5 45t-22.5 59zM255 492l11 -3q-7 -23 -2 -64.5t2 -47.5q-5 -14 -23.5 -18t-29.5 -2q-6 3 -13.5 8.5t-14 17t-1.5 21.5q2 5 32 35.5t39 52.5zM242 514l1 -11q-21 -6 -53.5 -33t-39.5 -28q-14 -3 -26.5 11.5
t-14.5 24.5q-2 12 4 30.5t22 20.5q5 1 44.5 -8.5t62.5 -6.5zM254 541l-9 -9q-15 16 -53 30.5t-42 19.5q-6 15 -0.5 32t13.5 25q6 4 14.5 8t21.5 6t18 -8q3 -5 13.5 -45.5t23.5 -58.5z" />
    <glyph glyph-name="plus" unicode="+" horiz-adv-x="443" 
d="M240 25h-46v171h-157v43h157v156h46v-156h156v-43h-156v-171z" />
    <glyph glyph-name="comma" unicode="," horiz-adv-x="228" 
d="M-40 -124l-4 15q55 7 99 40t56 85q1 7 -2 8t-8 -3q-17 -14 -44 -14q-23 0 -36.5 16t-12.5 41q2 34 26 59t58 25q32 0 50 -22.5t16 -62.5q-4 -72 -63 -127t-135 -60z" />
    <glyph glyph-name="hyphen" unicode="-" horiz-adv-x="296" 
d="M35 189l23 59q109 -3 223 0l-23 -59q-112 1 -223 0z" />
    <glyph glyph-name="period" unicode="." horiz-adv-x="228" 
d="M75 -14h-1q-26 0 -44 19t-17 51q2 35 25 60t57 25q31 0 47.5 -21.5t14.5 -51.5q-2 -40 -24.5 -61t-57.5 -21z" />
    <glyph glyph-name="slash" unicode="/" horiz-adv-x="342" 
d="M389 677l26 -15q-61 -97 -216 -385l-201 -377l-28 14q37 61 211 380z" />
    <glyph glyph-name="zero" unicode="0" horiz-adv-x="493" 
d="M366 632h1q80 0 117 -48.5t37 -128.5q0 -112 -51.5 -243.5t-133.5 -186.5q-57 -38 -135 -38q-79 0 -117.5 47.5t-38.5 126.5q0 119 52.5 247.5t142.5 187.5q56 36 126 36zM365 617h-1q-20 0 -35.5 -11.5t-36.5 -44.5q-51 -77 -92 -228t-41 -251q0 -80 47 -80q38 0 73 56
q49 84 88 234.5t39 250.5q0 74 -41 74z" />
    <glyph glyph-name="one" unicode="1" horiz-adv-x="493" 
d="M387 9l-3 -13q-30 0 -90.5 2t-94.5 2q-35 0 -85.5 -2t-76.5 -2l4 13l59 6q23 3 31 7t13 15q28 71 81 258q49 161 78 277q4 15 -10 15q-46 -2 -81 -2l9 14q196 19 234 33l4 -4q-28 -84 -95 -320q-53 -184 -71 -269q-5 -21 17 -22z" />
    <glyph glyph-name="two" unicode="2" horiz-adv-x="493" 
d="M467 196l11 -7q-41 -69 -81 -195q-16 3 -71 4q-84 2 -225 2q-85 0 -117 -2l-2 5q9 15 24 44t19 36q220 112 302 255q46 81 46 171q0 105 -63 105q-43 0 -67 -41.5t-30 -111.5q-2 -26 -16.5 -41t-39.5 -15q-54 0 -53 63q1 27 19.5 59.5t51.5 57.5q61 47 151 47
q84 0 136 -42q47 -38 47 -116q0 -116 -116 -193q-26 -18 -63 -40.5l-103 -62l-116 -69.5q244 5 277 9q21 3 38 20q22 25 41 58z" />
    <glyph glyph-name="three" unicode="3" horiz-adv-x="493" 
d="M149 465l-17 37q22 50 80.5 90t132.5 40t112.5 -33t38.5 -90q0 -87 -95 -134q-52 -24 -126 -37l-1 -6q120 -5 161 -61q24 -33 24 -79q0 -50 -27.5 -93.5t-67.5 -69.5q-64 -42 -180 -42q-72 0 -121 29t-49 82q0 29 17 46.5t42 17.5t35.5 -15.5t12.5 -51.5q6 -92 66 -92
q38 0 68 36.5t43.5 84.5t13.5 93q0 104 -82 104q-33 0 -64 -11l-2 5l18 24q26 0 56 5q59 8 93.5 55t34.5 117q0 43 -21 63.5t-56 20.5q-43 0 -79 -31t-55 -104h-6z" />
    <glyph glyph-name="four" unicode="4" horiz-adv-x="493" 
d="M268 209q24 76 59 197.5t45 152.5q-195 -203 -300 -333q15 -6 76.5 -11.5t119.5 -5.5zM30 199l-3 18l359 384q97 15 130 31l4 -4q-30 -89 -115 -416q59 1 107 19l-3 -13q-43 -26 -112 -31q-36 -137 -48 -190q-82 0 -146 -12l-3 4q18 47 59 192q-55 0 -132 5.5t-97 12.5z
" />
    <glyph glyph-name="five" unicode="5" horiz-adv-x="493" 
d="M109 257l-12 18q33 65 70.5 187t41.5 163q17 -8 62 -15q45 -5 84 -5q85 0 129.5 7.5t64.5 28.5l7 -8q-38 -84 -90 -117q-48 -28 -137 -28q-90 0 -125 13q-64 -173 -72 -190q38 31 85 47.5t85 16.5q84 0 123.5 -39.5t37.5 -112.5q-1 -53 -24.5 -99t-62.5 -77
q-73 -60 -187 -60q-73 0 -120.5 29t-47.5 82q0 28 17 45.5t42 17.5q24 0 34.5 -15t12.5 -51q4 -92 66 -92q46 0 82.5 68.5t37.5 162.5q1 55 -24 78q-20 23 -57 23q-36 0 -69.5 -22.5t-53.5 -55.5z" />
    <glyph glyph-name="six" unicode="6" horiz-adv-x="493" 
d="M522 623l-1 -14q-27 3 -35 3q-88 0 -165.5 -80.5t-113.5 -208.5q80 77 158 77q51 0 85 -36t34 -104q0 -60 -24 -115.5t-67 -94.5q-69 -63 -181 -63q-84 0 -127.5 49t-43.5 135q0 107 51 212t138 171q101 78 235 78q39 0 57 -9zM302 358h-1q-57 0 -99 -77
q-37 -70 -37 -192q0 -86 51 -87q37 -2 68 45q29 42 48 109t19 127q0 30 -12 52.5t-37 22.5z" />
    <glyph glyph-name="seven" unicode="7" horiz-adv-x="493" 
d="M120 417l-12 7q23 45 45.5 109.5t29.5 95.5q15 -7 53 -8q50 -3 183 -3h152l2 -5q-37 -86 -138 -212q-177 -228 -219 -412l-4 -2q-24 -2 -51.5 3.5t-42.5 15.5q-25 17 -13 48q27 70 156 186q129 123 222 256q-27 4 -185 4q-83 0 -108.5 -6.5t-39.5 -26.5q-16 -23 -30 -50z
" />
    <glyph glyph-name="eight" unicode="8" horiz-adv-x="493" 
d="M344 632h1q67 0 110.5 -34t43.5 -89q0 -64 -58 -101q-41 -25 -93 -51q63 -58 85.5 -96t22.5 -77q0 -93 -90 -154q-66 -43 -158 -43q-74 0 -126.5 35t-52.5 104q0 66 63 112q19 14 106 59q-68 71 -68 136q0 79 52 134q65 65 162 65zM331 616h-1q-42 0 -66.5 -30.5
t-23.5 -74.5q0 -67 98 -145q36 23 57.5 64t21.5 86q0 43 -23 71.5t-63 28.5zM226 3h3q45 0 75 30t30 80q0 64 -125 175q-83 -57 -83 -159q0 -61 28 -93.5t72 -32.5z" />
    <glyph glyph-name="nine" unicode="9" horiz-adv-x="493" 
d="M57 0l-1 16q20 -6 49 -4q51 1 95.5 28t76 71t53 91.5t35.5 101.5q-69 -78 -156 -78q-51 0 -87.5 34.5t-36.5 105.5q0 116 81 195q71 71 175 71q84 0 131.5 -51.5t47.5 -143.5q0 -111 -51.5 -222.5t-141.5 -171.5q-82 -56 -198 -56q-50 0 -72 13zM347 617h-1
q-41 0 -75 -59q-56 -102 -56 -204q0 -41 14.5 -63.5t41.5 -22.5t53 20.5t43 56.5q31 77 31 184q0 88 -51 88z" />
    <glyph glyph-name="colon" unicode=":" horiz-adv-x="228" 
d="M74 -14h-1q-25 0 -42 18t-16 49q2 33 23.5 57t54.5 24q30 0 45.5 -20.5t13.5 -49.5q-1 -37 -23 -57.5t-55 -20.5zM144 254h-1q-25 0 -42.5 18.5t-16.5 48.5q2 34 23.5 57.5t54.5 23.5q30 0 46 -20.5t14 -49.5q-1 -37 -23 -57.5t-55 -20.5z" />
    <glyph glyph-name="semicolon" unicode=";" horiz-adv-x="228" 
d="M146 254h-1q-25 0 -42.5 18t-16.5 49q2 34 23.5 57.5t54.5 23.5q30 0 46 -20.5t14 -49.5q-1 -37 -23 -57.5t-55 -20.5zM-37 -120l-3 13q51 8 93 40t55 81q1 5 -2 6t-8 -3q-17 -12 -43 -12q-21 0 -34 15t-12 39q2 32 25.5 56.5t54.5 24.5t47.5 -21.5t14.5 -59.5
q-4 -70 -59.5 -122t-128.5 -57z" />
    <glyph glyph-name="less" unicode="&#x3c;" horiz-adv-x="436" 
d="M50 205v39l327 180v-51l-276 -148v-2l276 -148v-50z" />
    <glyph glyph-name="equal" unicode="=" horiz-adv-x="443" 
d="M396 163v-43h-359v43h359zM396 311v-43h-359v43h359z" />
    <glyph glyph-name="greater" unicode="&#x3e;" horiz-adv-x="436" 
d="M377 244v-39l-328 -179v49l276 148v3l-276 147v51z" />
    <glyph glyph-name="question" unicode="?" horiz-adv-x="407" 
d="M200 210l-12 -3q-36 62 -35 104q2 42 40 75q23 18 79 57.5t59 41.5q39 26 39 74q0 33 -18.5 51.5t-46.5 18.5q-34 0 -53 -18.5t-19 -50.5q0 -19 8 -39q7 -21 -11 -40q-22 -19 -52 -19q-21 0 -36 16t-15 39q0 59 55 93.5t129 34.5q67 0 108 -38.5t41 -102.5
q0 -94 -87 -144q-111 -66 -136 -83q-43 -27 -37 -67zM147 -14h-1q-26 0 -44 19t-17 51q2 36 25 60t58 24q32 0 48 -22t14 -50q-1 -39 -24.5 -60.5t-58.5 -21.5z" />
    <glyph glyph-name="at" unicode="@" horiz-adv-x="677" 
d="M292 101v-1q0 -26 15 -26q30 0 64 47t58 112q19 56 22 71q4 21 -4 33.5t-26 12.5q-29 0 -58 -42q-71 -110 -71 -207zM499 -23l5 -16q-91 -100 -239 -100q-109 0 -170.5 66.5t-61.5 179.5q0 173 112 292.5t287 119.5q119 0 179.5 -62.5t60.5 -157.5q0 -63 -25.5 -123.5
t-76.5 -102t-115 -41.5q-55 0 -62.5 28t15.5 93q-28 -48 -69 -83.5t-88 -35.5q-56 0 -56 72q0 64 36 131t90 101q45 28 94 28q17 0 30.5 -9t17.5 -21l7 22q70 0 89 -1q-52 -129 -78 -259q-4 -20 -1.5 -29t14.5 -9q47 0 84 40.5t53.5 91.5t16.5 96q0 95 -57.5 153.5
t-164.5 58.5q-127 0 -205 -102q-102 -129 -102 -306q0 -95 45 -149q52 -59 140 -59q114 0 195 93z" />
    <glyph glyph-name="A" unicode="A" horiz-adv-x="580" 
d="M517 658l5 -2q-13 -116 -22 -366q-8 -192 -3 -249q1 -25 21 -26l46 -5l-2 -14q-128 4 -141 4q-8 0 -148 -4l5 14q44 4 54 10.5t12 33.5q12 137 16 216q-101 0 -177 -13q-106 -172 -116 -193q-14 -31 1 -40.5t76 -13.5l-4 -14q-9 0 -28.5 1.5t-38.5 2t-36 0.5
q-45 0 -113 -4l3 14q43 6 63.5 18t48.5 52l329 495q15 19 18 38l3 16q91 -5 128 29zM362 290q2 27 8.5 123.5t10.5 146.5l-182 -280q47 5 163 10z" />
    <glyph glyph-name="B" unicode="B" horiz-adv-x="597" 
d="M141 628l6 14q12 0 62 -2t72 -2q28 0 88 2q17 0 43 0.5t33 0.5q64 0 91 -9.5t47 -30.5q27 -29 27 -80q0 -113 -107 -153q-49 -19 -118 -22l-1 -7q112 -13 150 -55q30 -30 30 -86q0 -58 -31 -102t-81 -69q-59 -30 -173 -30q-26 0 -87.5 2t-95.5 1q-55 0 -130 -3l3 13
q42 3 56.5 8.5t21.5 20.5q29 73 94 291q63 205 78 275q2 5 -1 8.5t-11.5 6.5t-24 4.5t-41.5 3.5zM477 545v1q0 27 -11 47q-17 31 -69 31q-23 0 -30 -17q-13 -36 -44 -137.5l-36 -117.5q14 -2 40 -2q66 0 108 55t42 140zM415 241v1q0 38 -13 60q-16 33 -80 33q-27 0 -42 -3
q-69 -239 -83 -303q-1 -5 2 -8.5t13 -5.5t28 -2q77 0 126 68t49 160z" />
    <glyph glyph-name="C" unicode="C" horiz-adv-x="593" 
d="M562 172h7q1 -7 1 -22.5t1 -23.5q-41 -67 -111 -105t-158 -38q-235 0 -235 240q0 90 42.5 189.5t117.5 163.5q95 79 230 79q113 0 161 -59l39 54l9 -5q-48 -122 -69 -220h-11q13 102 -17 158q-29 54 -93 54q-70 0 -133 -76q-61 -79 -92 -182t-31 -200q0 -88 34 -129
q30 -38 87 -38q157 0 221 160z" />
    <glyph glyph-name="D" unicode="D" horiz-adv-x="674" 
d="M141 629l7 13q80 -4 132 -4q27 0 74.5 2t79.5 2q133 0 191 -55q64 -57 61 -179q-2 -73 -26 -145.5t-79.5 -139t-132.5 -98.5q-75 -30 -171 -30q-45 0 -92 3q-60 2 -89 2q-31 0 -79.5 -2t-53.5 -2l5 13l42 4q16 1 23.5 7.5t15.5 24.5q19 49 86 269q71 236 80 282
q3 15 -1 20t-17 7zM416 627h-1q-41 0 -48 -15q-19 -45 -89 -286q-68 -230 -78 -291q-2 -12 7 -17.5t37 -5.5q70 0 106 21q71 41 129 177.5t62 261.5q3 84 -25 118q-30 37 -100 37z" />
    <glyph glyph-name="E" unicode="E" horiz-adv-x="559" 
d="M143 629l4 13q12 0 68 -2q58 -2 89 -2h170q86 0 138 5q-10 -20 -30.5 -85t-27.5 -99h-11q3 81 0 105q-5 37 -24.5 47.5t-85.5 10.5h-43q-18 0 -24 -17q-26 -67 -80 -258q8 -2 52 -2q92 0 135 95h13q-37 -85 -73 -241l-10 3q15 125 -69 125q-46 0 -56 -2
q-64 -221 -78 -280q-3 -17 4.5 -22.5t42.5 -5.5q62 0 96.5 6.5t60.5 24.5q58 36 124 137l10 -6q-6 -12 -40.5 -94.5t-38.5 -91.5l-83 4q-60 3 -169 3h-89q-74 0 -154 -4l2 13l48 6q14 2 21.5 8t13.5 23q30 81 94 291q53 182 72 262q3 14 -0.5 19t-20.5 6z" />
    <glyph glyph-name="F" unicode="F" horiz-adv-x="521" 
d="M145 628l4 13q13 0 77.5 -1.5t86.5 -1.5h125q113 0 190 8q-24 -57 -65 -199h-12q7 75 1 116q-4 36 -28 47.5t-86 11.5h-48q-20 0 -25 -15q-31 -88 -83 -276q12 -4 56 -4q59 0 92 21t56 76l11 -3q-43 -112 -74 -250h-11q10 75 -5.5 107t-79.5 32h-52q-55 -188 -73 -264
q-6 -26 20 -29q7 -1 28.5 -3.5t33.5 -3.5l-3 -13q-11 0 -69 1.5t-86 1.5q-99 0 -162 -3l4 13l44 4q27 3 37 32q31 85 91 281q62 209 76 277q3 18 -14 19z" />
    <glyph glyph-name="G" unicode="G" horiz-adv-x="651" 
d="M623 414h-13q17 109 -13.5 166t-103.5 57q-67 0 -122 -58q-69 -73 -110.5 -194t-41.5 -239q0 -86 34 -118q29 -29 69 -29q34 0 51.5 13.5t28.5 40.5q27 67 47 151q12 50 8.5 62t-33.5 16l-57 6l5 13q11 0 75.5 -1.5t85.5 -1.5q36 0 138 3l-4 -11q-32 -4 -41.5 -10
t-16.5 -24q-25 -69 -45 -148q-11 -47 -16 -82q-74 -20 -94 -26q-62 -17 -134 -17q-119 0 -185.5 59t-66.5 174q0 128 65.5 243t175.5 163q77 33 168 33q66 0 111 -18.5t64 -43.5l41 53l6 -8q-53 -131 -76 -224z" />
    <glyph glyph-name="H" unicode="H" horiz-adv-x="676" 
d="M149 629l5 13q11 0 63 -2t74 -2q20 0 75 2t75 2l-3 -13q-41 -2 -55 -9t-21 -29q-32 -86 -78 -249q4 0 36 -0.5t56 -0.5q89 0 112 1q47 155 70 254q5 20 -5 25t-53 7l5 13q17 0 68 -2t68 -2q48 0 144 4l-5 -13q-38 -2 -52 -7t-20 -22q-25 -61 -83 -275q-61 -221 -73 -282
q-4 -19 8.5 -24.5t63.5 -8.5l-7 -13q-15 0 -67.5 2t-86.5 2q-37 0 -85.5 -2t-57.5 -2l4 13q41 3 55.5 10t22.5 30q25 74 81 271q-40 2 -110 2q-66 0 -96 -2q-60 -210 -76 -279q-4 -18 8.5 -23.5t56.5 -8.5l-4 -13q-18 0 -77.5 2t-76.5 2q-26 0 -77 -2t-65 -2l4 13
q40 2 56 8.5t24 25.5q27 71 90 284q62 207 75 270q4 18 -8.5 24t-57.5 8z" />
    <glyph glyph-name="I" unicode="I" horiz-adv-x="330" 
d="M150 629l6 13q17 0 64 -2t75 -2q41 0 92 2t54 2l-5 -13l-37 -4q-16 -1 -23 -8t-15 -27q-14 -37 -84 -269q-67 -228 -77 -278q-3 -17 1.5 -22.5t19.5 -7.5l48 -4l-7 -13q-9 0 -65 2t-90 2q-43 0 -90.5 -2t-50.5 -2l5 13l42 4q13 2 20.5 8.5t15.5 25.5q16 40 88 278
q57 184 77 264q5 19 1.5 27t-19.5 9z" />
    <glyph glyph-name="J" unicode="J" horiz-adv-x="326" 
d="M147 629l9 13q12 0 54 -2t77 -2q39 0 89 2t57 2l-5 -12q-4 -1 -11 -2t-17 -2t-15 -2q-16 -2 -24 -28q-20 -56 -119 -411q-26 -97 -54 -159q-29 -65 -90 -107q-61 -44 -146 -44q-32 0 -42 15q-7 10 -7 21l2 3q32 -20 64 -20q18 0 31 13t26 50q21 52 86 277q98 341 102 362
q4 26 -14 28z" />
    <glyph glyph-name="K" unicode="K" horiz-adv-x="627" 
d="M151 629l7 12q43 -3 138 -3q40 0 84.5 1.5t56.5 1.5l-4 -12l-36 -4q-25 -3 -32 -24q-22 -49 -85 -266q72 30 177.5 126t138.5 143q5 9 3 12t-13 5l-61 9l5 11q11 0 48.5 -1.5t58.5 -1.5q53 0 108 5l-4 -13q-75 -8 -108 -35l-96 -85.5t-129 -111.5q99 -301 135 -361
q8 -14 19.5 -19t47.5 -8l-6 -14q-58 3 -133 1q-31 -2 -46 -4q-23 -2 -35 -4q-6 23 -44 137.5t-52 162.5q-8 31 -18 32q-62 -213 -78 -284q-4 -21 18 -24l47 -4l-7 -13q-3 0 -59 1.5t-92 1.5q-33 0 -82.5 -1.5t-54.5 -1.5l5 13l39 4q15 1 23 9t15 26q30 80 90 281
q58 195 74 264q5 18 0.5 25t-21.5 8z" />
    <glyph glyph-name="L" unicode="L" horiz-adv-x="519" 
d="M492 192l13 -2q-13 -28 -76 -196q-30 6 -319 6q-31 0 -85 -2q-52 -2 -59 -2l3 13q40 4 47 5q14 2 20.5 7.5t12.5 21.5q38 103 95 297q32 105 72 259q3 13 -1 18t-22 7l-44 5l5 12q5 0 59 -1.5t84 -1.5q46 0 151 3l-5 -12l-47 -7q-10 -1 -15 -3t-10 -7.5t-8 -16.5
q-28 -79 -82 -263q-64 -219 -81 -298q-2 -10 2.5 -14t19.5 -4q67 0 100.5 7.5t60.5 30.5q52 44 109 138z" />
    <glyph glyph-name="M" unicode="M" horiz-adv-x="804" 
d="M159 629l7 12q117 -3 134 -3q59 0 86 3q-1 -30 15.5 -204.5t19.5 -237.5l262 442q26 -2 47 -2q16 -1 44 -1q19 0 41 0.5t46 2t34 1.5l-4 -13q-8 -1 -53 -7q-19 -4 -26 -26q-18 -61 -69.5 -272t-61.5 -277q-3 -19 3 -25t29 -8l42 -5l-5 -13q-120 4 -168 4q-45 0 -137 -4
l6 13q42 5 55 11.5t20 27.5q30 94 158 560h-1l-346 -607q-14 -2 -34 -6t-24 -5q-1 54 -11.5 275t-13.5 325h-1l-55.5 -173l-47.5 -148l-32.5 -103.5t-24.5 -87.5q-10 -41 3.5 -52t80.5 -17l-6 -13q-15 0 -54 2t-59 2q-23 0 -66 -2t-47 -2l5 13q7 1 25.5 3t26.5 4q30 6 45 42
q102 251 194 543q3 11 -1.5 15t-17.5 6z" />
    <glyph glyph-name="N" unicode="N" horiz-adv-x="622" 
d="M516 165q102 381 105 430q1 14 -5 19.5t-24 7.5l-60 7l9 13q21 0 54 -2t48 -2q17 0 59 2t53 2l-6 -13q-30 -3 -52 -8q-21 -6 -32 -27q-22 -45 -73.5 -224t-94.5 -371q-42 0 -80 -12q-25 81 -197 560q-102 -380 -120 -478q-4 -26 0 -36.5t20 -13.5q43 -7 64 -9l-6 -14
q-8 0 -51 2t-65 2q-8 0 -104 -4l6 14q21 1 52 7q24 5 41 44q26 60 151 506q5 19 -8 36.5t-32 19.5l-48 6l5 13q11 0 50.5 -2t68.5 -2q38 0 95 3q46 -132 177 -476z" />
    <glyph glyph-name="O" unicode="O" horiz-adv-x="667" 
d="M449 655h1q112 0 172 -60.5t60 -168.5q0 -84 -32.5 -177t-87.5 -154q-99 -112 -262 -112q-111 0 -172.5 56.5t-61.5 166.5q0 106 50.5 215.5t131.5 170.5q85 63 201 63zM458 641h-1q-54 0 -101 -60q-57 -77 -101.5 -223t-43.5 -246q0 -114 83 -114q61 0 108 68
q58 87 97 221.5t39 242.5q0 111 -80 111z" />
    <glyph glyph-name="P" unicode="P" horiz-adv-x="571" 
d="M139 629l8 13q5 0 57 -2t77 -2q21 0 68 2t76 2q78 0 111.5 -13.5t55.5 -40.5q29 -35 29 -102q0 -54 -23 -103.5t-67 -81.5q-65 -48 -160 -48q-53 0 -77 12l4 12q13 -5 37 -5q32 0 63 30q35 34 57.5 99.5t22.5 125.5q0 45 -14 67q-18 32 -61 32q-29 0 -38 -22
q-34 -95 -97 -315q-48 -164 -65 -241q-4 -18 -0.5 -25t20.5 -8l66 -6l-7 -13q-13 0 -70.5 2t-100.5 2q-38 0 -93 -2t-56 -2l3 13l43 3q18 2 27 10t15 26q27 70 91 282q59 196 75 268q3 13 -2 18t-22 7z" />
    <glyph glyph-name="Q" unicode="Q" horiz-adv-x="667" 
d="M456 641h-2q-56 0 -103 -67q-49 -73 -94 -212t-45 -244q0 -120 82 -120q62 0 111 71q57 88 95 220t38 241q0 50 -20 80.5t-62 30.5zM667 -113l1 -7q-21 -28 -66 -44.5t-85 -16.5q-34 0 -71.5 18.5t-62 38.5t-57.5 52q-23 22 -45.5 36.5t-34 19t-36.5 12.5
q-143 48 -144 209q0 106 49.5 216t131.5 169q87 65 205 65q107 0 168 -57.5t61 -170.5q0 -85 -31 -175t-84 -151q-52 -60 -115.5 -86t-112.5 -29v-3q24 -6 96 -36.5t94 -38.5q74 -27 139 -21z" />
    <glyph glyph-name="R" unicode="R" horiz-adv-x="601" 
d="M143 629l7 12q4 0 54.5 -1.5t74.5 -1.5q15 0 74 1.5t91 1.5q63 0 92.5 -8t49.5 -27q30 -28 30 -88q0 -88 -66 -133.5t-179 -53.5v-6q86 -12 124.5 -38.5t36.5 -78.5q5 -34 -17 -118q-20 -81 38 -81q21 0 28 2l-9 -15q-30 -6 -77 -6q-75 0 -108 30t-20 92l11.5 46.5
l14.5 59.5q12 57 -2.5 76.5t-67.5 21.5q-31 3 -48 0q-65 -229 -75 -271q-4 -16 0 -22t19 -8l50 -5l-6 -13q-5 0 -62 1.5t-90 1.5q-28 0 -82.5 -1.5t-63.5 -1.5l7 13l34 4q20 2 28 8.5t16 26.5q11 24 91 283q53 174 75 262q4 16 -0.5 22t-21.5 7zM404 625h-13q-21 0 -27 -19
q-4 -10 -82 -271q8 -2 28 -2q53 0 91.5 36.5t54.5 83t16 92.5q0 44 -17 61q-18 19 -51 19z" />
    <glyph glyph-name="S" unicode="S" horiz-adv-x="478" 
d="M73 221l15 5q-11 -46 -11 -85q0 -70 36.5 -105.5t98.5 -35.5q49 0 84 32t35 85q0 42 -21 66q-17 24 -128 132q-59 56 -59 134q0 102 81 164q53 42 139 42q102 0 144 -55l37 49l6 -10q-41 -83 -72 -195l-11 5q18 89 -9 139.5t-90 50.5q-53 0 -81.5 -31.5t-29.5 -76.5
q0 -50 36 -85l82.5 -84t54.5 -55q45 -41 45 -109q0 -80 -55 -140q-72 -75 -200 -75q-99 0 -189 55q37 75 62 183z" />
    <glyph glyph-name="T" unicode="T" horiz-adv-x="565" 
d="M105 449l-9 9q40 80 76 193q27 -8 79 -11q72 -2 130 -2h67q116 0 158.5 2t70.5 11q-42 -94 -65 -194l-13 -5q11 80 -1 133q-6 23 -28.5 31t-87.5 7q-11 -33 -87 -288q-54 -186 -77 -291q-7 -27 17 -28q40 -6 68 -7l-7 -13q-7 0 -69 2t-98 2q-37 0 -96 -2t-73 -2l4 13
q5 0 21.5 2t30.5 3q31 3 40 25q29 74 101 306q71 237 80 278q-61 1 -88 -10t-53 -42q-58 -64 -91 -122z" />
    <glyph glyph-name="U" unicode="U" horiz-adv-x="622" 
d="M758 642l-3 -13q-48 -4 -62 -12.5t-25 -36.5q-13 -38 -33.5 -105l-47 -159.5t-36.5 -124.5q-19 -61 -46 -104t-76 -72q-53 -32 -152 -32q-119 0 -170 61q-45 57 -18 159l59.5 204.5t53.5 187.5q7 26 -10 28l-54 6l6 13q15 0 63.5 -2t82.5 -2q33 0 77.5 2t59.5 2l-4 -13
l-43 -6q-17 -3 -27 -26q-22 -53 -63.5 -196t-61.5 -231q-21 -89 19 -127q29 -29 81 -29q24 0 40 1.5t40 10.5t41.5 25.5t37 48.5t34.5 77q78 235 109 409q3 18 -2.5 26t-23.5 10l-57 7l4 13q12 0 50 -2t54 -2q18 0 52.5 2t50.5 2z" />
    <glyph glyph-name="V" unicode="V" horiz-adv-x="571" 
d="M94 629l5 13q9 0 54 -2t77 -2q33 0 84 2t66 2l-4 -13q-43 -2 -53 -8.5t-12 -29.5q-6 -98 -6 -479l59 92l63.5 100l54 87.5t59 100.5l48.5 91q19 35 -7 38q-30 6 -66 8l6 13q4 0 43 -2t58 -2q13 0 50.5 2t58.5 2l-4 -13q-44 -4 -63.5 -15.5t-42.5 -44.5q-63 -90 -169 -258
l-191 -314q-60 2 -95 -11l-3 2q7 452 -2 604q-1 16 -7.5 23t-25.5 9z" />
    <glyph glyph-name="W" unicode="W" horiz-adv-x="833" 
d="M101 629l7 13q13 0 57.5 -2t70.5 -2q30 0 83 2t70 2l-4 -13q-44 -3 -55.5 -10.5t-14.5 -32.5q-9 -75 -32 -428l92.5 188.5t117.5 251.5q9 25 12 36q12 -3 56 1.5t66 8.5q-10 -101 -23 -509q209 352 249 440q12 25 9.5 34.5t-21.5 11.5l-56 8l4 13q8 0 46.5 -2t54.5 -2
q25 0 58 2t48 2l-1 -13q-43 -3 -59.5 -12t-34.5 -34q-77 -111 -177 -279t-172 -304q-64 -5 -92 -14l-3 2q15 187 29 543l-105 -216.5l-94 -195.5l-55 -119q-60 -2 -93 -14l-4 2q34 468 34 600q0 18 -4.5 25t-16.5 9q-39 7 -47 7z" />
    <glyph glyph-name="X" unicode="X" horiz-adv-x="576" 
d="M113 630l8 12q9 0 56.5 -1.5t81.5 -1.5q93 0 153 3l-3 -12q-41 -4 -51.5 -10.5t-6.5 -27.5l43 -175q113 136 136 171q11 18 8 25.5t-20 9.5l-47 7l4 12q75 -3 108 -3q25 0 62 1.5t47 1.5l-5 -12q-36 -3 -58.5 -10.5t-33.5 -15.5t-38 -32q-42 -39 -158 -178
q51 -220 98 -345q9 -29 37 -34l51 -6l-4 -13q-12 0 -41 1.5t-56 2t-50 0.5q-29 0 -79.5 -2t-82.5 -2l2 13q43 4 54.5 10.5t7.5 21.5t-56 244q-159 -188 -182 -229q-12 -20 -9 -28t22 -11l57 -8l-5 -13q-84 4 -113 4q-32 0 -71 -2t-45 -2v13q42 4 65.5 14t47.5 32
q45 40 230 251q-20 84 -39 152t-30 103t-12 38q-8 23 -36 25z" />
    <glyph glyph-name="Y" unicode="Y" horiz-adv-x="516" 
d="M390 9l-3 -13q-18 0 -86.5 2t-98.5 2q-34 0 -84 -2t-77 -2l5 13l30.5 3t31.5 4q16 2 24.5 10t18.5 30q17 38 66 214q3 18 1 47q-2 23 -23.5 121t-35.5 149q-7 25 -20.5 32t-53.5 10l4 13q92 -4 132 -4q47 0 149 4l-4 -13q-38 -3 -48.5 -9.5t-8.5 -22.5q5 -39 50 -271
l57.5 82.5l54 76.5t37.5 55.5t28 47.5q15 29 -6 32q-42 8 -60 9l6 13q10 0 44 -2t55 -2q17 0 51 2t54 2l-4 -13q-40 -4 -58 -11.5t-42 -34.5q-80 -87 -196 -262q-11 -18 -24 -58q-47 -160 -52 -219q-3 -24 18 -27q9 -2 32 -4t36 -4z" />
    <glyph glyph-name="Z" unicode="Z" horiz-adv-x="597" 
d="M137 436l-11 6q42 111 50 210q20 -9 67 -13q21 -1 136 -1h152q21 0 61 1.5t59 1.5q-22 -46 -47 -77l-193 -241l-236 -306q155 0 211 11t84 42q51 51 98 149l10 -8q-41 -122 -61 -217q-23 3 -88 5q-35 1 -112 1h-212q-95 0 -126 -3l-1 8q278 330 494 615h-84
q-82 0 -114 -11t-59 -46q-38 -50 -78 -127z" />
    <glyph glyph-name="bracketleft" unicode="[" horiz-adv-x="330" 
d="M180 -154l-11 -16q-142 3 -187 -5l125 437l120 431q18 -3 84.5 -2.5t106.5 2.5l-8 -15q-32 0 -84 -8q-17 -4 -21 -18q-26 -56 -120 -390q-94 -332 -104 -398q-1 -7 4.5 -10t20.5 -4z" />
    <glyph glyph-name="backslash" unicode="\" horiz-adv-x="377" 
d="M168 661l28 15q13 -145 41 -392q39 -354 42 -373l-29 -12q-12 144 -39 394q-39 344 -43 368z" />
    <glyph glyph-name="bracketright" unicode="]" horiz-adv-x="330" 
d="M181 673l11 16q146 -3 187 4l-127 -437q-96 -343 -117 -431q-20 4 -86 3.5t-106 -3.5l8 16q38 0 83 7q16 3 23 19q29 70 120 389q94 337 103 399q1 8 -5 11t-20 3z" />
    <glyph glyph-name="asciicircum" unicode="^" horiz-adv-x="457" 
d="M432 299h-53l-132 287l-128 -287h-54l162 341h44z" />
    <glyph glyph-name="underscore" unicode="_" horiz-adv-x="500" 
d="M450 -111v-58h-500v58h500z" />
    <glyph glyph-name="grave" unicode="`" horiz-adv-x="442" 
d="M341 477l-10 -4l-41.5 51l-35.5 43t-18 23q-20 27 -19 53q1 17 10.5 25.5t18.5 8.5q27 0 43 -33q6 -12 52 -167z" />
    <glyph glyph-name="a" unicode="a" horiz-adv-x="522" 
d="M506 119l10 -10q-22 -49 -64.5 -85.5t-101.5 -36.5q-84 0 -54 102q4 16 7 24l-1 -1h-1q-82 -125 -191 -125q-85 0 -85 102q0 80 45.5 168t111.5 134q62 42 123 42q62 0 79 -46l11 34h123q-27 -75 -62.5 -191t-43.5 -161q-7 -36 9 -36q19 0 42 24.5t43 61.5zM157 83v-1
q0 -46 27 -46q63 0 131 151q16 34 33.5 86.5t17.5 79.5q0 57 -36 57q-34 0 -64 -38q-45 -55 -77 -141t-32 -148z" />
    <glyph glyph-name="b" unicode="b" horiz-adv-x="502" 
d="M130 652l4 13q137 5 206 18q-22 -59 -69.5 -208t-47.5 -150q87 108 188 108q88 0 88 -107q-1 -82 -49.5 -172.5t-117.5 -128.5q-65 -38 -151 -38q-91 0 -127 36q-31 26 -18 73l76 249q63 208 82 292q1 12 -11 12zM192 2h1q25 0 51 23q40 35 81 136.5t43 179.5
q2 51 -28 51q-26 0 -62 -34t-59 -88q-25 -55 -45.5 -121t-20.5 -94q0 -53 39 -53z" />
    <glyph glyph-name="c" unicode="c" horiz-adv-x="425" 
d="M397 152l1 -38q-31 -54 -89.5 -90.5t-125.5 -36.5q-148 0 -148 145q0 72 36.5 143.5t99.5 113.5q65 44 145 44q55 0 87.5 -24t32.5 -67q0 -35 -21.5 -52t-44.5 -17q-24 0 -34 12q-17 15 -8 37q15 36 15 56q0 40 -30 40q-52 0 -96 -93q-50 -100 -50 -207q0 -97 66 -97
q104 0 158 131h6z" />
    <glyph glyph-name="d" unicode="d" horiz-adv-x="535" 
d="M522 122l9 -13q-62 -123 -173 -123q-36 0 -51.5 26t-0.5 81q3 10 7 25q-83 -131 -193 -131q-93 0 -93 114q0 83 45.5 169t117.5 129q53 34 116 34q62 0 84 -34q49 155 67 236q2 13 -9 15q-30 3 -58 3l7 14q123 0 212 16q-49 -122 -142 -459q-37 -134 -42 -159
q-6 -33 8 -33q17 0 44.5 27.5t44.5 62.5zM161 82v-1q0 -48 30 -48q56 0 125 139q19 39 38 100.5t19 87.5q0 54 -40 54q-32 0 -63 -34q-39 -43 -74 -132.5t-35 -165.5z" />
    <glyph glyph-name="e" unicode="e" horiz-adv-x="422" 
d="M393 153l4 -39q-31 -51 -91.5 -89t-135.5 -38q-67 0 -103 35.5t-36 105.5q0 67 33.5 138.5t95.5 118.5q64 48 145 48q61 0 91.5 -27.5t30.5 -73.5q0 -60 -72 -85q-30 -14 -88 -27.5t-92 -17.5q-11 -51 -11 -88q0 -93 67 -93q49 0 90.5 35t65.5 97h6zM297 417h-2
q-7 0 -15 -3.5t-20.5 -16t-25 -32.5t-27.5 -57.5t-28 -87.5q50 6 87 23q28 13 42.5 49.5t14.5 77.5q0 47 -26 47z" />
    <glyph glyph-name="f" unicode="f" horiz-adv-x="277" 
d="M64 418h68q43 142 110 206q59 59 147 59q47 0 73 -20.5t26 -58.5q0 -29 -20.5 -44t-42.5 -15t-31.5 8t-7.5 20q7 37 7 51q2 43 -24 43t-47 -55q-24 -70 -54 -194h86l-7 -15l-84 -6q-82 -323 -126 -422q-55 -120 -175 -189q-45 -27 -95 -27q-25 0 -47.5 17t-22.5 40
q0 16 13 34t30 26q27 12 39 -10q37 -63 68 -63q13 0 21.5 9.5t15.5 32.5q9 23 21 65.5t28 105l29 115.5l33.5 137l31.5 129l-70 6z" />
    <glyph glyph-name="g" unicode="g" horiz-adv-x="437" 
d="M271 433h2q71 0 109 -33q56 44 93 44q19 0 29.5 -8t10.5 -19q0 -20 -32 -47q-18 13 -44 18.5t-46 0.5q24 -32 24 -74q0 -84 -59.5 -135.5t-144.5 -51.5q-56 0 -95 22q-27 -10 -27 -32q0 -23 39 -35q56 -16 152 -40q58 -14 88 -38.5t30 -76.5q0 -45 -22 -80t-58.5 -55.5
t-78 -30.5t-84.5 -10q-83 0 -151 33.5t-68 91.5q0 42 33 62t75 20q19 0 46 -8l1 -11q-32 4 -52.5 -13.5t-20.5 -46.5q0 -50 50.5 -79t115.5 -29q55 0 86 21t31 57q0 43 -58 62l-147 47q-90 28 -90 95q0 68 98 106q-37 31 -37 86q0 80 59.5 133.5t142.5 53.5zM281 418h-1
q-20 0 -40 -27q-23 -32 -41.5 -95t-18.5 -106q0 -47 31 -47q22 0 43 29q21 31 38.5 96t17.5 106q0 44 -29 44z" />
    <glyph glyph-name="h" unicode="h" horiz-adv-x="525" 
d="M127 649l3 14q26 0 104 6.5t108 13.5q-24 -58 -125 -389q107 139 216 139q33 0 54 -19q30 -27 3 -104l-89 -258q-7 -21 6 -21q22 0 49 27.5t47 68.5l9 -15q-64 -125 -174 -125q-51 0 -59.5 35.5t13.5 86.5l86 240q6 16 2 29t-19 13q-22 0 -55.5 -25.5t-64.5 -73.5
q-30 -47 -70 -160q-17 -47 -42 -133q-43 0 -132 -7l119 372q65 218 75 266q3 16 -16 17z" />
    <glyph glyph-name="i" unicode="i" horiz-adv-x="281" 
d="M251 634h1q26 0 40.5 -17t13.5 -45q-1 -33 -22.5 -51t-50.5 -18q-24 0 -40.5 16.5t-15.5 42.5q2 35 25 53.5t49 18.5zM66 395l6 14q133 6 208 24l2 -3q-22 -52 -65.5 -188.5t-56.5 -193.5q-5 -20 8 -20q20 0 49.5 26t48.5 68l9 -16q-64 -119 -173 -119q-52 0 -64.5 28.5
t5.5 74.5q81 258 89 285q4 18 -8 18q-3 0 -25.5 1t-32.5 1z" />
    <glyph glyph-name="j" unicode="j" horiz-adv-x="259" 
d="M236 634h1q27 0 41.5 -16.5t12.5 -44.5q-2 -33 -23 -51.5t-50 -18.5q-24 0 -39.5 16.5t-14.5 43.5q1 33 24 52t48 19zM59 407q152 12 210 27l2 -3q-107 -400 -144 -488q-39 -88 -102 -131q-79 -53 -147 -53q-37 0 -58.5 16.5t-21.5 36.5q0 22 20 41t39 19q17 0 23 -20
l17.5 -34.5t15 -20t18.5 -9.5q21 0 39 44q17 42 74 244q67 227 81 293q3 15 0 19.5t-13 4.5l-56 1z" />
    <glyph glyph-name="k" unicode="k" horiz-adv-x="477" 
d="M130 651l6 12q146 7 206 18q-62 -165 -141 -442q44 10 106 81q4 4 16 18.5l17 20.5t16.5 18.5t18.5 18.5t18.5 14.5t20.5 13t20 7.5t22 3q40 0 40 -36q0 -27 -24 -40q-12 -7 -21 0q-19 13 -39 13q-33 0 -75 -45q-14 -15 -48 -47q28 -6 50 -32.5t26 -74.5q2 -25 6 -61
t5 -47q3 -27 18 -27q37 0 73 86l10 -15q-50 -125 -163 -125q-59 0 -64 77q-2 23 -2 65v50q-1 53 -29 53q-5 0 -23 -6q-46 -156 -63 -222q-85 0 -133 -6q49 148 110 351q75 250 84 287q3 16 -15 16z" />
    <glyph glyph-name="l" unicode="l" horiz-adv-x="267" 
d="M130 649l2 14q136 0 210 20q-26 -60 -110 -344q-59 -196 -77 -281q-7 -26 8 -26q19 0 48 24t47 60l9 -12q-33 -59 -79.5 -88t-97.5 -29q-30 0 -46.5 9t-20 25.5t-1.5 32t9 36.5l81 264q64 211 78 277q1 10 -1 12.5t-13 3.5z" />
    <glyph glyph-name="m" unicode="m" horiz-adv-x="794" 
d="M771 121l9 -12q-29 -60 -78.5 -91t-100.5 -31q-30 0 -46 10t-17.5 29t2.5 37.5t14 44.5l90 235q15 41 -15 41q-46 0 -101.5 -81.5t-86.5 -165.5q-24 -66 -47 -137q-59 -1 -132 -8q30 78 70 197.5t50 163.5q8 31 -14 31q-41 0 -94.5 -71t-90.5 -177q-17 -44 -46 -136
q-46 -1 -132 -9q83 215 125 380q3 15 0.5 19t-12.5 5l-50 1l3 12q137 13 192 25q-12 -60 -38 -152q104 152 218 152q42 0 55 -28t5 -61q-4 -15 -19 -65q107 154 219 154q39 0 58 -21q24 -29 -3 -102l-48 -129t-45 -126q-6 -22 9 -22q20 0 48.5 25.5t48.5 62.5z" />
    <glyph glyph-name="n" unicode="n" horiz-adv-x="531" 
d="M513 121l10 -12q-29 -60 -78.5 -91t-100.5 -31q-92 0 -52 110l28.5 77.5l35 96.5l24.5 69q16 47 -14 47q-46 0 -98 -78.5t-80 -154.5q-35 -93 -53 -154q-76 -2 -130 -9q88 231 122 384q4 19 -11 19l-53 1l5 13q108 7 193 25q-6 -46 -42 -159q103 159 220 159q33 0 53 -17
q33 -29 2 -111q-77 -218 -87 -249q-7 -23 10 -23q20 0 48 25t48 63z" />
    <glyph glyph-name="o" unicode="o" horiz-adv-x="486" 
d="M307 433h1q164 0 164 -152q0 -71 -36.5 -145.5t-93.5 -110.5q-64 -38 -145 -38q-74 0 -119 31.5t-45 115.5q0 69 34.5 140.5t90.5 111.5q68 47 149 47zM313 418h-1q-33 0 -64 -45q-36 -51 -65.5 -150t-29.5 -160q0 -62 41 -62q29 0 58 37q37 50 68.5 153.5t31.5 169.5
q0 57 -39 57z" />
    <glyph glyph-name="p" unicode="p" horiz-adv-x="517" 
d="M23 303q68 32 103 76q22 71 29 100q78 10 127 30l3 -3q-30 -87 -64 -205q20 27 37.5 46t42.5 41t54 33.5t60 11.5q94 0 94 -114q0 -88 -49.5 -179.5t-122.5 -128.5q-49 -24 -105 -24q-62 0 -88 33q-18 -59 -53 -194q-5 -18 -1.5 -25t18.5 -8l57 -6l-5 -14h-123
q-97 0 -166 -7l5 14l42 6q25 4 33 27q66 177 164 519q-42 -29 -83 -39zM349 389h-1q-52 0 -123 -129q-21 -37 -40.5 -100t-19.5 -97q0 -26 12 -40.5t32 -14.5q37 0 71 43q36 46 67 134t31 152q0 52 -29 52z" />
    <glyph glyph-name="q" unicode="q" horiz-adv-x="513" 
d="M418 -217l-5 -12q-36 4 -130 2q-80 0 -154 -7l1 13q35 5 58 9q20 4 31 28q8 17 92 286q-84 -115 -191 -115q-94 0 -94 104q0 84 47.5 174t128.5 138q48 30 104 30q68 0 88 -47l12 38h124q-62 -186 -97 -314q-73 -258 -79 -300q-3 -18 14 -21zM337 410h-1q-30 0 -62 -37
q-49 -58 -81.5 -146t-32.5 -151q0 -47 30 -47q57 0 113 101q23 43 48 115t26 106q1 25 -9 42t-31 17z" />
    <glyph glyph-name="r" unicode="r" horiz-adv-x="390" 
d="M56 393l8 13q122 4 191 27q-2 -31 -36 -167h3q41 94 76.5 130.5t76.5 36.5q26 0 40 -18.5t14 -38.5q0 -42 -22.5 -66.5t-49.5 -24.5q-23 0 -33 21q-8 20 -14 23q-3 1 -7 1q-40 0 -86 -114q-37 -91 -71 -217q-28 0 -136 -7q33 91 68 209t40 170q1 11 -1.5 15t-12.5 5
q-26 2 -48 2z" />
    <glyph glyph-name="s" unicode="s" horiz-adv-x="372" 
d="M372 435l8 -8q-37 -80 -55 -160h-12q17 71 -5 111t-72 40q-30 0 -48 -17.5t-18 -42.5q0 -32 23 -54q4 -4 100 -80q44 -33 44 -86q0 -60 -45 -100q-54 -51 -147 -51q-76 0 -144 35q28 70 52 161l11 2q-5 -27 -7 -62q-4 -57 24 -88.5t79 -31.5q35 0 56 16.5t21 44.5
q0 24 -19 43q-8 8 -24.5 21.5l-38.5 31.5l-34 28q-45 37 -45 94q0 68 51 112q45 39 116 39q37 0 64 -11.5t38 -25.5z" />
    <glyph glyph-name="t" unicode="t" horiz-adv-x="311" 
d="M290 129l11 -25q-29 -60 -77 -88.5t-102 -28.5q-57 0 -76.5 25.5t-1.5 84.5l90 300l-67 6l7 15h66l35 123q77 4 143 27q-5 -13 -50 -150h97l-11 -15l-92 -6q-72 -224 -101 -348q-7 -29 22 -29q32 0 63 33.5t44 75.5z" />
    <glyph glyph-name="u" unicode="u" horiz-adv-x="521" 
d="M509 119l9 -12q-65 -121 -174 -121q-44 0 -55 27t2 61q8 30 12 41q-86 -128 -193 -128q-55 0 -69 32t4 83q11 40 31 102.5l36.5 115.5t18.5 58q5 16 -13 16l-48 1l7 13q130 8 199 25q-14 -25 -52.5 -147t-60.5 -207q-10 -46 15 -46q42 0 86 57.5t66 123.5q1 3 50 164
q5 16 -13 16l-42 1l5 13q100 2 195 25q-24 -55 -63.5 -179.5t-54.5 -196.5q-7 -28 8 -28q17 0 44.5 23.5t49.5 66.5z" />
    <glyph glyph-name="v" unicode="v" horiz-adv-x="427" 
d="M74 394l-41 1l5 13q135 10 197 25q-15 -59 -20 -222q-2 -73 0 -137q139 135 147 286q1 17 -1 56q48 24 71 24q3 0 6.5 -7.5t5.5 -21t2 -27.5q-2 -40 -25 -79q-35 -57 -121.5 -161t-130.5 -148q-35 0 -82 -9q11 291 5 393q-1 14 -18 14z" />
    <glyph glyph-name="w" unicode="w" horiz-adv-x="656" 
d="M84 395l-40 1l6 13q142 7 200 24q-20 -59 -49 -327q68 104 134 224q4 8 16 88q34 0 128 12q-22 -82 -29 -234q-5 -82 -4 -123q67 74 104 141.5t42 151.5q2 24 2 49q15 10 37 17.5t30 7.5q3 0 7 -8t6.5 -21.5t1.5 -26.5q-1 -34 -26 -77q-26 -46 -109.5 -148.5
t-140.5 -162.5q-69 -6 -82 -9q0 120 17 304l-181 -295q-33 -2 -87 -9q39 319 37 391q-1 16 -20 17z" />
    <glyph glyph-name="x" unicode="x" horiz-adv-x="455" 
d="M443 127l8 -12q-66 -129 -170 -129q-32 0 -47 26t-25 76l-12 69q-63 -104 -86 -131q-37 -48 -81 -48q-26 0 -39.5 15.5t-13.5 39.5q1 26 18 41.5t36 15.5t27 -17q13 -21 22 -21q20 0 44 29.5t68 98.5q-36 176 -36 177q-6 20 -11.5 25t-16.5 5q-36 0 -52 -1l2 11
q159 26 194 39q7 -51 27 -145q54 81 87.5 113.5t72.5 32.5q30 0 43 -15q-2 -6 -3 -10q-54 1 -97 -31.5t-99 -111.5q16 -95 33 -162q13 -45 22 -52q5 -3 11 -3q12 0 32.5 17.5t41.5 57.5z" />
    <glyph glyph-name="y" unicode="y" horiz-adv-x="422" 
d="M28 406q39 2 104 11t97 20q-3 -47 17 -320l78 152q44 84 82.5 126t97.5 48l2 -12q-62 -20 -145 -153q-29 -46 -178 -316q-67 -122 -108.5 -162.5t-93.5 -40.5q-32 0 -49.5 18.5t-16.5 45.5q0 24 17 42t41 18t31 -25q9 -39 32 -39q16 0 31.5 11.5t32 35t27.5 42.5t27 50
q-22 18 -29 75q-17 233 -36 332q-4 20 -14 24t-51 4z" />
    <glyph glyph-name="z" unicode="z" horiz-adv-x="412" 
d="M388 196h1q7 0 7 -25q0 -50 -34.5 -95.5t-72.5 -70.5q-39 -25 -74 -25q-34 0 -123 25q-39 12 -61 12q-26 0 -47 -20l-8 9q8 16 33 48.5t37 40.5l277 226q-182 -4 -209 -10q-24 -5 -59 -67l-9 5q67 153 79 188q9 -9 33 -12q34 -6 158 -6q87 0 113 11l3 -7q-9 -18 -32 -52
t-45 -54q-40 -37 -142.5 -117.5t-118.5 -94.5q20 1 83 -10q98 -18 122 -18q67 0 67 51q0 16 -2 23q-1 12 2 20q16 25 22 25z" />
    <glyph glyph-name="braceleft" unicode="{" horiz-adv-x="330" 
d="M414 701l-4 -18q-63 4 -85.5 -18t-31.5 -94q-17 -133 -23 -160q-14 -71 -50 -100.5t-116 -45.5q115 -35 96 -139q-10 -48 -51 -148q-38 -91 -31 -122.5t77 -32.5l-9 -16q-73 -2 -113 43t-14 126q3 10 21 63.5t29 90.5t15 60q7 37 -10 52.5t-69 16.5l7 15q62 -1 85 19.5
t36 86.5q7 30 17.5 89.5t12.5 69.5q17 87 77.5 126t133.5 36z" />
    <glyph glyph-name="bar" unicode="|" horiz-adv-x="269" 
d="M96 750h62v-1000h-62v1000z" />
    <glyph glyph-name="braceright" unicode="}" horiz-adv-x="330" 
d="M-48 -193l2 19q63 -4 86 18t32 94q17 132 23 159q14 70 50.5 100t114.5 48q-53 15 -79 49t-16 83q8 43 46 140q41 100 34.5 134t-75.5 35l9 14q73 2 112.5 -43t13.5 -126q-5 -17 -20.5 -64.5t-27 -86t-15.5 -61.5q-7 -38 9.5 -53t68.5 -16l-8 -15q-59 1 -82.5 -20
t-36.5 -85q-6 -26 -16.5 -84t-14.5 -78q-16 -86 -77.5 -125t-132.5 -36z" />
    <glyph glyph-name="asciitilde" unicode="~" horiz-adv-x="450" 
d="M365 292l41 -11q-11 -77 -37.5 -111.5t-70.5 -34.5q-43 0 -100 69q-31 38 -45 45q-9 5 -19 5q-42 0 -61 -114l-39 8q20 148 105 148q44 0 93 -60q43 -56 72 -56q46 0 61 112z" />
    <glyph glyph-name="uni00A0" unicode="&#xa0;" horiz-adv-x="161" 
 />
    <glyph glyph-name="exclamdown" unicode="&#xa1;" horiz-adv-x="247" 
d="M10 -235h-1q-25 0 -51 33.5t-16 70.5q6 22 44 71q110 146 139 252h17q-32 -124 -16 -253q8 -61 2 -83q-7 -29 -47.5 -60t-70.5 -31zM177 425h1q29 0 47 -18.5t17 -53.5q-2 -37 -25 -61.5t-59 -24.5q-32 0 -49 21.5t-15 49.5q2 38 25 62.5t58 24.5z" />
    <glyph glyph-name="cent" unicode="&#xa2;" horiz-adv-x="493" 
d="M393 583l28 7l-26 -72q47 -4 78.5 -30t31.5 -68q0 -28 -16.5 -43.5t-34.5 -15.5q-24 0 -33 13.5t-3 27.5q12 26 12 45q0 30 -10.5 40.5t-30.5 15.5l-123 -385q133 1 189 123h5l2 -38q-30 -44 -84.5 -74t-119.5 -37l-23 -77l-30 -7l30 84q-81 2 -125.5 40t-43.5 116
q1 68 38 134t107 105q68 37 162 33zM194 219v-1q0 -87 50 -97q14 40 125 384q-50 -6 -91 -56t-62 -112.5t-22 -117.5z" />
    <glyph glyph-name="sterling" unicode="&#xa3;" horiz-adv-x="493" 
d="M51 321l16 24q48 -3 82 -3q10 104 32 151q34 77 100 112q54 27 110 27q40 0 68 -10t41 -26.5t18 -31t5 -30.5q0 -30 -19 -47.5t-41 -17.5q-56 0 -43 48q10 33 10 45q1 55 -43 55q-24 0 -41 -23.5t-30 -82.5q-9 -43 -26 -169q99 0 141 3l-18 -25q-69 3 -127 3
q-16 -91 -58 -137q-46 -49 -140 -87q303 7 319 17l6 3t5.5 3t4.5 4.5t6 9.5q6 10 30 61l17 4q-45 -105 -66 -207l-7 -4q-73 6 -158 8q-55 2 -146 2q-19 0 -44.5 -0.5t-33.5 -0.5q-36 -2 -42 -2l-4 9l48 74q6 5 32.5 20t44.5 34.5t26 52.5q14 57 21 136q-47 0 -96 -2z" />
    <glyph glyph-name="currency" unicode="&#xa4;" horiz-adv-x="493" 
d="M305 463h-1q-57 0 -94 -56t-41 -127q-2 -46 19.5 -75t58.5 -29q67 0 101.5 57t37.5 127q5 103 -81 103zM318 499q62 0 97 -33l71 74l34 -43l-85 -62q23 -34 20 -91q-2 -40 -20.5 -81t-47.5 -67l62 -63l-48 -45l-48 82q-48 -33 -114 -33q-64 0 -96 32l-73 -77l-27 44
l77 60q-25 38 -22 94q2 41 22.5 83.5t53.5 68.5l-58 55l50 45l43 -72q46 29 109 29z" />
    <glyph glyph-name="yen" unicode="&#xa5;" horiz-adv-x="493" 
d="M94 604l8 14q32 0 81.5 -2t62.5 -2q49 0 86.5 2t40.5 2l-3 -13q-8 -2 -25 -3.5t-25 -2.5q-13 -3 -13 -23q0 -8 5.5 -43l13 -85.5t11.5 -86.5q131 181 145 206q11 23 1.5 29t-56.5 8l6 14q16 0 47 -2t46 -2q14 0 44 2t42 2l-4 -14q-33 1 -48.5 -7.5t-41.5 -35.5
q-57 -57 -177 -223q27 0 64.5 1.5t49.5 1.5l-15 -24q-5 0 -19 0.5t-38 1.5t-49 1l-22 -77q70 0 116 2l-14 -24q-39 3 -107 3q-17 -59 -47 -185q-4 -20 13 -22q32 -4 58 -5l-8 -15q-8 0 -59 1.5t-101 1.5q-11 0 -61.5 -1.5t-72.5 -1.5l5 14q37 3 57 7q21 4 29 24
q12 26 58 183q-97 -2 -112 -3l8 25q84 -3 110 -3l20 77q-81 0 -114 -3l13 23q4 0 16.5 -0.5t35.5 -1t52 -0.5q-5 54 -20.5 129t-26.5 104q-7 20 -21 26.5t-45 5.5z" />
    <glyph glyph-name="brokenbar" unicode="&#xa6;" horiz-adv-x="269" 
d="M93 675h65v-350h-65v350zM93 -175v350h65v-350h-65z" />
    <glyph glyph-name="section" unicode="&#xa7;" horiz-adv-x="417" 
d="M331 586h1q46 0 69.5 -21.5t23.5 -49.5q0 -24 -16 -38t-32 -14q-21 0 -34 14q-5 8 0 26q5 13 5 26q1 16 -10.5 27.5t-37.5 11.5q-25 0 -39 -18t-15 -41q0 -27 13 -53q3 -6 49 -75t61 -102q14 -34 14 -73q0 -59 -35 -121.5t-84 -105.5q-72 -67 -142 -67q-48 0 -77 20
t-29 59q0 24 15 40.5t39 16.5q31 0 39 -28q3 -13 -5 -24q-8 -12 -8 -28q0 -19 15 -29t39 -10q26 0 44.5 18.5t19.5 44.5q0 27 -29 72q-86 132 -93 146q-18 34 -18 86q0 71 38 134.5t97 108.5q61 47 122 47zM135 370v-1q0 -54 34 -108q17 -28 46 -71t39 -60q34 -60 17 -126
q52 46 52 119q0 40 -15 77q-8 21 -30.5 57.5l-45.5 72t-28 44.5q-33 61 -12 132q-57 -48 -57 -136z" />
    <glyph glyph-name="dieresis" unicode="&#xa8;" horiz-adv-x="442" 
d="M237 631h1q26 0 39.5 -15t12.5 -42q-1 -31 -21.5 -49.5t-45.5 -18.5q-23 0 -39 15.5t-15 42.5q1 31 22 49t46 18zM420 631h1q26 0 40 -15t13 -42q-1 -31 -21.5 -49.5t-46.5 -18.5q-24 0 -39 15.5t-14 42.5q1 32 21.5 49.5t45.5 17.5z" />
    <glyph glyph-name="copyright" unicode="&#xa9;" horiz-adv-x="692" 
d="M370 627h1q123 0 206 -88t83 -214q0 -125 -83.5 -212.5t-206.5 -87.5q-122 0 -205 87.5t-83 212.5q0 126 83 214t205 88zM371 606h-1q-112 0 -186 -79t-74 -201q0 -121 74.5 -200.5t187.5 -79.5q111 0 185.5 79.5t74.5 200.5q0 120 -73.5 200t-187.5 80zM513 269l10 -4
q-12 -49 -52 -74t-92 -25q-90 0 -133 49q-36 45 -36 112q0 81 54 128q45 41 125 41q57 0 96 -25q6 -4 8 0l12 25l7 -2q-9 -60 -5 -126h-9q-4 52 -32 85q-26 30 -62 30q-38 0 -61 -31q-29 -38 -29 -115q0 -75 28 -111q27 -34 74 -34q72 0 97 77z" />
    <glyph glyph-name="ordfeminine" unicode="&#xaa;" horiz-adv-x="371" 
d="M409 394l8 -16q-49 -80 -126 -80q-57 0 -40 54q3 10 8 23q-67 -77 -129 -77q-29 0 -44 16.5t-14 46.5q1 40 27 88.5t66 76.5q45 33 95 33q39 0 48 -32l7 21h95q-53 -118 -74 -207q-3 -13 6 -13q15 0 34.5 18t32.5 48zM274 543h-1q-16 0 -34 -23q-28 -34 -47.5 -82.5
t-20.5 -81.5q0 -25 13 -25q29 0 69 61q13 19 27 55.5t14 58.5q0 37 -20 37z" />
    <glyph glyph-name="guillemotleft" unicode="&#xab;" horiz-adv-x="415" 
d="M246 389l10 -9q-31 -73 -102 -166q30 -65 30 -170l-11 -10q-17 67 -53.5 118t-73.5 60l12 13q47 15 98.5 59t89.5 105zM401 377l7 -10q-16 -36 -46 -82.5t-53 -72.5q14 -32 23 -80t9 -78l-10 -9q-17 59 -48.5 103.5t-66.5 62.5l11 13q53 20 99.5 64t74.5 89z" />
    <glyph glyph-name="logicalnot" unicode="&#xac;" horiz-adv-x="450" 
d="M353 96v173h-313v43h360v-216h-47z" />
    <glyph glyph-name="uni00AD" unicode="&#xad;" horiz-adv-x="296" 
d="M35 189l23 59q109 -3 223 0l-23 -59q-112 1 -223 0z" />
    <glyph glyph-name="registered" unicode="&#xae;" horiz-adv-x="180" 
d="M173 631h1q33 0 54.5 -22.5t21.5 -57.5q0 -34 -22 -56.5t-55 -22.5t-55 22.5t-22 56.5t22.5 57t54.5 23zM173 623h-1q-27 0 -45.5 -20t-18.5 -53q0 -29 19 -49t46 -20q29 0 47.5 19.5t18.5 49.5q0 31 -18.5 52t-47.5 21zM133 586l1 6h45q24 0 24 -20q0 -16 -22 -20v-1
q18 -1 21 -12q4 -4 4 -13q0 -8 5 -8q2 1 7 1l-1 -5q-8 -3 -14 -3q-16 0 -18 19q0 2 -0.5 6t-0.5 5q-3 8 -12 8q-1 0 -3 -0.5t-5 -0.5q0 -21 1 -26q0 -3 3 -3l7 -1v-6h-42v6l7 1q5 0 5 3q1 5 1 31q0 25 -1 29q0 4 -4 4h-8zM184 570v1q0 15 -13 15q-6 0 -6 -2q-1 -2 -1 -30h8
q12 0 12 16z" />
    <glyph glyph-name="macron" unicode="&#xaf;" horiz-adv-x="442" 
d="M205 522l19 58h215l-19 -58h-215z" />
    <glyph glyph-name="degree" unicode="&#xb0;" horiz-adv-x="293" 
d="M275 650h1q48 0 72.5 -29.5t14.5 -78.5q-11 -52 -51.5 -82.5t-90.5 -30.5q-51 0 -77 27t-16 78q12 55 52.5 85.5t94.5 30.5zM273 635q-24 0 -43 -18.5t-27.5 -37t-12.5 -36.5q-11 -54 -2 -75t31 -21q61 0 86 98q19 89 -32 90z" />
    <glyph glyph-name="plusminus" unicode="&#xb1;" horiz-adv-x="443" 
d="M396 45v-43h-359v43h359zM240 81h-46v156h-157v42h157v147h46v-147h156v-42h-156v-156z" />
    <glyph glyph-name="two.superior" unicode="&#xb2;" horiz-adv-x="333" 
d="M378 579l9 -4q-11 -22 -52 -125q-56 4 -191 4q-51 0 -67 -1l-1 3q5 8 30 56q121 47 168 120q23 38 23 84q0 51 -31 51q-17 0 -29 -15.5t-15.5 -29.5t-7.5 -36q-8 -39 -39 -39q-40 0 -40 41q0 37 39 65t100 28q51 0 85 -22.5t34 -67.5q0 -59 -67 -92q-22 -12 -75 -35
t-81 -37q152 5 161 6q14 2 23 11q8 9 24 35z" />
    <glyph glyph-name="three.superior" unicode="&#xb3;" horiz-adv-x="333" 
d="M156 682l-8 27q15 28 52.5 50t86.5 22q50 0 74.5 -19.5t24.5 -48.5q0 -40 -50 -62q-24 -11 -83 -22v-4q76 -1 105 -30q15 -16 15 -46q-3 -48 -54 -77q-49 -26 -119 -26q-44 0 -78.5 16t-34.5 51q0 17 11.5 29.5t34.5 12.5q27 0 27 -38q0 -17 1.5 -27.5t9 -21t22.5 -10.5
q30 0 49 34.5t19 70.5q0 30 -11 41.5t-34 11.5q-20 0 -45 -7l-2 4l11 16q23 0 46 5q61 13 61 72q0 50 -48 50q-59 0 -79 -74h-4z" />
    <glyph glyph-name="acute" unicode="&#xb4;" horiz-adv-x="442" 
d="M270 476l-10 7l95 146q27 41 57 41q27 0 27 -31q0 -22 -38 -58q-9 -8 -131 -105z" />
    <glyph glyph-name="mu" unicode="&#xb5;" horiz-adv-x="509" 
d="M491 121l9 -17q-58 -119 -168 -119q-45 0 -61 24q-12 15 -2 47l19 59q-78 -126 -156 -126q-20 0 -30 13q-26 -102 -55 -248l-5 -4q-30 1 -65.5 17t-46.5 29l55 153.5t47 133.5l103 337q45 0 141 12q-22 -30 -62 -152t-56 -195q-10 -48 15 -48q39 0 76 51.5t62 115.5
q44 118 67 216q45 0 139 14q-30 -66 -69.5 -187.5t-56.5 -198.5q-5 -23 7 -23q20 0 46.5 25t46.5 71z" />
    <glyph glyph-name="paragraph" unicode="&#xb6;" horiz-adv-x="502" 
d="M571 540l-5 -14l-65 -8q-23 -1 -30 -26l-93 -334q-44 -157 -68 -215.5t-64 -90.5q-34 -29 -84 -29q-46 0 -71 22.5t-25 63.5q0 31 20.5 49.5t42.5 18.5q29 0 40 -21q4 -9 -4 -9q-24 0 -39.5 -12.5t-15.5 -34.5q0 -25 15.5 -41.5t47.5 -16.5q35 0 56.5 16.5t43.5 66
t50 151.5l19 69q-86 -19 -101 -19q-53 0 -94 47.5t-41 121.5q0 70 35.5 129t94.5 91q44 24 110 24q77 0 121 -1q63 -2 104 2z" />
    <glyph glyph-name="periodcentered" unicode="&#xb7;" horiz-adv-x="227" 
d="M114 137h-1q-26 0 -44.5 19t-17.5 51q2 35 25 60t57 25q31 0 48 -22t15 -51q-2 -39 -25 -60.5t-57 -21.5z" />
    <glyph glyph-name="cedilla" unicode="&#xb8;" horiz-adv-x="442" 
d="M204 0h18q-2 -3 -21.5 -25.5t-23.5 -28.5q61 -14 61 -65q0 -43 -29.5 -64t-69.5 -21q-34 0 -62 20l7 15q20 -13 49 -13q40 0 40 35q0 39 -60 39l-1 7q5 6 44 48t48 53z" />
    <glyph glyph-name="one.superior" unicode="&#xb9;" horiz-adv-x="333" 
d="M322 464l-5 -13q-17 0 -53 1.5t-55 1.5q-21 0 -54 -1.5t-45 -1.5l4 13l33 4q18 2 23 15q15 35 43 125q6 23 20.5 70.5t17.5 61.5q2 9 -6 9q-7 -1 -26 -1.5t-28 -0.5l9 13q106 6 153 21l2 -2q-9 -28 -26.5 -91t-22.5 -79q-22 -74 -33 -124q-3 -14 12 -17z" />
    <glyph glyph-name="ordmasculine" unicode="&#xba;" horiz-adv-x="348" 
d="M269 559h1q53 0 86 -26t33 -73q0 -76 -56 -119t-134 -43q-44 0 -79.5 20.5t-35.5 71.5q0 75 55 122t130 47zM272 545h-1q-20 0 -41 -27q-20 -25 -38 -80t-18 -91q0 -37 27 -37q21 0 37 20q25 30 43.5 85.5t18.5 89.5q0 40 -28 40z" />
    <glyph glyph-name="guillemotright" unicode="&#xbb;" horiz-adv-x="401" 
d="M189 33l-9 9l14 32.5t15.5 30l14.5 24.5t15.5 23.5l14 20l14.5 20t13 16.5q-29 68 -29 169l10 11q18 -68 54 -118t73 -60l-12 -12q-47 -15 -98.5 -60t-89.5 -106zM34 45l-6 12q34 82 98 155q-14 31 -23 78.5t-9 77.5l10 10q17 -59 48.5 -103t67.5 -63l-12 -13
q-53 -20 -99.5 -64.5t-74.5 -89.5z" />
    <glyph glyph-name="onequarter" unicode="&#xbc;" horiz-adv-x="688" 
d="M344 149l-3 13l211 197q41 4 91 17l3 -2l-56 -214q39 2 64 16l-3 -12q-24 -16 -67 -22l-22 -95q-65 0 -105 -8l-2 5l29 93q-90 0 -140 12zM489 158q10 30 20 64l19.5 65.5t12.5 42.5q-92 -83 -163 -161q44 -11 111 -11zM297 316l-5 -13q-17 0 -53 1.5t-54 1.5
q-21 0 -55 -1.5t-45 -1.5l4 13l33 4q18 2 23 15q15 35 43 125l15 49l15 51l9 32q0 9 -6 9q-7 -1 -26.5 -1.5t-28.5 -0.5l10 13q104 6 153 21l1 -2l-25.5 -88t-23.5 -82q-27 -98 -32 -124q-4 -14 12 -17zM652 664l15 -20l-554 -646l-14 21z" />
    <glyph glyph-name="onehalf" unicode="&#xbd;" horiz-adv-x="688" 
d="M289 316l-4 -13q-17 0 -53.5 1.5t-54.5 1.5q-21 0 -55 -1.5t-45 -1.5l4 13l33 4q18 3 23 15q12 26 43 125q33 109 38 132q2 9 -6 9q-7 -1 -26 -1.5t-28 -0.5l9 13q104 6 154 21l2 -2l-27.5 -92t-22.5 -78q-28 -103 -32 -124q-4 -14 12 -17zM639 664l16 -20l-554 -646
l-15 21zM659 175l9 -5q-13 -27 -52 -124q-56 4 -190 4q-52 0 -68 -1l-1 3q14 22 29 56q126 49 168 119q24 37 24 84q0 51 -32 51q-40 0 -51 -82q-7 -38 -39 -38q-40 0 -40 41q0 37 39 65t100 28q51 0 85 -22.5t34 -67.5q0 -58 -67 -92q-20 -10 -71.5 -32.5t-84.5 -38.5
q152 5 161 6q14 2 22 11q9 9 25 35z" />
    <glyph glyph-name="threequarters" unicode="&#xbe;" horiz-adv-x="688" 
d="M355 149l-3 13l211 197q46 4 90 17l4 -3q-22 -77 -56 -213q41 2 64 16l-3 -12q-24 -17 -66 -22q-12 -44 -23 -95q-67 0 -105 -8l-3 5q10 29 29 93q-89 0 -139 12zM500 158l52 171q-90 -80 -162 -160q41 -11 110 -11zM148 534l-8 27q14 28 52 50t87 22q51 0 75.5 -19
t24.5 -49q0 -41 -51 -62q-25 -11 -84 -22v-4q77 -1 106 -30q14 -17 14 -46q-1 -48 -53 -77q-49 -26 -120 -26q-43 0 -77.5 16t-34.5 51q0 17 11.5 29.5t33.5 12.5q29 0 27 -38q0 -18 1.5 -28.5t9.5 -20.5t23 -10q30 0 48.5 34.5t18.5 70.5q0 30 -11 41.5t-33 11.5
q-20 0 -46 -7l-2 4l12 16q24 0 46 5q30 6 45.5 22.5t15.5 50.5q0 49 -48 49q-59 0 -78 -74h-5zM672 664l15 -20l-555 -646l-13 21z" />
    <glyph glyph-name="questiondown" unicode="&#xbf;" horiz-adv-x="403" 
d="M232 209l12 3q36 -63 35 -103q-2 -43 -41 -75q-17 -14 -43.5 -33.5l-55 -39l-38.5 -26.5q-39 -29 -39 -74q0 -33 18.5 -52t46.5 -19q34 0 53.5 18.5t19.5 49.5q0 13 -8 40q-9 21 10 40q20 19 53 19q21 0 35.5 -15.5t14.5 -39.5q0 -59 -55.5 -93.5t-129.5 -34.5
q-66 0 -107 38.5t-41 101.5q0 96 87 145l136 83q43 27 37 67zM284 434h1q27 0 45 -19t17 -51q-2 -36 -25 -60t-58 -24q-32 0 -48 22t-14 50q1 38 24.5 60t57.5 22z" />
    <glyph glyph-name="Agrave" unicode="&#xc0;" horiz-adv-x="580" 
d="M517 658l5 -2q-13 -116 -22 -366q-8 -192 -3 -249q1 -25 21 -26l46 -5l-2 -14q-128 4 -141 4q-8 0 -148 -4l5 14q44 4 54 10.5t12 33.5q12 137 16 216q-101 0 -177 -13q-106 -172 -116 -193q-14 -31 1 -40.5t76 -13.5l-4 -14q-9 0 -28.5 1.5t-38.5 2t-36 0.5
q-45 0 -113 -4l3 14q43 6 63.5 18t48.5 52l329 495q15 19 18 38l3 16q91 -5 128 29zM362 290q2 27 8.5 123.5t10.5 146.5l-182 -280q47 5 163 10zM494 695l-6 -9q-26 10 -63 23l-62.5 22.5t-31.5 11.5q-26 12 -32 31q-13 37 17 46q26 11 54 -11q8 -6 61.5 -56z" />
    <glyph glyph-name="Aacute" unicode="&#xc1;" horiz-adv-x="580" 
d="M517 658l5 -2q-13 -116 -22 -366q-8 -192 -3 -249q1 -25 21 -26l46 -5l-2 -14q-128 4 -141 4q-8 0 -148 -4l5 14q44 4 54 10.5t12 33.5q12 137 16 216q-101 0 -177 -13q-106 -172 -116 -193q-14 -31 1 -40.5t76 -13.5l-4 -14q-9 0 -28.5 1.5t-38.5 2t-36 0.5
q-45 0 -113 -4l3 14q43 6 63.5 18t48.5 52l329 495q15 19 18 38l3 16q91 -5 128 29zM362 290q2 27 8.5 123.5t10.5 146.5l-182 -280q47 5 163 10zM411 688l-7 9q11 8 63 51.5t70 56.5q31 23 61 12q24 -11 11 -43q-10 -22 -45 -34q-65 -24 -153 -52z" />
    <glyph glyph-name="Acircumflex" unicode="&#xc2;" horiz-adv-x="580" 
d="M517 658l5 -2q-13 -116 -22 -366q-8 -192 -3 -249q1 -25 21 -26l46 -5l-2 -14q-128 4 -141 4q-8 0 -148 -4l5 14q44 4 54 10.5t12 33.5q12 137 16 216q-101 0 -177 -13q-106 -172 -116 -193q-14 -31 1 -40.5t76 -13.5l-4 -14q-9 0 -28.5 1.5t-38.5 2t-36 0.5
q-45 0 -113 -4l3 14q43 6 63.5 18t48.5 52l329 495q15 19 18 38l3 16q91 -5 128 29zM362 290q2 27 8.5 123.5t10.5 146.5l-182 -280q47 5 163 10zM474 812l11 3q37 -67 102 -120l-7 -9q-66 21 -115 50q-57 -27 -137 -50l-5 9q105 62 151 117z" />
    <glyph glyph-name="Atilde" unicode="&#xc3;" horiz-adv-x="580" 
d="M517 658l5 -2q-13 -116 -22 -366q-8 -192 -3 -249q1 -25 21 -26l46 -5l-2 -14q-128 4 -141 4q-8 0 -148 -4l5 14q44 4 54 10.5t12 33.5q12 137 16 216q-101 0 -177 -13q-106 -172 -116 -193q-14 -31 1 -40.5t76 -13.5l-4 -14q-9 0 -28.5 1.5t-38.5 2t-36 0.5
q-45 0 -113 -4l3 14q43 6 63.5 18t48.5 52l329 495q15 19 18 38l3 16q91 -5 128 29zM362 290q2 27 8.5 123.5t10.5 146.5l-182 -280q47 5 163 10zM355 693l-14 4q6 41 25 73t54 32q25 0 66 -28q32 -24 53 -24q13 0 23.5 15.5t12.5 41.5l14 -5q-5 -41 -23 -73.5t-53 -32.5
q-25 0 -67 30q-31 21 -50 21q-16 0 -27 -15t-14 -39z" />
    <glyph glyph-name="Adieresis" unicode="&#xc4;" horiz-adv-x="580" 
d="M517 658l5 -2q-13 -116 -22 -366q-8 -192 -3 -249q1 -25 21 -26l46 -5l-2 -14q-128 4 -141 4q-8 0 -148 -4l5 14q44 4 54 10.5t12 33.5q12 137 16 216q-101 0 -177 -13q-106 -172 -116 -193q-14 -31 1 -40.5t76 -13.5l-4 -14q-9 0 -28.5 1.5t-38.5 2t-36 0.5
q-45 0 -113 -4l3 14q43 6 63.5 18t48.5 52l329 495q15 19 18 38l3 16q91 -5 128 29zM362 290q2 27 8.5 123.5t10.5 146.5l-182 -280q47 5 163 10zM376 802h1q23 0 35.5 -15.5t10.5 -38.5q-3 -27 -22 -42.5t-40 -15.5q-20 0 -33.5 13.5t-10.5 39.5t19.5 42.5t39.5 16.5z
M564 802h1q23 0 35.5 -15.5t10.5 -38.5q-3 -26 -22.5 -42t-39.5 -16q-21 0 -34.5 13.5t-10.5 39.5t19.5 42.5t40.5 16.5z" />
    <glyph glyph-name="Aring" unicode="&#xc5;" horiz-adv-x="580" 
d="M517 658l5 -2q-13 -116 -22 -366q-8 -192 -3 -249q1 -25 21 -26l46 -5l-2 -14q-128 4 -141 4q-8 0 -148 -4l5 14q44 4 54 10.5t12 33.5q12 137 16 216q-101 0 -177 -13q-106 -172 -116 -193q-14 -31 1 -40.5t76 -13.5l-4 -14q-9 0 -28.5 1.5t-38.5 2t-36 0.5
q-45 0 -113 -4l3 14q43 6 63.5 18t48.5 52l329 495q15 19 18 38l3 16q91 -5 128 29zM362 290q2 27 8.5 123.5t10.5 146.5l-182 -280q47 5 163 10zM481 842h1q36 0 55.5 -20.5t15.5 -56.5q-4 -40 -32 -62t-69 -22q-36 0 -57 20t-17 56q4 39 32.5 62t70.5 23zM478 827h-1
q-36 0 -45 -75q-7 -55 22 -55q22 0 33 25t13 53q8 52 -22 52z" />
    <glyph glyph-name="AE" unicode="&#xc6;" horiz-adv-x="868" 
d="M570 638h166q112 0 159 8q-22 -46 -58 -189h-12q6 64 -1 106q-6 36 -27 47t-85 11h-43q-17 0 -22 -16q-17 -54 -70 -275q10 0 29 -0.5t26 -0.5q94 -1 136 98h12q-30 -76 -74 -252l-12 4q20 131 -68 131q-37 0 -56 -1q-54 -230 -61 -264q-3 -18 4.5 -23.5t42.5 -5.5
q56 0 88.5 7t60.5 27q63 43 129 141l10 -5q-77 -188 -80 -193q-10 0 -38 2t-48 3q-78 2 -153 2h-92q-43 0 -101 -2q-56 -2 -65 -2l6 13l50 5q25 3 36 32q30 98 72 263q-6 0 -75 -0.5t-105 -2.5l-39 -51l-48.5 -64.5l-40.5 -57.5t-38 -61q-19 -31 -3.5 -44t84.5 -19l-5 -13
q-20 0 -59.5 2t-61.5 2q-14 0 -56 -2t-64 -2l4 13q45 5 68 18.5t57 58.5q164 220 415 519q14 14 -6 16l-86 7l6 14q53 -4 192 -4zM436 330l74 286h-12q-38 -43 -227 -284q69 -4 165 -2z" />
    <glyph glyph-name="Ccedilla" unicode="&#xc7;" horiz-adv-x="590" 
d="M328 -16l-31 -37q62 -14 62 -67q0 -43 -29.5 -64t-69.5 -21q-31 0 -63 20l7 16q19 -14 49 -14q40 0 40 35q0 18 -15.5 29t-43.5 11l-2 7q5 6 37.5 41.5t38.5 42.5h-7q-234 0 -234 239q0 91 42.5 190t117.5 163q94 80 231 80q112 0 160 -59l39 54l9 -5q-48 -122 -69 -220
h-11q13 102 -17 158q-28 54 -92 54q-73 0 -134 -76q-61 -78 -92 -181.5t-31 -200.5q0 -88 34 -129q30 -38 86 -38q82 0 135 41t87 122h7q1 -5 1 -23.5t1 -23.5q-37 -62 -100.5 -100t-142.5 -44z" />
    <glyph glyph-name="Egrave" unicode="&#xc8;" horiz-adv-x="559" 
d="M143 629l4 13q12 0 68 -2q58 -2 89 -2h170q86 0 138 5q-10 -20 -30.5 -85t-27.5 -99h-11q3 81 0 105q-5 37 -24.5 47.5t-85.5 10.5h-43q-18 0 -24 -17q-26 -67 -80 -258q8 -2 52 -2q92 0 135 95h13q-37 -85 -73 -241l-10 3q15 125 -69 125q-46 0 -56 -2
q-64 -221 -78 -280q-3 -17 4.5 -22.5t42.5 -5.5q62 0 96.5 6.5t60.5 24.5q58 36 124 137l10 -6q-6 -12 -40.5 -94.5t-38.5 -91.5l-83 4q-60 3 -169 3h-89q-74 0 -154 -4l2 13l48 6q14 2 21.5 8t13.5 23q30 81 94 291q53 182 72 262q3 14 -0.5 19t-20.5 6zM465 695l-6 -9
q-26 10 -63 23l-62.5 22.5t-31.5 11.5q-26 12 -32 31q-13 37 17 46q26 11 54 -11q8 -6 61.5 -56z" />
    <glyph glyph-name="Eacute" unicode="&#xc9;" horiz-adv-x="559" 
d="M143 629l4 13q12 0 68 -2q58 -2 89 -2h170q86 0 138 5q-10 -20 -30.5 -85t-27.5 -99h-11q3 81 0 105q-5 37 -24.5 47.5t-85.5 10.5h-43q-18 0 -24 -17q-26 -67 -80 -258q8 -2 52 -2q92 0 135 95h13q-37 -85 -73 -241l-10 3q15 125 -69 125q-46 0 -56 -2
q-64 -221 -78 -280q-3 -17 4.5 -22.5t42.5 -5.5q62 0 96.5 6.5t60.5 24.5q58 36 124 137l10 -6q-6 -12 -40.5 -94.5t-38.5 -91.5l-83 4q-60 3 -169 3h-89q-74 0 -154 -4l2 13l48 6q14 2 21.5 8t13.5 23q30 81 94 291q53 182 72 262q3 14 -0.5 19t-20.5 6zM367 687l-7 9
q11 8 63 51.5t70 56.5q31 23 61 12q24 -11 11 -43q-10 -22 -45 -34q-65 -24 -153 -52z" />
    <glyph glyph-name="Ecircumflex" unicode="&#xca;" horiz-adv-x="559" 
d="M143 629l4 13q12 0 68 -2q58 -2 89 -2h170q86 0 138 5q-10 -20 -30.5 -85t-27.5 -99h-11q3 81 0 105q-5 37 -24.5 47.5t-85.5 10.5h-43q-18 0 -24 -17q-26 -67 -80 -258q8 -2 52 -2q92 0 135 95h13q-37 -85 -73 -241l-10 3q15 125 -69 125q-46 0 -56 -2
q-64 -221 -78 -280q-3 -17 4.5 -22.5t42.5 -5.5q62 0 96.5 6.5t60.5 24.5q58 36 124 137l10 -6q-6 -12 -40.5 -94.5t-38.5 -91.5l-83 4q-60 3 -169 3h-89q-74 0 -154 -4l2 13l48 6q14 2 21.5 8t13.5 23q30 81 94 291q53 182 72 262q3 14 -0.5 19t-20.5 6zM429 816l11 3
q37 -67 102 -120l-7 -9q-66 21 -115 50q-57 -27 -137 -50l-5 9q105 62 151 117z" />
    <glyph glyph-name="Edieresis" unicode="&#xcb;" horiz-adv-x="559" 
d="M143 629l4 13q12 0 68 -2q58 -2 89 -2h170q86 0 138 5q-10 -20 -30.5 -85t-27.5 -99h-11q3 81 0 105q-5 37 -24.5 47.5t-85.5 10.5h-43q-18 0 -24 -17q-26 -67 -80 -258q8 -2 52 -2q92 0 135 95h13q-37 -85 -73 -241l-10 3q15 125 -69 125q-46 0 -56 -2
q-64 -221 -78 -280q-3 -17 4.5 -22.5t42.5 -5.5q62 0 96.5 6.5t60.5 24.5q58 36 124 137l10 -6q-6 -12 -40.5 -94.5t-38.5 -91.5l-83 4q-60 3 -169 3h-89q-74 0 -154 -4l2 13l48 6q14 2 21.5 8t13.5 23q30 81 94 291q53 182 72 262q3 14 -0.5 19t-20.5 6zM338 803h1
q23 0 35.5 -15.5t10.5 -38.5q-3 -27 -22 -42.5t-40 -15.5q-20 0 -33.5 13.5t-10.5 39.5t19.5 42.5t39.5 16.5zM526 803h1q23 0 35.5 -15.5t10.5 -38.5q-3 -26 -22.5 -42t-39.5 -16q-21 0 -34.5 13.5t-10.5 39.5t19.5 42.5t40.5 16.5z" />
    <glyph glyph-name="Igrave" unicode="&#xcc;" horiz-adv-x="330" 
d="M150 629l6 13q17 0 64 -2t75 -2q41 0 92 2t54 2l-5 -13l-37 -4q-16 -1 -23 -8t-15 -27q-14 -37 -84 -269q-67 -228 -77 -278q-3 -17 1.5 -22.5t19.5 -7.5l48 -4l-7 -13q-9 0 -65 2t-90 2q-43 0 -90.5 -2t-50.5 -2l5 13l42 4q13 2 20.5 8.5t15.5 25.5q16 40 88 278
q57 184 77 264q5 19 1.5 27t-19.5 9zM352 695l-6 -9q-26 10 -63 23l-62.5 22.5t-31.5 11.5q-26 12 -32 31q-13 37 17 46q26 11 54 -11q8 -6 61.5 -56z" />
    <glyph glyph-name="Iacute" unicode="&#xcd;" horiz-adv-x="330" 
d="M150 629l6 13q17 0 64 -2t75 -2q41 0 92 2t54 2l-5 -13l-37 -4q-16 -1 -23 -8t-15 -27q-14 -37 -84 -269q-67 -228 -77 -278q-3 -17 1.5 -22.5t19.5 -7.5l48 -4l-7 -13q-9 0 -65 2t-90 2q-43 0 -90.5 -2t-50.5 -2l5 13l42 4q13 2 20.5 8.5t15.5 25.5q16 40 88 278
q57 184 77 264q5 19 1.5 27t-19.5 9zM257 686l-7 9q11 8 63 51.5t70 56.5q31 23 61 12q24 -11 11 -43q-10 -22 -45 -34q-65 -24 -153 -52z" />
    <glyph glyph-name="Icircumflex" unicode="&#xce;" horiz-adv-x="330" 
d="M150 629l6 13q17 0 64 -2t75 -2q41 0 92 2t54 2l-5 -13l-37 -4q-16 -1 -23 -8t-15 -27q-14 -37 -84 -269q-67 -228 -77 -278q-3 -17 1.5 -22.5t19.5 -7.5l48 -4l-7 -13q-9 0 -65 2t-90 2q-43 0 -90.5 -2t-50.5 -2l5 13l42 4q13 2 20.5 8.5t15.5 25.5q16 40 88 278
q57 184 77 264q5 19 1.5 27t-19.5 9zM327 815l11 3q37 -67 102 -120l-7 -9q-66 21 -115 50q-57 -27 -137 -50l-5 9q105 62 151 117z" />
    <glyph glyph-name="Idieresis" unicode="&#xcf;" horiz-adv-x="330" 
d="M150 629l6 13q17 0 64 -2t75 -2q41 0 92 2t54 2l-5 -13l-37 -4q-16 -1 -23 -8t-15 -27q-14 -37 -84 -269q-67 -228 -77 -278q-3 -17 1.5 -22.5t19.5 -7.5l48 -4l-7 -13q-9 0 -65 2t-90 2q-43 0 -90.5 -2t-50.5 -2l5 13l42 4q13 2 20.5 8.5t15.5 25.5q16 40 88 278
q57 184 77 264q5 19 1.5 27t-19.5 9zM228 802h1q23 0 35.5 -15.5t10.5 -38.5q-3 -27 -22 -42.5t-40 -15.5q-20 0 -33.5 13.5t-10.5 39.5t19.5 42.5t39.5 16.5zM416 802h1q23 0 35.5 -15.5t10.5 -38.5q-3 -26 -22.5 -42t-39.5 -16q-21 0 -34.5 13.5t-10.5 39.5t19.5 42.5
t40.5 16.5z" />
    <glyph glyph-name="Eth" unicode="&#xd0;" horiz-adv-x="687" 
d="M64 329l10 23q7 0 18 -0.5t31 -1t36 -0.5q55 185 68 246q4 14 -1 19t-19 7l-59 6l7 13q4 0 44 -1.5t81 -1.5q29 0 86.5 1.5t86.5 1.5q131 0 187 -53q34 -31 46.5 -72t12.5 -103q0 -121 -65 -232t-179 -158q-71 -28 -180 -28q-42 0 -82 3q-54 2 -83 2q-47 0 -139 -4l5 13
l46 4q17 2 26 11t16 29q40 115 89 278q-57 2 -89 -2zM437 352l-13 -24q-2 0 -132 2q-71 -248 -78 -295q-2 -12 6.5 -17.5t37.5 -5.5q60 0 104 21q72 39 132 178.5t60 267.5q0 77 -26 109q-27 37 -94 37q-47 0 -55 -17q-9 -24 -80 -260q82 0 138 4z" />
    <glyph glyph-name="Ntilde" unicode="&#xd1;" horiz-adv-x="622" 
d="M516 165q102 381 105 430q1 14 -5 19.5t-24 7.5l-60 7l9 13q21 0 54 -2t48 -2q17 0 59 2t53 2l-6 -13q-30 -3 -52 -8q-21 -6 -32 -27q-22 -45 -73.5 -224t-94.5 -371q-42 0 -80 -12q-25 81 -197 560q-102 -380 -120 -478q-4 -26 0 -36.5t20 -13.5q43 -7 64 -9l-6 -14
q-8 0 -51 2t-65 2q-8 0 -104 -4l6 14q21 1 52 7q24 5 41 44q26 60 151 506q5 19 -8 36.5t-32 19.5l-48 6l5 13q11 0 50.5 -2t68.5 -2q38 0 95 3q46 -132 177 -476zM347 688l-14 4q6 41 25 73t54 32q25 0 66 -28q32 -24 53 -24q13 0 23.5 15.5t12.5 41.5l14 -5
q-5 -41 -23 -73.5t-53 -32.5q-25 0 -67 30q-32 21 -50 21q-16 0 -27 -15t-14 -39z" />
    <glyph glyph-name="Ograve" unicode="&#xd2;" horiz-adv-x="667" 
d="M449 655h1q112 0 172 -60.5t60 -168.5q0 -84 -32.5 -177t-87.5 -154q-99 -112 -262 -112q-111 0 -172.5 56.5t-61.5 166.5q0 106 50.5 215.5t131.5 170.5q85 63 201 63zM458 641h-1q-54 0 -101 -60q-57 -77 -101.5 -223t-43.5 -246q0 -114 83 -114q61 0 108 68
q58 87 97 221.5t39 242.5q0 111 -80 111zM512 698l-6 -9q-26 10 -63 23l-62.5 22.5t-31.5 11.5q-26 12 -32 31q-13 37 17 46q26 11 54 -11q8 -6 61.5 -56z" />
    <glyph glyph-name="Oacute" unicode="&#xd3;" horiz-adv-x="667" 
d="M449 655h1q112 0 172 -60.5t60 -168.5q0 -84 -32.5 -177t-87.5 -154q-99 -112 -262 -112q-111 0 -172.5 56.5t-61.5 166.5q0 106 50.5 215.5t131.5 170.5q85 63 201 63zM458 641h-1q-54 0 -101 -60q-57 -77 -101.5 -223t-43.5 -246q0 -114 83 -114q61 0 108 68
q58 87 97 221.5t39 242.5q0 111 -80 111zM407 691l-7 9q11 8 63 51.5t70 56.5q31 23 61 12q24 -11 11 -43q-10 -22 -45 -34q-65 -24 -153 -52z" />
    <glyph glyph-name="Ocircumflex" unicode="&#xd4;" horiz-adv-x="667" 
d="M449 655h1q112 0 172 -60.5t60 -168.5q0 -84 -32.5 -177t-87.5 -154q-99 -112 -262 -112q-111 0 -172.5 56.5t-61.5 166.5q0 106 50.5 215.5t131.5 170.5q85 63 201 63zM458 641h-1q-54 0 -101 -60q-57 -77 -101.5 -223t-43.5 -246q0 -114 83 -114q61 0 108 68
q58 87 97 221.5t39 242.5q0 111 -80 111zM464 816l11 3q37 -67 102 -120l-7 -9q-66 21 -115 50q-57 -27 -137 -50l-5 9q105 62 151 117z" />
    <glyph glyph-name="Otilde" unicode="&#xd5;" horiz-adv-x="667" 
d="M449 655h1q112 0 172 -60.5t60 -168.5q0 -84 -32.5 -177t-87.5 -154q-99 -112 -262 -112q-111 0 -172.5 56.5t-61.5 166.5q0 106 50.5 215.5t131.5 170.5q85 63 201 63zM458 641h-1q-54 0 -101 -60q-57 -77 -101.5 -223t-43.5 -246q0 -114 83 -114q61 0 108 68
q58 87 97 221.5t39 242.5q0 111 -80 111zM344 690l-14 4q6 41 25 73t54 32q25 0 66 -28q32 -24 53 -24q13 0 23.5 15.5t12.5 41.5l14 -5q-5 -41 -23 -73.5t-53 -32.5q-25 0 -67 30q-31 21 -50 21q-16 0 -27 -15t-14 -39z" />
    <glyph glyph-name="Odieresis" unicode="&#xd6;" horiz-adv-x="667" 
d="M449 655h1q112 0 172 -60.5t60 -168.5q0 -84 -32.5 -177t-87.5 -154q-99 -112 -262 -112q-111 0 -172.5 56.5t-61.5 166.5q0 106 50.5 215.5t131.5 170.5q85 63 201 63zM458 641h-1q-54 0 -101 -60q-57 -77 -101.5 -223t-43.5 -246q0 -114 83 -114q61 0 108 68
q58 87 97 221.5t39 242.5q0 111 -80 111zM369 805h1q23 0 35.5 -15.5t10.5 -38.5q-3 -27 -22 -42.5t-40 -15.5q-20 0 -33.5 13.5t-10.5 39.5t19.5 42.5t39.5 16.5zM557 805h1q23 0 35.5 -15.5t10.5 -38.5q-3 -26 -22.5 -42t-39.5 -16q-21 0 -34.5 13.5t-10.5 39.5t19.5 42.5
t40.5 16.5z" />
    <glyph glyph-name="multiply" unicode="&#xd7;" horiz-adv-x="443" 
d="M391 366l-144 -148l144 -147l-31 -32l-144 147l-143 -147l-30 32l142 147l-142 145l30 33l143 -146l144 148z" />
    <glyph glyph-name="Oslash" unicode="&#xd8;" horiz-adv-x="667" 
d="M636 672l24 -12l-49 -55q71 -65 69 -185q-1 -86 -33 -175t-85 -150q-100 -112 -267 -112q-96 0 -149 40l-50 -63l-22 12l55 66q-66 62 -63 170q2 106 52.5 215.5t131.5 168.5q86 63 200 63q90 0 143 -37zM460 639h-1q-61 0 -106 -60q-49 -67 -94.5 -201.5t-48.5 -252.5
q47 66 170.5 227l157.5 206q-3 32 -21.5 56.5t-56.5 24.5zM288 -2h1q63 0 111 67q56 81 96 208.5t45 252.5l-331 -439q2 -40 21.5 -64.5t56.5 -24.5z" />
    <glyph glyph-name="Ugrave" unicode="&#xd9;" horiz-adv-x="622" 
d="M758 642l-3 -13q-48 -4 -62 -12.5t-25 -36.5q-13 -38 -33.5 -105l-47 -159.5t-36.5 -124.5q-19 -61 -46 -104t-76 -72q-53 -32 -152 -32q-119 0 -170 61q-45 57 -18 159l59.5 204.5t53.5 187.5q7 26 -10 28l-54 6l6 13q15 0 63.5 -2t82.5 -2q33 0 77.5 2t59.5 2l-4 -13
l-43 -6q-17 -3 -27 -26q-22 -53 -63.5 -196t-61.5 -231q-21 -89 19 -127q29 -29 81 -29q24 0 40 1.5t40 10.5t41.5 25.5t37 48.5t34.5 77q78 235 109 409q3 18 -2.5 26t-23.5 10l-57 7l4 13q12 0 50 -2t54 -2q18 0 52.5 2t50.5 2zM518 695l-6 -9q-26 10 -63 23l-62.5 22.5
t-31.5 11.5q-26 12 -32 31q-13 37 17 46q26 11 54 -11q8 -6 61.5 -56z" />
    <glyph glyph-name="Uacute" unicode="&#xda;" horiz-adv-x="622" 
d="M758 642l-3 -13q-48 -4 -62 -12.5t-25 -36.5q-13 -38 -33.5 -105l-47 -159.5t-36.5 -124.5q-19 -61 -46 -104t-76 -72q-53 -32 -152 -32q-119 0 -170 61q-45 57 -18 159l59.5 204.5t53.5 187.5q7 26 -10 28l-54 6l6 13q15 0 63.5 -2t82.5 -2q33 0 77.5 2t59.5 2l-4 -13
l-43 -6q-17 -3 -27 -26q-22 -53 -63.5 -196t-61.5 -231q-21 -89 19 -127q29 -29 81 -29q24 0 40 1.5t40 10.5t41.5 25.5t37 48.5t34.5 77q78 235 109 409q3 18 -2.5 26t-23.5 10l-57 7l4 13q12 0 50 -2t54 -2q18 0 52.5 2t50.5 2zM426 690l-7 9q11 8 63 51.5t70 56.5
q31 23 61 12q24 -11 11 -43q-10 -22 -45 -34q-65 -24 -153 -52z" />
    <glyph glyph-name="Ucircumflex" unicode="&#xdb;" horiz-adv-x="622" 
d="M758 642l-3 -13q-48 -4 -62 -12.5t-25 -36.5q-13 -38 -33.5 -105l-47 -159.5t-36.5 -124.5q-19 -61 -46 -104t-76 -72q-53 -32 -152 -32q-119 0 -170 61q-45 57 -18 159l59.5 204.5t53.5 187.5q7 26 -10 28l-54 6l6 13q15 0 63.5 -2t82.5 -2q33 0 77.5 2t59.5 2l-4 -13
l-43 -6q-17 -3 -27 -26q-22 -53 -63.5 -196t-61.5 -231q-21 -89 19 -127q29 -29 81 -29q24 0 40 1.5t40 10.5t41.5 25.5t37 48.5t34.5 77q78 235 109 409q3 18 -2.5 26t-23.5 10l-57 7l4 13q12 0 50 -2t54 -2q18 0 52.5 2t50.5 2zM486 812l11 3q37 -67 102 -120l-7 -9
q-66 21 -115 50q-57 -27 -137 -50l-5 9q105 62 151 117z" />
    <glyph glyph-name="Udieresis" unicode="&#xdc;" horiz-adv-x="622" 
d="M758 642l-3 -13q-48 -4 -62 -12.5t-25 -36.5q-13 -38 -33.5 -105l-47 -159.5t-36.5 -124.5q-19 -61 -46 -104t-76 -72q-53 -32 -152 -32q-119 0 -170 61q-45 57 -18 159l59.5 204.5t53.5 187.5q7 26 -10 28l-54 6l6 13q15 0 63.5 -2t82.5 -2q33 0 77.5 2t59.5 2l-4 -13
l-43 -6q-17 -3 -27 -26q-22 -53 -63.5 -196t-61.5 -231q-21 -89 19 -127q29 -29 81 -29q24 0 40 1.5t40 10.5t41.5 25.5t37 48.5t34.5 77q78 235 109 409q3 18 -2.5 26t-23.5 10l-57 7l4 13q12 0 50 -2t54 -2q18 0 52.5 2t50.5 2zM386 804h1q23 0 35.5 -15.5t10.5 -38.5
q-3 -27 -22 -42.5t-40 -15.5q-20 0 -33.5 13.5t-10.5 39.5t19.5 42.5t39.5 16.5zM574 804h1q23 0 35.5 -15.5t10.5 -38.5q-3 -26 -22.5 -42t-39.5 -16q-21 0 -34.5 13.5t-10.5 39.5t19.5 42.5t40.5 16.5z" />
    <glyph glyph-name="Yacute" unicode="&#xdd;" horiz-adv-x="516" 
d="M390 9l-3 -13q-18 0 -86.5 2t-98.5 2q-34 0 -84 -2t-77 -2l5 13l30.5 3t31.5 4q16 2 24.5 10t18.5 30q17 38 66 214q3 18 1 47q-2 23 -23.5 121t-35.5 149q-7 25 -20.5 32t-53.5 10l4 13q92 -4 132 -4q47 0 149 4l-4 -13q-38 -3 -48.5 -9.5t-8.5 -22.5q5 -39 50 -271
l57.5 82.5l54 76.5t37.5 55.5t28 47.5q15 29 -6 32q-42 8 -60 9l6 13q10 0 44 -2t55 -2q17 0 51 2t54 2l-4 -13q-40 -4 -58 -11.5t-42 -34.5q-80 -87 -196 -262q-11 -18 -24 -58q-47 -160 -52 -219q-3 -24 18 -27q9 -2 32 -4t36 -4zM376 686l-7 9q11 8 63 51.5t70 56.5
q31 23 61 12q24 -11 11 -43q-10 -22 -45 -34q-65 -24 -153 -52z" />
    <glyph glyph-name="Thorn" unicode="&#xde;" horiz-adv-x="565" 
d="M145 629l7 13q34 -4 141 -4q53 0 145 4l-3 -13q-41 -3 -54.5 -9.5t-20.5 -24.5q-14 -40 -28 -92q28 2 72 2q105 0 144 -47q29 -33 29 -103q0 -54 -24.5 -107t-67.5 -84q-64 -46 -164 -46q-61 0 -98 17q-8 -26 -22 -86q-4 -21 9.5 -28t69.5 -11l-4 -13q-10 0 -66 1.5
t-99 1.5q-42 0 -93 -2l-51 -1l5 13q45 5 58.5 11.5t21.5 30.5q26 69 89 279q66 222 76 266q4 17 -10 23t-62 9zM434 402v1q0 37 -13 59q-16 28 -61 28q-33 0 -39 -17q-35 -102 -91 -316q22 -20 60 -20q39 0 62 25q34 34 58 104.5t24 135.5z" />
    <glyph glyph-name="germandbls" unicode="&#xdf;" horiz-adv-x="558" 
d="M62 418h71q40 140 126 208q74 57 162 57q160 0 160 -129q0 -27 -11 -46q-149 -44 -149 -124q0 -23 13 -45q20 -37 49 -73q38 -50 38 -102q0 -77 -58.5 -127t-137.5 -50q-64 0 -107 24q9 22 28 111l12 3q-3 -44 18 -82.5t63 -38.5q34 0 54 23.5t20 55.5q0 30 -20 63
l-20 30t-19 27q-35 48 -35 89q0 56 40.5 103.5t105.5 80.5q25 34 25 95q0 42 -18 69t-51 27q-51 0 -86.5 -64t-74.5 -215q-82 -322 -123 -413q-57 -124 -172 -189q-47 -27 -98 -27q-26 0 -48 15.5t-22 37.5q0 38 43 61q24 14 37 -9q39 -62 70 -62q25 0 41 49q37 123 138 547
l-70 5z" />
    <glyph glyph-name="agrave" unicode="&#xe0;" horiz-adv-x="522" 
d="M506 119l10 -10q-22 -49 -64.5 -85.5t-101.5 -36.5q-84 0 -54 102q4 16 7 24l-1 -1h-1q-82 -125 -191 -125q-85 0 -85 102q0 80 45.5 168t111.5 134q62 42 123 42q62 0 79 -46l11 34h123q-27 -75 -62.5 -191t-43.5 -161q-7 -36 9 -36q19 0 42 24.5t43 61.5zM157 83v-1
q0 -46 27 -46q63 0 131 151q16 34 33.5 86.5t17.5 79.5q0 57 -36 57q-34 0 -64 -38q-45 -55 -77 -141t-32 -148zM381 477l-10 -4l-41.5 51l-35.5 43t-18 23q-20 27 -19 53q1 17 10.5 25.5t18.5 8.5q27 0 43 -33q6 -12 52 -167z" />
    <glyph glyph-name="aacute" unicode="&#xe1;" horiz-adv-x="522" 
d="M506 119l10 -10q-22 -49 -64.5 -85.5t-101.5 -36.5q-84 0 -54 102q4 16 7 24l-1 -1h-1q-82 -125 -191 -125q-85 0 -85 102q0 80 45.5 168t111.5 134q62 42 123 42q62 0 79 -46l11 34h123q-27 -75 -62.5 -191t-43.5 -161q-7 -36 9 -36q19 0 42 24.5t43 61.5zM157 83v-1
q0 -46 27 -46q63 0 131 151q16 34 33.5 86.5t17.5 79.5q0 57 -36 57q-34 0 -64 -38q-45 -55 -77 -141t-32 -148zM316 479l-10 7l95 146q27 41 57 41q27 0 27 -31q0 -22 -38 -58q-9 -8 -131 -105z" />
    <glyph glyph-name="acircumflex" unicode="&#xe2;" horiz-adv-x="522" 
d="M506 119l10 -10q-22 -49 -64.5 -85.5t-101.5 -36.5q-84 0 -54 102q4 16 7 24l-1 -1h-1q-82 -125 -191 -125q-85 0 -85 102q0 80 45.5 168t111.5 134q62 42 123 42q62 0 79 -46l11 34h123q-27 -75 -62.5 -191t-43.5 -161q-7 -36 9 -36q19 0 42 24.5t43 61.5zM157 83v-1
q0 -46 27 -46q63 0 131 151q16 34 33.5 86.5t17.5 79.5q0 57 -36 57q-34 0 -64 -38q-45 -55 -77 -141t-32 -148zM387 672l11 4q16 -102 68 -191l-7 -8q-34 23 -88 95q-76 -66 -130 -95l-5 10q102 100 151 185z" />
    <glyph glyph-name="atilde" unicode="&#xe3;" horiz-adv-x="522" 
d="M506 119l10 -10q-22 -49 -64.5 -85.5t-101.5 -36.5q-84 0 -54 102q4 16 7 24l-1 -1h-1q-82 -125 -191 -125q-85 0 -85 102q0 80 45.5 168t111.5 134q62 42 123 42q62 0 79 -46l11 34h123q-27 -75 -62.5 -191t-43.5 -161q-7 -36 9 -36q19 0 42 24.5t43 61.5zM157 83v-1
q0 -46 27 -46q63 0 131 151q16 34 33.5 86.5t17.5 79.5q0 57 -36 57q-34 0 -64 -38q-45 -55 -77 -141t-32 -148zM251 498l-14 4q1 40 21 74.5t57 34.5q25 0 66 -30q34 -26 51 -26q30 0 37 61l14 -4q0 -45 -20 -78.5t-55 -33.5q-26 0 -68 32q-33 24 -49 24q-33 0 -40 -58z
" />
    <glyph glyph-name="adieresis" unicode="&#xe4;" horiz-adv-x="522" 
d="M506 119l10 -10q-22 -49 -64.5 -85.5t-101.5 -36.5q-84 0 -54 102q4 16 7 24l-1 -1h-1q-82 -125 -191 -125q-85 0 -85 102q0 80 45.5 168t111.5 134q62 42 123 42q62 0 79 -46l11 34h123q-27 -75 -62.5 -191t-43.5 -161q-7 -36 9 -36q19 0 42 24.5t43 61.5zM157 83v-1
q0 -46 27 -46q63 0 131 151q16 34 33.5 86.5t17.5 79.5q0 57 -36 57q-34 0 -64 -38q-45 -55 -77 -141t-32 -148zM281 631h1q26 0 39.5 -15t12.5 -42q-1 -31 -21.5 -49.5t-45.5 -18.5q-23 0 -39 15.5t-15 42.5q1 31 22 49t46 18zM464 631h1q26 0 40 -15t13 -42
q-1 -31 -21.5 -49.5t-46.5 -18.5q-24 0 -39 15.5t-14 42.5q1 32 21.5 49.5t45.5 17.5z" />
    <glyph glyph-name="aring" unicode="&#xe5;" horiz-adv-x="522" 
d="M506 119l10 -10q-22 -49 -64.5 -85.5t-101.5 -36.5q-84 0 -54 102q4 16 7 24l-1 -1h-1q-82 -125 -191 -125q-85 0 -85 102q0 80 45.5 168t111.5 134q62 42 123 42q62 0 79 -46l11 34h123q-27 -75 -62.5 -191t-43.5 -161q-7 -36 9 -36q19 0 42 24.5t43 61.5zM157 83v-1
q0 -46 27 -46q63 0 131 151q16 34 33.5 86.5t17.5 79.5q0 57 -36 57q-34 0 -64 -38q-45 -55 -77 -141t-32 -148zM379 650h1q36 0 55 -21t15 -59q-4 -39 -32.5 -61t-67.5 -22q-36 0 -57 20t-17 55q4 40 33 64t70 24zM374 634h-1q-18 0 -29 -25.5t-13 -50.5q-7 -55 22 -55
q35 0 44 79q8 52 -23 52z" />
    <glyph glyph-name="ae" unicode="&#xe6;" horiz-adv-x="677" 
d="M154 69v-1q0 -14 6 -23.5t15 -9.5q23 0 51.5 25t52.5 77q8 15 19 59q28 114 123 191q-16 23 -59 23q-31 0 -66.5 -30t-65.5 -83q-76 -130 -76 -228zM648 153l2 -43q-43 -56 -96 -89.5t-136 -33.5q-61 0 -94.5 32.5t-33.5 85.5h-4q-83 -118 -186 -118q-77 0 -77 93
q0 81 48 167.5t123 133.5q71 46 156 46q58 0 96 -25q50 31 118 31q58 0 88.5 -26.5t30.5 -75.5q0 -37 -22 -57q-14 -12 -46 -27q-35 -16 -95 -29.5t-88 -14.5q-12 -39 -12 -98q0 -83 64 -83q103 0 158 131h6zM549 416h-1q-6 0 -13.5 -3.5t-19.5 -15.5t-24 -32t-26.5 -57.5
t-27.5 -86.5q44 4 84 21q24 10 41 42t17 82t-30 50z" />
    <glyph glyph-name="ccedilla" unicode="&#xe7;" horiz-adv-x="425" 
d="M215 -11q-29 -36 -35 -42q61 -14 61 -66q0 -43 -29.5 -64t-69.5 -21q-31 0 -63 20l7 15q20 -13 50 -13q40 0 40 35q0 39 -60 39l-2 7q6 7 40 43.5t41 44.5h-11q-75 1 -112 34.5t-37 108.5q0 71 37 143.5t100 115.5q67 44 143 44q55 0 87.5 -23.5t32.5 -68.5
q0 -36 -21 -52t-45 -16q-23 0 -33 11q-19 16 -8 37q14 33 14 57q0 40 -29 40q-52 0 -97 -93q-49 -103 -49 -207q0 -98 65 -98q106 0 159 132h5l2 -39q-28 -47 -77 -81.5t-106 -42.5z" />
    <glyph glyph-name="egrave" unicode="&#xe8;" horiz-adv-x="422" 
d="M393 153l4 -39q-31 -51 -91.5 -89t-135.5 -38q-67 0 -103 35.5t-36 105.5q0 67 33.5 138.5t95.5 118.5q64 48 145 48q61 0 91.5 -27.5t30.5 -73.5q0 -60 -72 -85q-30 -14 -88 -27.5t-92 -17.5q-11 -51 -11 -88q0 -93 67 -93q49 0 90.5 35t65.5 97h6zM297 417h-2
q-7 0 -15 -3.5t-20.5 -16t-25 -32.5t-27.5 -57.5t-28 -87.5q50 6 87 23q28 13 42.5 49.5t14.5 77.5q0 47 -26 47zM331 477l-10 -4l-41.5 51l-35.5 43t-18 23q-20 27 -19 53q1 17 10.5 25.5t18.5 8.5q27 0 43 -33q6 -12 52 -167z" />
    <glyph glyph-name="eacute" unicode="&#xe9;" horiz-adv-x="422" 
d="M393 153l4 -39q-31 -51 -91.5 -89t-135.5 -38q-67 0 -103 35.5t-36 105.5q0 67 33.5 138.5t95.5 118.5q64 48 145 48q61 0 91.5 -27.5t30.5 -73.5q0 -60 -72 -85q-30 -14 -88 -27.5t-92 -17.5q-11 -51 -11 -88q0 -93 67 -93q49 0 90.5 35t65.5 97h6zM297 417h-2
q-7 0 -15 -3.5t-20.5 -16t-25 -32.5t-27.5 -57.5t-28 -87.5q50 6 87 23q28 13 42.5 49.5t14.5 77.5q0 47 -26 47zM268 476l-10 7l95 146q27 41 57 41q27 0 27 -31q0 -22 -38 -58q-9 -8 -131 -105z" />
    <glyph glyph-name="ecircumflex" unicode="&#xea;" horiz-adv-x="422" 
d="M393 153l4 -39q-31 -51 -91.5 -89t-135.5 -38q-67 0 -103 35.5t-36 105.5q0 67 33.5 138.5t95.5 118.5q64 48 145 48q61 0 91.5 -27.5t30.5 -73.5q0 -60 -72 -85q-30 -14 -88 -27.5t-92 -17.5q-11 -51 -11 -88q0 -93 67 -93q49 0 90.5 35t65.5 97h6zM297 417h-2
q-7 0 -15 -3.5t-20.5 -16t-25 -32.5t-27.5 -57.5t-28 -87.5q50 6 87 23q28 13 42.5 49.5t14.5 77.5q0 47 -26 47zM338 672l11 4q16 -102 68 -191l-7 -8q-34 23 -88 95q-76 -66 -130 -95l-5 10q102 100 151 185z" />
    <glyph glyph-name="edieresis" unicode="&#xeb;" horiz-adv-x="422" 
d="M393 153l4 -39q-31 -51 -91.5 -89t-135.5 -38q-67 0 -103 35.5t-36 105.5q0 67 33.5 138.5t95.5 118.5q64 48 145 48q61 0 91.5 -27.5t30.5 -73.5q0 -60 -72 -85q-30 -14 -88 -27.5t-92 -17.5q-11 -51 -11 -88q0 -93 67 -93q49 0 90.5 35t65.5 97h6zM297 417h-2
q-7 0 -15 -3.5t-20.5 -16t-25 -32.5t-27.5 -57.5t-28 -87.5q50 6 87 23q28 13 42.5 49.5t14.5 77.5q0 47 -26 47zM228 631h1q26 0 39.5 -15t12.5 -42q-1 -31 -21.5 -49.5t-45.5 -18.5q-23 0 -39 15.5t-15 42.5q1 31 22 49t46 18zM411 631h1q26 0 40 -15t13 -42
q-1 -31 -21.5 -49.5t-46.5 -18.5q-24 0 -39 15.5t-14 42.5q1 32 21.5 49.5t45.5 17.5z" />
    <glyph glyph-name="igrave" unicode="&#xec;" horiz-adv-x="281" 
d="M66 395l6 14q134 6 207 24l3 -3q-22 -51 -65 -187.5t-57 -194.5q-5 -20 8 -20q20 0 49 26t48 67l10 -15q-66 -119 -173 -119q-52 0 -64.5 28.5t5.5 73.5q79 250 89 286q4 18 -8 18q-3 0 -25.5 1t-32.5 1zM243 477l-10 -4l-41.5 51l-35.5 43t-18 23q-20 27 -19 53
q1 17 10.5 25.5t18.5 8.5q27 0 43 -33q6 -12 52 -167z" />
    <glyph glyph-name="iacute" unicode="&#xed;" horiz-adv-x="281" 
d="M66 395l6 14q134 6 207 24l3 -3q-22 -51 -65 -187.5t-57 -194.5q-5 -20 8 -20q20 0 49 26t48 67l10 -15q-66 -119 -173 -119q-52 0 -64.5 28.5t5.5 73.5q79 250 89 286q4 18 -8 18q-3 0 -25.5 1t-32.5 1zM196 476l-10 7l95 146q27 41 57 41q27 0 27 -31q0 -22 -38 -58
q-9 -8 -131 -105z" />
    <glyph glyph-name="icircumflex" unicode="&#xee;" horiz-adv-x="281" 
d="M66 395l6 14q134 6 207 24l3 -3q-22 -51 -65 -187.5t-57 -194.5q-5 -20 8 -20q20 0 49 26t48 67l10 -15q-66 -119 -173 -119q-52 0 -64.5 28.5t5.5 73.5q79 250 89 286q4 18 -8 18q-3 0 -25.5 1t-32.5 1zM257 672l11 4q16 -102 68 -191l-7 -8q-34 23 -88 95
q-76 -66 -130 -95l-5 10q102 100 151 185z" />
    <glyph glyph-name="idieresis" unicode="&#xef;" horiz-adv-x="281" 
d="M66 395l6 14q134 6 207 24l3 -3q-22 -51 -65 -187.5t-57 -194.5q-5 -20 8 -20q20 0 49 26t48 67l10 -15q-66 -119 -173 -119q-52 0 -64.5 28.5t5.5 73.5q79 250 89 286q4 18 -8 18q-3 0 -25.5 1t-32.5 1zM161 631h1q26 0 39.5 -15t12.5 -42q-1 -31 -21.5 -49.5
t-45.5 -18.5q-23 0 -39 15.5t-15 42.5q1 31 22 49t46 18zM344 631h1q26 0 40 -15t13 -42q-1 -31 -21.5 -49.5t-46.5 -18.5q-24 0 -39 15.5t-14 42.5q1 32 21.5 49.5t45.5 17.5z" />
    <glyph glyph-name="eth" unicode="&#xf0;" horiz-adv-x="488" 
d="M192 674l16 14q121 2 199 -79l103 53l2 -27q-5 -2 -36.5 -17l-55.5 -26q66 -82 66 -216q0 -114 -45 -210.5t-118 -140.5q-63 -38 -135 -38q-71 0 -113.5 35.5t-42.5 105.5q0 78 38 151t102 116q59 38 133 38q43 0 66 -15q2 76 -22 142l-132 -63l-3 27q102 43 127 55
q-17 41 -59 68t-90 27zM320 417h-2q-29 0 -55 -31q-42 -47 -76 -149t-34 -173q0 -63 38 -63q34 0 68 48q38 53 70.5 152.5t36.5 170.5q1 19 -11.5 32t-34.5 13z" />
    <glyph glyph-name="ntilde" unicode="&#xf1;" horiz-adv-x="531" 
d="M513 121l10 -12q-29 -60 -78.5 -91t-100.5 -31q-92 0 -52 110l28.5 77.5l35 96.5l24.5 69q16 47 -14 47q-46 0 -98 -78.5t-80 -154.5q-35 -93 -53 -154q-76 -2 -130 -9q88 231 122 384q4 19 -11 19l-53 1l5 13q108 7 193 25q-6 -46 -42 -159q103 159 220 159q33 0 53 -17
q33 -29 2 -111q-77 -218 -87 -249q-7 -23 10 -23q20 0 48 25t48 63zM256 498l-14 4q1 40 21 74.5t57 34.5q25 0 66 -30q34 -26 51 -26q30 0 37 61l14 -4q0 -45 -20 -78.5t-55 -33.5q-26 0 -68 32q-33 24 -49 24q-33 0 -40 -58z" />
    <glyph glyph-name="ograve" unicode="&#xf2;" horiz-adv-x="486" 
d="M307 433h1q164 0 164 -152q0 -71 -36.5 -145.5t-93.5 -110.5q-64 -38 -145 -38q-74 0 -119 31.5t-45 115.5q0 69 34.5 140.5t90.5 111.5q68 47 149 47zM313 418h-1q-33 0 -64 -45q-36 -51 -65.5 -150t-29.5 -160q0 -62 41 -62q29 0 58 37q37 50 68.5 153.5t31.5 169.5
q0 57 -39 57zM340 477l-10 -4l-41.5 51l-35.5 43t-18 23q-20 27 -19 53q1 17 10.5 25.5t18.5 8.5q27 0 43 -33q6 -12 52 -167z" />
    <glyph glyph-name="oacute" unicode="&#xf3;" horiz-adv-x="486" 
d="M307 433h1q164 0 164 -152q0 -71 -36.5 -145.5t-93.5 -110.5q-64 -38 -145 -38q-74 0 -119 31.5t-45 115.5q0 69 34.5 140.5t90.5 111.5q68 47 149 47zM313 418h-1q-33 0 -64 -45q-36 -51 -65.5 -150t-29.5 -160q0 -62 41 -62q29 0 58 37q37 50 68.5 153.5t31.5 169.5
q0 57 -39 57zM299 476l-10 7l95 146q27 41 57 41q27 0 27 -31q0 -22 -38 -58q-9 -8 -131 -105z" />
    <glyph glyph-name="ocircumflex" unicode="&#xf4;" horiz-adv-x="486" 
d="M307 433h1q164 0 164 -152q0 -71 -36.5 -145.5t-93.5 -110.5q-64 -38 -145 -38q-74 0 -119 31.5t-45 115.5q0 69 34.5 140.5t90.5 111.5q68 47 149 47zM313 418h-1q-33 0 -64 -45q-36 -51 -65.5 -150t-29.5 -160q0 -62 41 -62q29 0 58 37q37 50 68.5 153.5t31.5 169.5
q0 57 -39 57zM360 672l11 4q16 -102 68 -191l-7 -8q-34 23 -88 95q-76 -66 -130 -95l-5 10q102 100 151 185z" />
    <glyph glyph-name="otilde" unicode="&#xf5;" horiz-adv-x="486" 
d="M307 433h1q164 0 164 -152q0 -71 -36.5 -145.5t-93.5 -110.5q-64 -38 -145 -38q-74 0 -119 31.5t-45 115.5q0 69 34.5 140.5t90.5 111.5q68 47 149 47zM313 418h-1q-33 0 -64 -45q-36 -51 -65.5 -150t-29.5 -160q0 -62 41 -62q29 0 58 37q37 50 68.5 153.5t31.5 169.5
q0 57 -39 57zM221 498l-14 4q1 40 21 74.5t57 34.5q25 0 66 -30q34 -26 51 -26q30 0 37 61l14 -4q0 -45 -20 -78.5t-55 -33.5q-26 0 -68 32q-33 24 -49 24q-33 0 -40 -58z" />
    <glyph glyph-name="odieresis" unicode="&#xf6;" horiz-adv-x="486" 
d="M307 433h1q164 0 164 -152q0 -71 -36.5 -145.5t-93.5 -110.5q-64 -38 -145 -38q-74 0 -119 31.5t-45 115.5q0 69 34.5 140.5t90.5 111.5q68 47 149 47zM313 418h-1q-33 0 -64 -45q-36 -51 -65.5 -150t-29.5 -160q0 -62 41 -62q29 0 58 37q37 50 68.5 153.5t31.5 169.5
q0 57 -39 57zM251 631h1q26 0 39.5 -15t12.5 -42q-1 -31 -21.5 -49.5t-45.5 -18.5q-23 0 -39 15.5t-15 42.5q1 31 22 49t46 18zM434 631h1q26 0 40 -15t13 -42q-1 -31 -21.5 -49.5t-46.5 -18.5q-24 0 -39 15.5t-14 42.5q1 32 21.5 49.5t45.5 17.5z" />
    <glyph glyph-name="divide" unicode="&#xf7;" horiz-adv-x="443" 
d="M217 129h1q15 0 25.5 -11t10.5 -27q0 -15 -11 -25.5t-26 -10.5q-14 0 -25.5 11t-11.5 25q0 15 11.5 26.5t25.5 11.5zM217 303h-1q-13 0 -24.5 11t-11.5 26t11.5 26t25.5 11q16 0 26.5 -11t10.5 -26t-10.5 -26t-26.5 -11zM37 238h359v-43h-359v43z" />
    <glyph glyph-name="oslash" unicode="&#xf8;" horiz-adv-x="486" 
d="M444 451l24 -7l-44 -47q47 -40 47 -117q0 -72 -35 -143t-90 -108q-64 -42 -148 -42q-72 0 -111 28l-41 -46l-25 8l50 51q-37 37 -37 108q0 67 35 138t89 111q68 48 155 48q54 0 94 -23zM312 418h-1q-35 0 -68 -49q-27 -38 -53.5 -111.5t-34.5 -148.5q167 206 199 248
q0 61 -42 61zM193 1h1q34 0 58 33q32 42 61.5 126t38.5 161q-185 -230 -201 -251q0 -29 11 -49t31 -20z" />
    <glyph glyph-name="ugrave" unicode="&#xf9;" horiz-adv-x="521" 
d="M509 119l9 -12q-65 -121 -174 -121q-44 0 -55 27t2 61q8 30 12 41q-86 -128 -193 -128q-55 0 -69 32t4 83q11 40 31 102.5l36.5 115.5t18.5 58q5 16 -13 16l-48 1l7 13q130 8 199 25q-14 -25 -52.5 -147t-60.5 -207q-10 -46 15 -46q42 0 86 57.5t66 123.5q1 3 50 164
q5 16 -13 16l-42 1l5 13q100 2 195 25q-24 -55 -63.5 -179.5t-54.5 -196.5q-7 -28 8 -28q17 0 44.5 23.5t49.5 66.5zM361 477l-10 -4l-41.5 51l-35.5 43t-18 23q-20 27 -19 53q1 17 10.5 25.5t18.5 8.5q27 0 43 -33q6 -12 52 -167z" />
    <glyph glyph-name="uacute" unicode="&#xfa;" horiz-adv-x="521" 
d="M509 119l9 -12q-65 -121 -174 -121q-44 0 -55 27t2 61q8 30 12 41q-86 -128 -193 -128q-55 0 -69 32t4 83q11 40 31 102.5l36.5 115.5t18.5 58q5 16 -13 16l-48 1l7 13q130 8 199 25q-14 -25 -52.5 -147t-60.5 -207q-10 -46 15 -46q42 0 86 57.5t66 123.5q1 3 50 164
q5 16 -13 16l-42 1l5 13q100 2 195 25q-24 -55 -63.5 -179.5t-54.5 -196.5q-7 -28 8 -28q17 0 44.5 23.5t49.5 66.5zM312 476l-10 7l95 146q27 41 57 41q27 0 27 -31q0 -22 -38 -58q-9 -8 -131 -105z" />
    <glyph glyph-name="ucircumflex" unicode="&#xfb;" horiz-adv-x="521" 
d="M509 119l9 -12q-65 -121 -174 -121q-44 0 -55 27t2 61q8 30 12 41q-86 -128 -193 -128q-55 0 -69 32t4 83q11 40 31 102.5l36.5 115.5t18.5 58q5 16 -13 16l-48 1l7 13q130 8 199 25q-14 -25 -52.5 -147t-60.5 -207q-10 -46 15 -46q42 0 86 57.5t66 123.5q1 3 50 164
q5 16 -13 16l-42 1l5 13q100 2 195 25q-24 -55 -63.5 -179.5t-54.5 -196.5q-7 -28 8 -28q17 0 44.5 23.5t49.5 66.5zM373 672l11 4q16 -102 68 -191l-7 -8q-34 23 -88 95q-76 -66 -130 -95l-5 10q102 100 151 185z" />
    <glyph glyph-name="udieresis" unicode="&#xfc;" horiz-adv-x="521" 
d="M509 119l9 -12q-65 -121 -174 -121q-44 0 -55 27t2 61q8 30 12 41q-86 -128 -193 -128q-55 0 -69 32t4 83q11 40 31 102.5l36.5 115.5t18.5 58q5 16 -13 16l-48 1l7 13q130 8 199 25q-14 -25 -52.5 -147t-60.5 -207q-10 -46 15 -46q42 0 86 57.5t66 123.5q1 3 50 164
q5 16 -13 16l-42 1l5 13q100 2 195 25q-24 -55 -63.5 -179.5t-54.5 -196.5q-7 -28 8 -28q17 0 44.5 23.5t49.5 66.5zM270 631h1q26 0 39.5 -15t12.5 -42q-1 -31 -21.5 -49.5t-45.5 -18.5q-23 0 -39 15.5t-15 42.5q1 31 22 49t46 18zM453 631h1q26 0 40 -15t13 -42
q-1 -31 -21.5 -49.5t-46.5 -18.5q-24 0 -39 15.5t-14 42.5q1 32 21.5 49.5t45.5 17.5z" />
    <glyph glyph-name="yacute" unicode="&#xfd;" horiz-adv-x="422" 
d="M28 406q39 2 104 11t97 20q-3 -47 17 -320l78 152q44 84 82.5 126t97.5 48l2 -12q-62 -20 -145 -153q-29 -46 -178 -316q-67 -122 -108.5 -162.5t-93.5 -40.5q-32 0 -49.5 18.5t-16.5 45.5q0 24 17 42t41 18t31 -25q9 -39 32 -39q16 0 31.5 11.5t32 35t27.5 42.5t27 50
q-22 18 -29 75q-17 233 -36 332q-4 20 -14 24t-51 4zM280 476l-10 7l95 146q27 41 57 41q27 0 27 -31q0 -22 -38 -58q-9 -8 -131 -105z" />
    <glyph glyph-name="thorn" unicode="&#xfe;" horiz-adv-x="509" 
d="M343 384h-1q-31 0 -65 -36t-59 -87q-18 -35 -41 -102.5t-24 -93.5q-1 -57 45 -57q37 0 75 52q34 44 65.5 128.5t31.5 149.5q0 46 -27 46zM117 645l3 14q138 0 222 20q-13 -30 -33.5 -93l-47.5 -152.5l-36 -117.5q98 117 192 117q43 0 64 -28t21 -77q0 -93 -50.5 -184
t-120.5 -129q-53 -28 -115 -28q-60 0 -80 36q-43 -145 -54 -194q-4 -21 -0.5 -28t16.5 -8l65 -8l-4 -13h-153q-78 0 -156 -7l6 15l49 7q26 4 37 29q24 57 135 423q95 323 109 385q2 10 -0.5 14t-12.5 4z" />
    <glyph glyph-name="ydieresis" unicode="&#xff;" horiz-adv-x="422" 
d="M28 406q39 2 104 11t97 20q-3 -47 17 -320l78 152q44 84 82.5 126t97.5 48l2 -12q-62 -20 -145 -153q-29 -46 -178 -316q-67 -122 -108.5 -162.5t-93.5 -40.5q-32 0 -49.5 18.5t-16.5 45.5q0 24 17 42t41 18t31 -25q9 -39 32 -39q16 0 31.5 11.5t32 35t27.5 42.5t27 50
q-22 18 -29 75q-17 233 -36 332q-4 20 -14 24t-51 4zM227 631h1q26 0 39.5 -15t12.5 -42q-1 -31 -21.5 -49.5t-45.5 -18.5q-23 0 -39 15.5t-15 42.5q1 31 22 49t46 18zM410 631h1q26 0 40 -15t13 -42q-1 -31 -21.5 -49.5t-46.5 -18.5q-24 0 -39 15.5t-14 42.5
q1 32 21.5 49.5t45.5 17.5z" />
    <glyph glyph-name="dotlessi" unicode="&#x131;" horiz-adv-x="281" 
d="M66 395l6 14q134 6 207 24l3 -3q-22 -51 -65 -187.5t-57 -194.5q-5 -20 8 -20q20 0 49 26t48 67l10 -15q-66 -119 -173 -119q-52 0 -64.5 28.5t5.5 73.5q79 250 89 286q4 18 -8 18q-3 0 -25.5 1t-32.5 1z" />
    <glyph glyph-name="Lslash" unicode="&#x141;" horiz-adv-x="529" 
d="M159 629l5 13q4 0 56.5 -2t85.5 -2t84.5 2t68.5 2l-1 -13l-50 -5q-14 -2 -21.5 -7.5t-13.5 -21.5q-29 -80 -72 -236q17 10 56.5 31.5l53.5 29.5l20 -14l-139 -74q-72 -263 -78 -298q-2 -10 2 -14t20 -4q65 0 97 8t62 33q57 49 107 130l11 -2q-33 -74 -71 -191
q-31 6 -316 6q-27 0 -83 -2t-64 -2l4 13q25 2 44 5q16 1 23.5 7.5t13.5 22.5q24 67 72 227l-77 -41l-19 16q9 5 47.5 24t55.5 29q46 147 84 301q3 13 -1.5 18t-23.5 7z" />
    <glyph glyph-name="lslash" unicode="&#x142;" horiz-adv-x="280" 
d="M46 323l80 35q68 231 78 272q4 17 -10 18l-48 1l5 14q132 0 206 20q-26 -62 -88 -268l63 31l15 -17q-15 -6 -86 -39q-80 -275 -93 -335q-7 -25 10 -25q18 0 46 23.5t46 59.5l10 -13q-64 -113 -173 -113q-31 0 -48 9t-20.5 26t-1.5 32t9 36l73 241q-44 -20 -58 -27z" />
    <glyph glyph-name="OE" unicode="&#x152;" horiz-adv-x="959" 
d="M208 117v-1q0 -112 92 -112q67 0 116 50q54 54 97 167.5t54 221.5q11 97 -11 143.5t-83 46.5q-50 0 -96 -47q-71 -75 -120 -216.5t-49 -252.5zM701 638h169q107 0 142 8q-8 -16 -19 -51.5l-24.5 -80l-18.5 -60.5h-11q6 44 -2 101q-7 38 -28.5 52t-85.5 14h-40
q-17 0 -24 -16q-31 -82 -75 -254q8 -3 47 -3q95 0 135 98h14q-26 -62 -78 -253l-10 3q3 30 4 60t-16.5 52t-53.5 22q-41 0 -49 -2q-63 -226 -75 -283q-3 -17 5 -22.5t43 -5.5q59 0 89 6.5t61 27.5q55 36 124 134l11 -6q-1 -3 -36 -89t-41 -98q-42 4 -86 5q-58 3 -155 3h-92
q-66 0 -79 -3q5 13 23 74q-79 -88 -197 -88q-208 0 -208 215q0 112 57 228t141 173q82 56 183 56q126 0 160 -99q19 64 24 86q42 -4 72 -4z" />
    <glyph glyph-name="oe" unicode="&#x153;" horiz-adv-x="695" 
d="M313 418h-1q-32 0 -64 -46q-34 -49 -64.5 -146.5t-30.5 -159.5q0 -65 42 -65q29 0 54 32q36 48 69.5 154.5t33.5 160.5q0 20 -1.5 32t-10.5 25t-27 13zM665 151l2 -41q-33 -49 -91 -86t-130 -37q-83 0 -106 59q-60 -59 -154 -59q-26 0 -49 5t-48.5 19t-40.5 44.5
t-15 75.5q0 71 33.5 142.5t89.5 112.5q65 47 151 47q92 0 123 -69q59 69 146 69q122 0 122 -105q0 -31 -21 -52q-13 -13 -39 -26q-36 -16 -98.5 -31t-91.5 -17q-13 -49 -13 -95q0 -86 67 -86q49 0 90.5 36.5t64.5 93.5h8zM564 416h-1q-6 0 -13 -3t-18.5 -15t-23.5 -32
t-27 -57.5t-29 -87.5q50 5 80 20q62 30 62 126q0 49 -30 49z" />
    <glyph glyph-name="Scaron" unicode="&#x160;" horiz-adv-x="478" 
d="M73 221l15 5q-11 -46 -11 -85q0 -70 36.5 -105.5t98.5 -35.5q49 0 84 32t35 85q0 42 -21 66q-17 24 -128 132q-59 56 -59 134q0 102 81 164q53 42 139 42q102 0 144 -55l37 49l6 -10q-41 -83 -72 -195l-11 5q18 89 -9 139.5t-90 50.5q-53 0 -81.5 -31.5t-29.5 -76.5
q0 -50 36 -85l82.5 -84t54.5 -55q45 -41 45 -109q0 -80 -55 -140q-72 -75 -200 -75q-99 0 -189 55q37 75 62 183zM358 689l-10 -2q-31 63 -102 119l7 10q75 -24 115 -50q64 29 137 50l6 -10q-99 -57 -153 -117z" />
    <glyph glyph-name="scaron" unicode="&#x161;" horiz-adv-x="372" 
d="M372 435l8 -8q-37 -80 -55 -160h-12q17 71 -5 111t-72 40q-30 0 -48 -17.5t-18 -42.5q0 -32 23 -54q4 -4 100 -80q44 -33 44 -86q0 -60 -45 -100q-54 -51 -147 -51q-76 0 -144 35q28 70 52 161l11 2q-5 -27 -7 -62q-4 -57 24 -88.5t79 -31.5q35 0 56 16.5t21 44.5
q0 24 -19 43q-8 8 -24.5 21.5l-38.5 31.5l-34 28q-45 37 -45 94q0 68 51 112q45 39 116 39q37 0 64 -11.5t38 -25.5zM260 484l-12 -5q-12 94 -68 192l8 8q33 -25 88 -95q68 60 129 95l5 -10q-93 -90 -150 -185z" />
    <glyph glyph-name="Ydieresis" unicode="&#x178;" horiz-adv-x="516" 
d="M390 9l-3 -13q-18 0 -86.5 2t-98.5 2q-34 0 -84 -2t-77 -2l5 13l30.5 3t31.5 4q16 2 24.5 10t18.5 30q17 38 66 214q3 18 1 47q-2 23 -23.5 121t-35.5 149q-7 25 -20.5 32t-53.5 10l4 13q92 -4 132 -4q47 0 149 4l-4 -13q-38 -3 -48.5 -9.5t-8.5 -22.5q5 -39 50 -271
l57.5 82.5l54 76.5t37.5 55.5t28 47.5q15 29 -6 32q-42 8 -60 9l6 13q10 0 44 -2t55 -2q17 0 51 2t54 2l-4 -13q-40 -4 -58 -11.5t-42 -34.5q-80 -87 -196 -262q-11 -18 -24 -58q-47 -160 -52 -219q-3 -24 18 -27q9 -2 32 -4t36 -4zM336 803h1q23 0 35.5 -15.5t10.5 -38.5
q-3 -27 -22 -42.5t-40 -15.5q-20 0 -33.5 13.5t-10.5 39.5t19.5 42.5t39.5 16.5zM524 803h1q23 0 35.5 -15.5t10.5 -38.5q-3 -26 -22.5 -42t-39.5 -16q-21 0 -34.5 13.5t-10.5 39.5t19.5 42.5t40.5 16.5z" />
    <glyph glyph-name="Zcaron" unicode="&#x17d;" horiz-adv-x="597" 
d="M137 436l-11 6q42 111 50 210q20 -9 67 -13q21 -1 136 -1h152q21 0 61 1.5t59 1.5q-22 -46 -47 -77l-193 -241l-236 -306q155 0 211 11t84 42q51 51 98 149l10 -8q-41 -122 -61 -217q-23 3 -88 5q-35 1 -112 1h-212q-95 0 -126 -3l-1 8q278 330 494 615h-84
q-82 0 -114 -11t-59 -46q-38 -50 -78 -127zM414 684l-10 -2q-31 63 -102 119l7 10q75 -24 115 -50q64 29 137 50l6 -10q-99 -57 -153 -117z" />
    <glyph glyph-name="zcaron" unicode="&#x17e;" horiz-adv-x="412" 
d="M388 196h1q7 0 7 -25q0 -50 -34.5 -95.5t-72.5 -70.5q-39 -25 -74 -25q-34 0 -123 25q-39 12 -61 12q-26 0 -47 -20l-8 9q8 16 33 48.5t37 40.5l277 226q-182 -4 -209 -10q-24 -5 -59 -67l-9 5q67 153 79 188q9 -9 33 -12q34 -6 158 -6q87 0 113 11l3 -7q-9 -18 -32 -52
t-45 -54q-40 -37 -142.5 -117.5t-118.5 -94.5q20 1 83 -10q98 -18 122 -18q67 0 67 51q0 16 -2 23q-1 12 2 20q16 25 22 25zM274 484l-12 -5q-12 94 -68 192l8 8q33 -25 88 -95q68 60 129 95l5 -10q-93 -90 -150 -185z" />
    <glyph glyph-name="longs" unicode="&#x17f;" horiz-adv-x="254" 
d="M376 683h1q47 0 73 -20.5t26 -58.5q0 -29 -20.5 -44t-42.5 -15t-31.5 8t-7.5 20q7 37 7 50q2 44 -24 44q-29 0 -49 -60q-24 -82 -89 -335q-54 -207 -94 -297q-56 -120 -175 -188q-51 -28 -103 -28q-24 0 -45.5 15.5t-21.5 37.5q0 19 18.5 40.5t33.5 23.5q18 5 31 -17
q35 -56 68 -56q14 0 26 16t17.5 32.5t14.5 46.5q28 98 96 375q33 133 65.5 217t86.5 136q57 57 139 57z" />
    <glyph glyph-name="florin" unicode="&#x192;" horiz-adv-x="493" 
d="M89 326l14 23q27 -3 83 -3q47 171 112 229q40 37 76.5 51.5t83.5 14.5q43 0 68.5 -19.5t25.5 -56.5q0 -25 -17.5 -41t-38.5 -16q-22 0 -33 9.5t-7 25.5q8 24 8 45q0 36 -25 36q-27 0 -47 -58q-25 -78 -60 -220q56 0 114 2l-13 -23q-72 3 -105 3q-50 -189 -78 -267
q-55 -142 -148 -203q-66 -43 -126 -43q-38 0 -60 17t-22 45q0 23 16 38t38 15q28 0 34 -32q9 -30 16.5 -43t21.5 -13q16 0 28 16.5t30 76.5q43 148 103 393q-41 0 -92 -2z" />
    <glyph glyph-name="circumflex" unicode="&#x2c6;" horiz-adv-x="442" 
d="M337 672l11 4q16 -102 68 -191l-7 -8q-34 23 -88 95q-76 -66 -130 -95l-5 10q102 100 151 185z" />
    <glyph glyph-name="caron" unicode="&#x2c7;" horiz-adv-x="442" 
d="M308 484l-12 -5q-12 94 -68 192l8 8q33 -25 88 -95q68 60 129 95l5 -10q-93 -90 -150 -185z" />
    <glyph glyph-name="uni02C9" unicode="&#x2c9;" horiz-adv-x="442" 
d="M205 522l19 58h215l-19 -58h-215z" />
    <glyph glyph-name="breve" unicode="&#x2d8;" horiz-adv-x="442" 
d="M308 489h-1q-41 0 -60.5 22t-17 53t11.5 64h13q-6 -36 10 -54t61 -18q47 0 68 14q25 16 37 58h14q-17 -69 -45 -104t-91 -35z" />
    <glyph glyph-name="dotaccent" unicode="&#x2d9;" horiz-adv-x="332" 
d="M277 635h1q26 0 41 -16.5t14 -44.5q-2 -33 -23.5 -52t-49.5 -19q-24 0 -40 16.5t-15 43.5q1 34 23.5 53t48.5 19z" />
    <glyph glyph-name="ring" unicode="&#x2da;" horiz-adv-x="442" 
d="M339 650h1q36 0 55 -21t15 -59q-4 -39 -32.5 -61t-67.5 -22q-36 0 -57 20t-17 55q4 40 33 64t70 24zM334 634h-1q-18 0 -29 -25.5t-13 -50.5q-7 -55 22 -55q35 0 44 79q8 52 -23 52z" />
    <glyph glyph-name="ogonek" unicode="&#x2db;" horiz-adv-x="443" 
d="M252 11h15q-45 -27 -78.5 -65t-33.5 -81q0 -20 12.5 -32t31.5 -12q36 0 63 26l6 -10q-63 -74 -136 -74q-28 0 -47 16t-19 43q0 57 58.5 107t127.5 82z" />
    <glyph glyph-name="tilde" unicode="&#x2dc;" horiz-adv-x="442" 
d="M211 498l-14 4q1 40 21 74.5t57 34.5q25 0 66 -30q34 -26 51 -26q30 0 37 61l14 -4q0 -45 -20 -78.5t-55 -33.5q-26 0 -68 32q-33 24 -49 24q-33 0 -40 -58z" />
    <glyph glyph-name="hungarumlaut" unicode="&#x2dd;" horiz-adv-x="446" 
d="M202 478l-11 6q10 18 33.5 70t29.5 64q20 42 50 42q21 0 21 -26q0 -22 -24 -50l-21 -23l-37 -39zM331 478l-11 6q8 16 32 68.5t31 65.5q22 42 50 42q22 0 22 -26q0 -20 -24 -50l-21 -23l-37.5 -39.5z" />
    <glyph glyph-name="pi" unicode="&#x3c0;" horiz-adv-x="465" 
d="M292 377h-100l-76 -249q-26 -86 -48.5 -114t-51.5 -28q-18 0 -27 15.5t-8 35.5q1 14 6.5 22t12.5 6q9 -3 24 -3q46 -2 76 88q30 91 67 227q-20 0 -36 -1t-28 -3.5l-19 -4t-17.5 -5l-13.5 -4.5l-1 12q73 49 142 49h196q83 0 128 7l-23 -53q-4 0 -30.5 1.5t-40.5 1.5
q-7 -26 -49 -165.5l-50 -167.5q-4 -17 7 -17q17 0 44.5 27.5t44.5 62.5l9 -19q-58 -111 -176 -111q-41 0 -62 19q-9 10 -1 39z" />
    <glyph glyph-name="figuredash" unicode="&#x2012;" horiz-adv-x="288" 
d="M65 294l24 58q91 -4 209 0l-24 -58q-110 4 -209 0z" />
    <glyph glyph-name="endash" unicode="&#x2013;" horiz-adv-x="492" 
d="M43 189l24 57q191 -4 397 0l-23 -57q-197 2 -398 0z" />
    <glyph glyph-name="emdash" unicode="&#x2014;" horiz-adv-x="927" 
d="M44 189l24 57q71 -2 412.5 -2t417.5 2l-23 -57q-73 1 -414 1t-417 -1z" />
    <glyph glyph-name="quoteleft" unicode="&#x2018;" horiz-adv-x="194" 
d="M302 705l2 -13q-48 -6 -84.5 -34t-47.5 -79q23 17 50 17q19 0 31.5 -13.5t11.5 -36.5q-2 -28 -23.5 -49t-50.5 -21q-30 0 -45 19.5t-13 52.5q4 66 54.5 109.5t114.5 47.5z" />
    <glyph glyph-name="quoteright" unicode="&#x2019;" horiz-adv-x="194" 
d="M113 471l-2 13q48 5 85 34t48 78q-22 -16 -50 -16q-20 0 -32 13t-11 36q2 28 23 49t51 21q31 0 46 -19.5t13 -52.5q-4 -65 -55 -108.5t-116 -47.5z" />
    <glyph glyph-name="quotesinglbase" unicode="&#x201a;" horiz-adv-x="210" 
d="M-38 -108l-2 15q53 6 93.5 38t52.5 86q-25 -19 -55 -19q-22 0 -36 15t-13 40q2 30 26 53t57 23t50 -21t15 -57q-4 -71 -60.5 -119.5t-127.5 -53.5z" />
    <glyph glyph-name="quotedblleft" unicode="&#x201c;" horiz-adv-x="363" 
d="M304 705l2 -13q-48 -6 -84.5 -35t-47.5 -78q24 17 49 17q20 0 32.5 -13.5t11.5 -36.5q-2 -28 -23 -49t-51 -21t-45.5 20t-13.5 52q4 65 55 109t115 48zM471 705l3 -13q-48 -6 -85 -35t-48 -78q25 17 50 17q20 0 32 -13.5t11 -36.5q-2 -28 -23.5 -49t-51.5 -21t-45 19.5
t-13 52.5q4 65 55 109t115 48z" />
    <glyph glyph-name="quotedblright" unicode="&#x201d;" horiz-adv-x="363" 
d="M113 471l-2 13q48 5 85 34t48 78q-23 -16 -50 -16q-20 0 -32 12.5t-11 36.5q2 28 23 49t51 21q31 0 46 -19.5t13 -52.5q-4 -65 -55 -108.5t-116 -47.5zM281 471l-1 13q47 5 84.5 34t48.5 78q-23 -16 -50 -16q-20 0 -32.5 12.5t-11.5 36.5q2 28 23.5 49t51.5 21t45 -19.5
t13 -51.5q-4 -65 -55 -109t-116 -48z" />
    <glyph glyph-name="quotedblbase" unicode="&#x201e;" horiz-adv-x="388" 
d="M-35 -103l-2 13q51 6 90 37t51 83q-26 -18 -53 -18q-22 0 -35.5 14.5t-12.5 39.5q2 28 25 50.5t55 22.5q33 0 49 -20.5t14 -54.5q-4 -69 -58.5 -116t-122.5 -51zM141 -103l-2 13q51 6 90 37t50 83q-24 -18 -53 -18q-21 0 -34.5 14.5t-12.5 39.5q2 28 25.5 50.5t54.5 22.5
q33 0 49 -20.5t14 -54.5q-4 -69 -58 -116t-123 -51z" />
    <glyph glyph-name="dagger" unicode="&#x2020;" horiz-adv-x="421" 
d="M330 584q14 -35 36 -48q6 -6 -2 -12q-68 -65 -95 -154q33 2 71 18t59 39q8 10 10 -1q0 -8 9.5 -26.5t19.5 -28.5q8 -8 -5 -14q-14 -9 -33 -27.5t-26 -28.5q-2 -4 -5.5 -4t-4.5 3q-9 24 -37 40t-61 18q-62 -217 -64 -372q0 -8 -6 -10q-16 -5 -50 -27q-5 -2 -7 1
q-20 20 -35 26q-5 2 0 10q87 157 146 372q-31 -2 -68 -18.5t-57 -39.5q-3 -3 -7 -3t-5 4q-2 11 -11 29t-19 27q-7 7 4 14q15 9 34 27.5t25 27.5q3 5 7 5.5t5 -4.5q7 -23 36 -39t61 -18q13 61 9.5 97t-15.5 57q-4 7 5 12q30 15 65 48q6 5 11 0z" />
    <glyph glyph-name="daggerdbl" unicode="&#x2021;" horiz-adv-x="426" 
d="M332 584q19 -35 37 -44q7 -4 -2 -11q-66 -63 -88 -134q32 1 69 17t58 37q9 9 11 -1q0 -8 9.5 -24.5t19.5 -27.5q7 -5 -5 -14q-38 -24 -57 -52q-6 -11 -12 -1q-9 22 -37.5 37.5t-58.5 16.5q-20 -67 13 -107q-54 -49 -74 -104q32 1 69 17.5t58 37.5q10 8 11 -1
q9 -33 29 -53q8 -6 -4 -14q-15 -10 -33 -26.5t-23 -26.5q-3 -4 -7.5 -4t-5.5 3q-9 22 -37.5 38t-58.5 17q-23 -90 4 -159q4 -9 -6 -11q-16 -7 -62 -42q-6 -5 -9 0q-2 2 -8 11t-10 13.5t-9.5 10t-10.5 7.5q-6 4 2 11q69 72 94 159q-31 -1 -68 -16.5t-59 -37.5q-8 -10 -10 0
q-1 10 -10.5 26.5t-19.5 26.5q-9 7 3 14q40 28 58 53q7 11 11 1q7 -21 36.5 -37t61.5 -18q11 54 -14 104q56 41 74 107q-31 -1 -67.5 -16.5t-58.5 -37.5q-2 -2 -5 -3t-5 0.5t-2 3.5q-1 9 -10 25.5t-18 26.5q-8 8 3 14q15 10 33.5 27t23.5 25q7 11 11 1q8 -21 37.5 -36.5
t61.5 -17.5q18 67 -10 134q-4 7 4 11q12 5 63 44q6 6 10 0z" />
    <glyph glyph-name="bullet" unicode="&#x2022;" horiz-adv-x="323" 
d="M157 112q-37 0 -60.5 24.5t-21.5 67.5q2 46 31 78t77 32q41 0 62 -29.5t19 -68.5q-2 -50 -32.5 -77t-74.5 -27z" />
    <glyph glyph-name="onedotenleader" unicode="&#x2024;" horiz-adv-x="314" 
d="M115 -14h-1q-26 0 -44.5 19t-17.5 52q2 35 25.5 60.5t57.5 25.5q32 0 48.5 -22.5t14.5 -53.5q-2 -37 -24.5 -59t-58.5 -22z" />
    <glyph glyph-name="twodotenleader" unicode="&#x2025;" horiz-adv-x="518" 
d="M91 -14h-1q-27 0 -45.5 19t-17.5 52q2 35 25.5 60.5t57.5 25.5q32 0 48.5 -22t14.5 -51q-2 -38 -24 -61t-58 -23zM349 -14h-1q-28 0 -46 19t-17 52q2 35 25 60.5t58 25.5q32 0 48.5 -22t14.5 -51q-2 -38 -24 -61t-58 -23z" />
    <glyph glyph-name="ellipsis" unicode="&#x2026;" horiz-adv-x="770" 
d="M86 -14h-1q-26 0 -44.5 19t-16.5 51q2 35 25 60t57 25q31 0 47.5 -21.5t14.5 -51.5q-2 -40 -24.5 -61t-57.5 -21zM343 -14h-1q-26 0 -44.5 19t-17.5 51q2 35 25 60t57 25q32 0 48.5 -21.5t14.5 -51.5q-2 -40 -24.5 -61t-57.5 -21zM599 -14h-1q-26 0 -44.5 19t-16.5 51
q2 35 25 60t57 25q32 0 48.5 -21.5t14.5 -51.5q-2 -40 -25 -61t-58 -21z" />
    <glyph glyph-name="perthousand" unicode="&#x2030;" horiz-adv-x="931" 
d="M120 16l-15 22l462 559q-58 -35 -128 -35q-42 0 -66 12q5 -17 5 -49q0 -47 -20 -96t-61 -84.5t-91 -35.5q-46 0 -74 26.5t-28 77.5q0 83 53.5 150.5t134.5 67.5q25 0 51 -14l10 9q36 -44 106 -44q67 0 125 44q10 8 29 33l39 6zM306 612h-1q-19 0 -35 -15
q-30 -34 -53 -104t-23 -121q0 -43 30 -43q39 0 69.5 38.5t43.5 85.5t13 86q0 73 -44 73zM532 352h1q44 0 67 -25.5t23 -69.5q0 -81 -47.5 -154t-123.5 -73q-48 0 -75.5 26t-27.5 77q0 78 53 148.5t130 70.5zM551 331h-1q-21 0 -36 -19q-33 -38 -53.5 -100t-20.5 -115
q0 -47 35 -47q36 0 65.5 40t43 87t13.5 82q0 72 -46 72zM815 352h1q44 0 67 -25.5t23 -69.5q-1 -82 -48 -154.5t-123 -72.5q-49 0 -76 26t-27 77q0 78 53 148.5t130 70.5zM834 331h-1q-21 0 -36 -19q-33 -39 -54 -101t-21 -114q0 -47 36 -47t65.5 40t43.5 87t14 82
q0 72 -47 72z" />
    <glyph glyph-name="guilsinglleft" unicode="&#x2039;" horiz-adv-x="268" 
d="M249 388l9 -8q-10 -23 -20.5 -43t-24 -40l-19.5 -29.5t-22 -30.5t-18 -23q30 -63 32 -171l-10 -9q-18 67 -55.5 118t-74.5 60l12 12q48 15 100 59t91 105z" />
    <glyph glyph-name="guilsinglright" unicode="&#x203a;" horiz-adv-x="267" 
d="M34 34l-9 9q8 19 18 38t17 31t19.5 30.5l16 23.5t18.5 24t15 20q-32 67 -32 170l10 9q18 -67 54.5 -117t74.5 -60l-12 -12q-47 -15 -99 -60t-91 -106z" />
    <glyph glyph-name="fraction" unicode="&#x2044;" horiz-adv-x="89" 
d="M364 673l16 -20l-556 -650l-14 21z" />
    <glyph glyph-name="zero.superior" unicode="&#x2070;" horiz-adv-x="333" 
d="M303 781h1q49 0 76 -28.5t27 -81.5q0 -59 -30 -118.5t-79 -86.5q-37 -20 -89 -20q-49 0 -79.5 26.5t-30.5 75.5q0 64 33 126.5t87 88.5q39 18 84 18zM296 768h-1q-17 0 -38 -27q-27 -38 -48 -113.5t-21 -126.5q0 -42 26 -42q18 0 38 27q28 39 48.5 114t20.5 127
q0 41 -25 41z" />
    <glyph glyph-name="four.superior" unicode="&#x2074;" horiz-adv-x="333" 
d="M238 567l53 172q-87 -79 -162 -161q33 -11 109 -11zM93 558l-3 13l211 196q43 4 90 17l3 -2l-55 -214q36 3 64 16l-3 -12q-24 -17 -66 -22q-5 -18 -12.5 -50l-10.5 -44q-65 0 -105 -8l-3 4l30 94q-97 2 -140 12z" />
    <glyph glyph-name="five.superior" unicode="&#x2075;" horiz-adv-x="333" 
d="M141 587l-9 12q19 32 38.5 91.5t25.5 87.5q19 -8 50 -11q27 -4 60 -4q48 0 70.5 7.5t36.5 25.5l7 -5q-26 -68 -60 -87q-30 -14 -73 -14q-62 0 -96 9q-23 -58 -37 -84q44 34 111 34q109 0 109 -82q0 -59 -51 -91q-43 -30 -122 -30q-42 0 -75.5 16.5t-33.5 51.5q0 17 12 29
t34 12q27 0 27 -37q0 -60 37 -60q28 0 44 30t16 79q0 58 -49 58q-41 0 -72 -38z" />
    <glyph glyph-name="six.superior" unicode="&#x2076;" horiz-adv-x="333" 
d="M400 770l-2 -13q-16 4 -32 4q-50 0 -90.5 -34.5t-62.5 -95.5q48 33 96 33q35 0 58 -20t23 -60q0 -65 -54 -105q-45 -33 -116 -33q-56 0 -90 27t-34 82t29 105.5t77 79.5q59 36 151 36q25 0 47 -6zM262 639h-2q-29 0 -52 -38q-21 -31 -21 -95q0 -48 33 -48q21 0 38 25
q14 20 23.5 54.5t9.5 62.5q0 39 -29 39z" />
    <glyph glyph-name="seven.superior" unicode="&#x2077;" horiz-adv-x="333" 
d="M143 639l-11 3q19 36 34.5 78.5t18.5 59.5q16 -4 34 -5q36 -2 96 -2q104 0 118 1l2 -4q-20 -47 -57 -88q-118 -130 -142 -232l-4 -3q-40 0 -69 12q-12 5 -10 19q0 15 18 38q24 32 107 100.5t87 72.5q-22 3 -94 3q-60 0 -78 -4t-27 -15q-3 -5 -11 -16t-12 -18z" />
    <glyph glyph-name="eight.superior" unicode="&#x2078;" horiz-adv-x="333" 
d="M289 781h1q44 0 74 -19t30 -52q0 -31 -35 -51q-23 -13 -50 -22q65 -43 65 -83q0 -49 -51 -80q-44 -28 -111 -28q-51 1 -87 20.5t-36 55.5q0 34 37 55q17 11 59 27q-41 27 -41 69q0 43 34 72q41 36 111 36zM279 768h-1q-23 0 -38 -12t-15 -33q0 -23 14.5 -36.5t60.5 -41.5
q34 23 34 63q0 24 -15 42t-40 18zM224 458h1q27 0 44 14t17 36q0 16 -18.5 35.5t-74.5 51.5q-35 -26 -35 -69q0 -30 20 -49t46 -19z" />
    <glyph glyph-name="nine.superior" unicode="&#x2079;" horiz-adv-x="333" 
d="M109 456l2 12q17 -5 37 -5q56 0 94 37.5t55 94.5q-39 -36 -97 -36q-33 0 -57 20.5t-24 60.5q0 64 53 105q45 36 116 36q58 0 91 -31.5t33 -84.5q0 -58 -27 -106.5t-77 -78.5q-54 -34 -134 -34q-35 0 -65 10zM289 769h-1q-22 0 -41 -31q-28 -45 -28 -106q0 -46 32 -46
q31 0 49 35q20 37 20 101q0 47 -31 47z" />
    <glyph glyph-name="parenleft.superior" unicode="&#x207d;" horiz-adv-x="239" 
d="M231 362l-8 -9q-99 52 -96 197q2 73 37 154t100 130q45 33 111 49l1 -12q-61 -17 -101 -88q-36 -61 -60 -141.5t-25 -155.5q-3 -93 41 -124z" />
    <glyph glyph-name="parenright.superior" unicode="&#x207e;" horiz-adv-x="239" 
d="M178 869l8 10q100 -53 97 -197q-3 -75 -37.5 -156t-98.5 -129q-49 -37 -112 -48l-1 13q61 15 103 88q35 58 58 138.5t24 156.5q3 97 -41 124z" />
    <glyph glyph-name="n.superior" unicode="&#x207f;" horiz-adv-x="391" 
d="M104 536l5 12q96 2 153 11q-28 -77 -31 -83q28 37 67.5 60t80.5 23q39 0 46.5 -16t-7.5 -49q-51 -131 -59 -157q-4 -11 5 -11q11 0 30.5 14t30.5 38l7 -11q-34 -69 -129 -69q-33 0 -41.5 15t4.5 46q26 62 59 151q6 15 -8 15q-19 0 -42.5 -21t-41.5 -58q-32 -63 -56 -138
q-12 -1 -35 -2.5t-40 -2.5t-29 -1q56 138 74 221q1 12 -7 12z" />
    <glyph glyph-name="zero.inferior" unicode="&#x2080;" horiz-adv-x="333" 
d="M253 229h1q49 0 76 -28.5t27 -81.5q0 -59 -30 -118.5t-79 -86.5q-37 -20 -89 -20q-49 0 -79.5 26.5t-30.5 75.5q0 64 33 126.5t87 88.5q39 18 84 18zM246 216h-1q-17 0 -38 -27q-27 -38 -48 -113.5t-21 -126.5q0 -42 26 -42q18 0 38 27q28 39 48.5 114t20.5 127
q0 41 -25 41z" />
    <glyph glyph-name="one.inferior" unicode="&#x2081;" horiz-adv-x="333" 
d="M272 -88l-5 -13q-17 0 -53 1.5t-55 1.5q-21 0 -54.5 -1.5t-44.5 -1.5l4 13l33 4q18 2 23 15q15 35 43 125q6 23 20.5 70.5t17.5 61.5q2 9 -6 9q-7 -1 -26 -1.5t-28 -0.5l9 13q106 6 153 21l2 -2q-9 -28 -26.5 -91t-22.5 -79q-22 -74 -33 -124q-3 -14 12 -17z" />
    <glyph glyph-name="two.inferior" unicode="&#x2082;" horiz-adv-x="333" 
d="M328 27l9 -4q-11 -22 -52 -125q-56 4 -191 4q-51 0 -67 -1l-1 3q5 8 30 56q121 47 168 120q23 38 23 84q0 51 -31 51q-17 0 -29 -15.5t-15.5 -29.5t-7.5 -36q-8 -39 -39 -39q-40 0 -40 41q0 37 39 65t100 28q51 0 85 -22.5t34 -67.5q0 -59 -67 -92q-22 -12 -75 -35
t-81 -37q152 5 161 6q14 2 23 11q8 9 24 35z" />
    <glyph glyph-name="three.inferior" unicode="&#x2083;" horiz-adv-x="333" 
d="M106 130l-8 27q15 28 52.5 50t86.5 22q50 0 74.5 -19.5t24.5 -48.5q0 -40 -50 -62q-24 -11 -83 -22v-4q76 -1 105 -30q15 -16 15 -46q-3 -48 -54 -77q-49 -26 -119 -26q-44 0 -78.5 16t-34.5 51q0 17 11.5 29.5t34.5 12.5q27 0 27 -38q0 -17 1.5 -27.5t9 -21t22.5 -10.5
q30 0 49 34.5t19 70.5q0 30 -11 41.5t-34 11.5q-20 0 -45 -7l-2 4l11 16q23 0 46 5q61 13 61 72q0 50 -48 50q-59 0 -79 -74h-4z" />
    <glyph glyph-name="four.inferior" unicode="&#x2084;" horiz-adv-x="333" 
d="M188 15l53 172q-87 -79 -162 -161q33 -11 109 -11zM43 6l-3 13l211 196q43 4 90 17l3 -2l-55 -214q36 3 64 16l-3 -12q-24 -17 -66 -22q-5 -18 -12.5 -50l-10.5 -44q-65 0 -105 -8l-3 4l30 94q-97 2 -140 12z" />
    <glyph glyph-name="five.inferior" unicode="&#x2085;" horiz-adv-x="333" 
d="M91 35l-9 12q19 32 38.5 91.5t25.5 87.5q19 -8 50 -11q27 -4 60 -4q48 0 70.5 7.5t36.5 25.5l7 -5q-26 -68 -60 -87q-30 -14 -73 -14q-62 0 -96 9q-23 -58 -37 -84q44 34 111 34q109 0 109 -82q0 -59 -51 -91q-43 -30 -122 -30q-42 0 -75.5 16.5t-33.5 51.5q0 17 12 29
t34 12q27 0 27 -37q0 -60 37 -60q28 0 44 30t16 79q0 58 -49 58q-41 0 -72 -38z" />
    <glyph glyph-name="six.inferior" unicode="&#x2086;" horiz-adv-x="333" 
d="M350 218l-2 -13q-16 4 -32 4q-50 0 -90.5 -34.5t-62.5 -95.5q48 33 96 33q35 0 58 -20t23 -60q0 -65 -54 -105q-45 -33 -116 -33q-56 0 -90 27t-34 82t29 105.5t77 79.5q59 36 151 36q25 0 47 -6zM212 87h-2q-29 0 -52 -38q-21 -31 -21 -95q0 -48 33 -48q21 0 38 25
q14 20 23.5 54.5t9.5 62.5q0 39 -29 39z" />
    <glyph glyph-name="seven.inferior" unicode="&#x2087;" horiz-adv-x="333" 
d="M93 87l-11 3q19 36 34.5 78.5t18.5 59.5q16 -4 34 -5q36 -2 96 -2q104 0 118 1l2 -4q-20 -47 -57 -88q-118 -130 -142 -232l-4 -3q-40 0 -69 12q-12 5 -10 19q0 15 18 38q24 32 107 100.5t87 72.5q-22 3 -94 3q-60 0 -78 -4t-27 -15q-3 -5 -11 -16t-12 -18z" />
    <glyph glyph-name="eight.inferior" unicode="&#x2088;" horiz-adv-x="333" 
d="M239 229h1q44 0 74 -19t30 -52q0 -31 -35 -51q-23 -13 -50 -22q65 -43 65 -83q0 -49 -51 -80q-44 -28 -111 -28q-51 1 -87 20.5t-36 55.5q0 34 37 55q17 11 59 27q-41 27 -41 69q0 43 34 72q41 36 111 36zM229 216h-1q-23 0 -38 -12t-15 -33q0 -23 14.5 -36.5t60.5 -41.5
q34 23 34 63q0 24 -15 42t-40 18zM174 -94h1q27 0 44 14t17 36q0 16 -18.5 35.5t-74.5 51.5q-35 -26 -35 -69q0 -30 20 -49t46 -19z" />
    <glyph glyph-name="nine.inferior" unicode="&#x2089;" horiz-adv-x="333" 
d="M59 -96l2 12q17 -5 37 -5q56 0 94 37.5t55 94.5q-39 -36 -97 -36q-33 0 -57 20.5t-24 60.5q0 64 53 105q45 36 116 36q58 0 91 -31.5t33 -84.5q0 -58 -27 -106.5t-77 -78.5q-54 -34 -134 -34q-35 0 -65 10zM239 217h-1q-22 0 -41 -31q-28 -45 -28 -106q0 -46 32 -46
q31 0 49 35q20 37 20 101q0 47 -31 47z" />
    <glyph glyph-name="parenleft.inferior" unicode="&#x208d;" horiz-adv-x="239" 
d="M181 -190l-8 -9q-99 52 -96 197q2 73 37 154t100 130q45 33 111 49l1 -12q-61 -17 -101 -88q-36 -61 -60 -141.5t-25 -155.5q-3 -93 41 -124z" />
    <glyph glyph-name="parenright.inferior" unicode="&#x208e;" horiz-adv-x="239" 
d="M128 317l8 10q100 -53 97 -197q-3 -75 -37.5 -156t-98.5 -129q-49 -37 -112 -48l-1 13q61 15 103 88q35 58 58 138.5t24 156.5q3 97 -41 124z" />
    <glyph glyph-name="colonmonetary" unicode="&#x20a1;" horiz-adv-x="493" 
d="M459 596q-16 13 -43 13l-186 -571q30 -10 44 -9zM424 703l26 6l-28 -84q31 -2 44 -7l27 85l25 6l-32 -98q21 -10 33 -23q5 -5 12 4l31 32l8 -3q-45 -108 -64 -192h-10q10 49 6 87t-27 66l-178 -551q27 6 44.5 12t39.5 20t40 40t33 64h8q4 -32 4 -42q-62 -94 -175 -114
l-30 -95l-25 -9l32 100q-26 -2 -47 1l-29 -92l-28 -9l37 106q-72 13 -106.5 64.5t-34.5 129.5q0 93 40 188t110 157q82 73 190 72zM182 151v-1q0 -79 30 -101l182 559q-55 -11 -89 -59q-56 -75 -89.5 -184.5t-33.5 -213.5z" />
    <glyph glyph-name="Euro" unicode="&#x20ac;" horiz-adv-x="495" 
d="M31 269l14 22h50q8 38 11 49h-40l13 22h34q41 121 116 195.5t187 74.5q37 0 65.5 -11t39.5 -28l25 40l10 -4q-36 -100 -52 -181l-12 -3q5 40 4 78t-19 65.5t-49 27.5q-33 0 -64 -26t-53.5 -68.5t-37 -81t-25.5 -78.5h203l-13 -22h-196q-5 -15 -12 -49h181l-12 -22h-173
q-9 -56 -9 -105q0 -142 90 -142q47 0 82.5 25.5t67.5 84.5l12 -11q-40 -74 -89.5 -104.5t-127.5 -30.5q-86 0 -127.5 54.5t-41.5 139.5q0 41 8 89h-60z" />
    <glyph glyph-name="afii61289" unicode="&#x2113;" horiz-adv-x="395" 
d="M361 135l10 -6q-34 -77 -77 -107t-107 -30q-44 0 -70 14t-34 40t-6.5 54t11.5 64q1 1 6.5 21t5.5 21q-11 -6 -33.5 -16t-26.5 -12l-5 13l33.5 17.5t35.5 19.5l50 184q41 148 98.5 210t115.5 62q32 0 48.5 -20.5t15.5 -59.5q-4 -90 -64 -177t-142 -155l-25 -98
q-18 -76 -9 -108.5t46 -32.5q38 0 64.5 22t58.5 80zM291 528l-57 -221q59 58 104 144.5t48 162.5q2 54 -24 54q-34 0 -71 -140z" />
    <glyph glyph-name="trademark" unicode="&#x2122;" horiz-adv-x="293" 
d="M142 609h17q33 0 39 2v-3q-1 -4 -1.5 -8.5t-0.5 -11t1 -13.5l-4 -2q-3 20 -7 24q-5 6 -22 5v-43q0 -30 1 -34q0 -5 18 -5v-6q-2 0 -14.5 0.5t-21.5 0.5q-5 0 -14 -0.5t-13 -0.5l-2 6q18 0 18 5q1 6 1 35v42q-17 0 -21 -6q-2 -4 -8 -24l-5 1q1 6 2 13.5l2 15t1 9.5
q10 -2 34 -2zM204 604v6q15 -1 26 -1q14 0 17 1q3 -8 26 -58q15 30 23 58q5 -1 20 -1q6 0 12.5 0.5t9.5 0.5v-6q-12 -1 -13 -5t-1 -17q0 -46 3 -56q0 -6 14 -6l-1 -6q-1 0 -11.5 0.5t-16.5 0.5t-16.5 -0.5t-12.5 -0.5v6q13 0 14 6q0 4 2 72h-1q-26 -70 -32 -81l-10 -3
q-3 9 -15 39.5t-15 41.5h-1q-2 -28 -2 -61q0 -13 7 -14h10l-1 -6q-3 0 -10.5 0.5t-11.5 0.5q-5 0 -12.5 -0.5t-8.5 -0.5v6q10 1 13.5 3t4.5 10q0 4 2 16t3.5 24.5t0.5 23.5l-1 3q0 3 -4 3z" />
    <glyph glyph-name="Omega" unicode="&#x2126;" horiz-adv-x="689" 
d="M261 93l1 5q-78 21 -121 76.5t-41 137.5q4 153 104.5 247.5t256.5 94.5q110 0 174 -56.5t62 -151.5q-4 -143 -81.5 -224.5t-215.5 -123.5l-1 -5h116q59 0 85 15.5t56 68.5l13 -1q-8 -26 -39.5 -93.5t-45.5 -85.5q-10 0 -29.5 1.5t-51.5 1.5h-175l-3 6q0 1 18 39t22 49
q76 41 127.5 171t54.5 252q2 55 -20.5 88t-66.5 33q-49 0 -91.5 -43.5t-68 -108t-40 -130t-16.5 -118.5q-3 -106 47 -144q-2 -36 -10 -88l-4 -6h-169q-16 0 -34.5 -0.5t-23.5 -0.5q-26 -2 -37 -2q-5 31 15 175l12 4q6 -56 23 -69.5t77 -13.5h121z" />
    <glyph glyph-name="estimated" unicode="&#x212e;" horiz-adv-x="829" 
d="M789 288h-559q-5 0 -5 -4v-169q0 -12 8 -20q86 -91 212 -91q134 0 222 103h49q-48 -56 -119.5 -88.5t-153.5 -32.5q-143 0 -244 90.5t-101 219.5t101 220t244 91t244.5 -91t101.5 -220v-8zM662 309v171q0 12 -9 21q-86 88 -208 88q-124 0 -211 -90q-9 -9 -9 -22v-168
q0 -4 5 -4h428q4 0 4 4z" />
    <glyph glyph-name="onethird" unicode="&#x2153;" horiz-adv-x="688" 
d="M284 316l-5 -13q-17 0 -53.5 1.5t-54.5 1.5q-21 0 -54.5 -1.5t-44.5 -1.5l4 13l33 4q18 3 23 16q16 38 43 125q23 74 38 131q2 9 -6 9q-7 -1 -26 -1.5t-28 -0.5l9 13q106 6 153 21l2 -2q-14 -42 -49 -170q-23 -81 -33 -124q-3 -15 13 -16zM640 664l15 -20l-554 -647
l-15 21zM433 276l-9 26q15 29 52.5 51t86.5 22q51 0 75.5 -19t24.5 -49q0 -40 -51 -62q-32 -12 -83 -21v-5q80 -1 105 -30q15 -15 15 -46q-1 -45 -54 -77q-49 -26 -119 -26q-44 0 -78.5 16t-34.5 51q0 17 11.5 29.5t34.5 12.5q29 0 27 -38q0 -17 1.5 -27.5t9 -21t22.5 -10.5
q30 0 49 34.5t19 70.5q0 30 -11.5 42t-33.5 12q-12 0 -45 -7l-2 3l11 17q24 0 46 5q61 11 61 72q0 50 -47 50q-59 0 -79 -75h-4z" />
    <glyph glyph-name="twothirds" unicode="&#x2154;" horiz-adv-x="688" 
d="M361 431l8 -4q-25 -52 -50 -125q-60 4 -192 4q-51 0 -67 -1l-1 3q13 22 29 56q125 49 168 121q24 36 24 83q0 51 -33 51q-24 0 -34.5 -21t-17.5 -60q-5 -39 -37 -39q-40 0 -40 41q0 37 39 65t100 28q51 0 85 -22.5t34 -67.5q0 -58 -68 -92q-21 -11 -72.5 -34t-82.5 -38
q151 5 160 6q15 2 23 11q5 5 25 35zM669 664l15 -20l-554 -647l-15 21zM449 276l-8 27q15 28 52.5 50t86.5 22q51 0 75.5 -19t24.5 -49q0 -41 -51 -62q-25 -10 -84 -21v-5q79 -1 106 -30q14 -15 14 -46q-1 -48 -53 -77q-46 -26 -119 -26q-44 0 -78.5 16t-34.5 51
q0 17 11.5 29.5t33.5 12.5q30 0 28 -38q0 -17 1.5 -27.5t9 -21t22.5 -10.5q30 0 49 34.5t19 70.5q0 30 -11.5 42t-33.5 12q-11 0 -46 -7l-1 3l11 17q22 0 47 5q60 11 60 72q0 50 -48 50q-58 0 -78 -75h-5z" />
    <glyph glyph-name="oneeighth" unicode="&#x215b;" horiz-adv-x="688" 
d="M560 376h1q44 0 73.5 -19.5t29.5 -52.5q0 -30 -35 -50q-30 -15 -48 -22q64 -42 64 -83q0 -49 -51 -80q-44 -28 -111 -28q-51 1 -87 20t-36 56q0 34 37 55q17 11 59 27q-41 27 -41 69q0 43 34 72q43 36 111 36zM550 362h-1q-23 0 -38 -12t-15 -32q0 -16 9 -28.5
t20.5 -20.5t44.5 -29q34 23 34 63q0 24 -14.5 41.5t-39.5 17.5zM495 53h1q27 0 44 13.5t17 36.5q0 34 -93 88q-35 -28 -35 -70q0 -30 20 -49t46 -19zM287 316l-4 -13q-17 0 -53.5 1.5t-54.5 1.5q-20 0 -54 -1.5t-46 -1.5l5 13l32 4q19 2 24 15q21 54 42 125q31 96 39 132
q2 9 -6 9q-7 -1 -26 -1.5t-28 -0.5l9 13q106 6 153 21l2 -2q-14 -42 -49 -170q-27 -94 -33 -124q-4 -14 12 -17zM639 664l15 -20l-553 -646l-15 21z" />
    <glyph glyph-name="threeeighths" unicode="&#x215c;" horiz-adv-x="688" 
d="M572 376h1q44 0 74 -19.5t30 -52.5q0 -31 -35 -49q-18 -12 -49 -23q64 -43 64 -82q0 -51 -50 -81q-44 -28 -112 -28q-51 1 -86.5 20t-35.5 56q0 34 37 55q19 12 58 27q-41 27 -41 69q0 43 34 72q41 36 111 36zM563 362h-1q-23 0 -38.5 -12t-15.5 -33q0 -22 14.5 -35.5
t60.5 -41.5q34 24 34 63q0 23 -14.5 41t-39.5 18zM508 53h1q26 0 43 13.5t17 36.5q0 16 -18.5 36t-73.5 52q-36 -27 -36 -70q0 -30 20 -49t47 -19zM140 534l-8 27q15 28 52.5 50t86.5 22q50 0 74.5 -19.5t24.5 -48.5q0 -40 -50 -62q-25 -11 -84 -22v-4q76 -1 105 -30
q15 -16 15 -45q-1 -48 -54 -78q-47 -26 -119 -26q-44 0 -78.5 16t-34.5 51q0 17 12 29.5t34 12.5q29 0 27 -37q0 -14 1 -22t3.5 -18t10 -15t18.5 -5q30 0 49 34.5t19 70.5q0 30 -11 41.5t-33 11.5t-46 -7l-1 4l11 16q24 0 46 5q30 6 45.5 22.5t15.5 50.5q0 49 -47 49
q-60 0 -79 -74h-5zM652 664l15 -20l-553 -646l-15 21z" />
    <glyph glyph-name="fiveeighths" unicode="&#x215d;" horiz-adv-x="688" 
d="M570 376h1q44 0 74 -19.5t30 -52.5q0 -30 -34 -49q-22 -13 -51 -23q65 -42 65 -82q0 -51 -50 -81q-44 -28 -112 -28q-51 1 -86.5 20t-35.5 56q0 33 37 55q18 11 57 27q-40 28 -40 69q0 45 33 72q41 36 112 36zM560 362h-1q-23 0 -38 -12t-15 -33q0 -22 14.5 -35.5
t60.5 -41.5q34 24 34 63q0 24 -14.5 41.5t-40.5 17.5zM505 53h1q27 0 44 13.5t17 36.5q0 16 -18.5 36t-74.5 52q-35 -26 -35 -70q0 -30 20 -49t46 -19zM120 439l-8 12q19 32 38.5 91.5t25.5 87.5q19 -8 49 -11q27 -4 61 -4q48 0 70 7.5t36 25.5l6 -5q-22 -67 -59 -87
q-30 -14 -73 -14q-60 0 -96 9q-14 -41 -36 -84q43 34 110 34q109 0 109 -82q0 -59 -51 -91q-42 -30 -121 -30q-43 0 -76 16.5t-33 51.5q0 17 12 29t34 12q27 0 27 -37q0 -60 37 -60q27 0 43.5 30t16.5 79q0 25 -12.5 41.5t-37.5 16.5q-41 0 -72 -38zM650 664l15 -20
l-552 -646l-16 21z" />
    <glyph glyph-name="seveneighths" unicode="&#x215e;" horiz-adv-x="688" 
d="M560 376h1q44 0 74 -19.5t30 -52.5q0 -30 -35 -50q-17 -11 -49 -22q65 -42 65 -83q0 -49 -51 -80q-46 -28 -112 -28q-51 1 -86.5 20t-35.5 56q0 34 36 55q21 12 58 27q-40 28 -40 69q0 43 34 72q43 36 111 36zM551 362h-1q-23 0 -38.5 -12t-15.5 -33q0 -22 14.5 -35.5
t60.5 -41.5q34 23 34 63q0 24 -14.5 41.5t-39.5 17.5zM495 53h1q27 0 44 13.5t17 36.5q0 35 -93 87q-35 -26 -35 -69q0 -30 20 -49t46 -19zM128 491l-10 3q19 36 34 78.5t18 59.5q16 -4 34 -5q38 -2 96 -2q104 0 118 1l1 -4q-17 -42 -56 -88q-118 -130 -142 -232l-3 -4
q-44 0 -70 13q-12 5 -10 18q0 16 18 39t56.5 57l82 69t56.5 47q-23 3 -95 3q-60 0 -78.5 -4t-26.5 -15zM622 664l16 -20l-554 -646l-15 21z" />
    <glyph glyph-name="uni2190" unicode="&#x2190;" horiz-adv-x="482" 
d="M457 209h-347l161 -144l-27 -35l-219 200v1l219 200l27 -35l-161 -144h347v-43z" />
    <glyph glyph-name="uni2192" unicode="&#x2192;" horiz-adv-x="482" 
d="M25 252h347l-160 144l27 35l218 -200v-1l-218 -200l-27 35l160 144h-347v43z" />
    <glyph glyph-name="partialdiff" unicode="&#x2202;" horiz-adv-x="483" 
d="M126 561q-6 9 7 40t25 40q35 28 118 28q91 0 152 -69.5t57 -205.5q-1 -54 -13.5 -109.5t-37.5 -109t-59.5 -95t-84.5 -66.5t-107 -25q-74 0 -110.5 37.5t-34.5 105.5q2 90 60 153t152 63q75 0 101 -47h2q32 105 34 201q2 76 -18.5 110.5t-78.5 34.5q-77 0 -161 -86h-3z
M198 6h1q37 0 76 79.5t71 191.5q-14 39 -58 39q-40 0 -71 -43.5t-44 -94t-14 -92.5q-3 -80 39 -80z" />
    <glyph glyph-name="Delta" unicode="&#x2206;" horiz-adv-x="561" 
d="M485 -3q-5 0 -35 2q-4 0 -29 0.5t-48 0.5h-388l4 14l335 561q15 28 23 53q24 1 65 7.5t58 13.5q-1 -98 5 -314t13 -323zM335 562q-6 -11 -121.5 -210.5t-155.5 -278.5q-14 -28 8 -31q39 -7 117 -7q96 0 124 4q11 1 15.5 2.5t8 7.5t3.5 18q1 70 1 271v224z" />
    <glyph glyph-name="product" unicode="&#x220f;" horiz-adv-x="661" 
d="M99 181l67 233q53 180 56 194q5 20 -4.5 25t-46.5 7l6 13q12 0 58 -2t66 -2h319q61 0 137 4l-3 -13q-37 -1 -48 -6.5t-16 -22.5q0 -1 -23.5 -70t-36.5 -115l-78 -267q-50 -170 -60 -223q-2 -12 8 -16.5t48 -6.5l-8 -13q-8 0 -53 1.5t-79 1.5t-79.5 -1.5t-56.5 -1.5l5 13
q35 3 46.5 8.5t17.5 23.5q31 88 59 186l138 468q4 17 2 22.5t-16 7.5q-14 3 -65 3q-34 0 -61 -3q-16 -2 -22.5 -8t-12.5 -25l-138 -472q-33 -112 -49 -180q-4 -18 4.5 -24t44.5 -7l-4 -14q-16 0 -60 2t-77 2q-25 0 -70.5 -2t-62.5 -2l3 14q38 1 50 7t20 25q53 159 75 236z
" />
    <glyph glyph-name="summation" unicode="&#x2211;" horiz-adv-x="519" 
d="M297 631q-10 0 -16 -5t-5 -10l70 -291q-16 -18 -65 -77l-107.5 -130l-82.5 -99q-8 -9 9 -12q30 -6 123 -6q145 0 178 24q29 21 63 92l11 -4q-6 -21 -40.5 -109.5t-46.5 -108.5q-67 5 -184 5h-65q-36 0 -102 -1.5t-77 -1.5l3 15q69 75 271 314l-105 413l3 12
q7 0 29.5 -0.5t36.5 -0.5q52 -2 76 -2h147q89 0 123 6q-24 -80 -41 -173h-13q2 57 -12 103q-8 25 -28 36t-77 11h-76z" />
    <glyph glyph-name="minus" unicode="&#x2212;" horiz-adv-x="443" 
d="M37 237h359v-43h-359v43z" />
    <glyph glyph-name="uni2215" unicode="&#x2215;" horiz-adv-x="89" 
d="M364 673l16 -20l-556 -650l-14 21z" />
    <glyph glyph-name="uni2219" unicode="&#x2219;" horiz-adv-x="323" 
d="M157 112q-37 0 -60.5 24.5t-21.5 67.5q2 46 31 78t77 32q41 0 62 -29.5t19 -68.5q-2 -50 -32.5 -77t-74.5 -27z" />
    <glyph glyph-name="radical" unicode="&#x221a;" horiz-adv-x="509" 
d="M585 777l-279 -924h-12l-144 431l-66 -32l-5 17l140 66l74 -237q21 -70 29 -110h2q12 47 29 103l202 686h30z" />
    <glyph glyph-name="infinity" unicode="&#x221e;" horiz-adv-x="582" 
d="M421 98h-1q-27 0 -53.5 15.5t-39 28t-41.5 45.5q-28 -31 -40.5 -43.5t-41.5 -29t-59 -16.5q-48 0 -78 31t-30 85q0 48 34 81.5t82 33.5q15 0 29.5 -4.5t23.5 -8.5t23.5 -17l18.5 -16.5t20.5 -22.5t17.5 -20q24 28 40.5 43.5t44.5 30.5t58 15q46 0 76.5 -32t30.5 -82
q0 -48 -34 -82.5t-81 -34.5zM151 137h1q23 0 45.5 13.5t32 24l31.5 36.5q-7 7 -24.5 26t-27 28.5t-26 18.5t-33.5 9q-32 0 -51.5 -22.5t-19.5 -55.5q0 -35 20.5 -56.5t51.5 -21.5zM422 137h1q31 0 50.5 22.5t19.5 55.5q0 35 -18.5 56.5t-50.5 21.5q-7 0 -14.5 -1.5t-13 -3
t-13 -6t-12 -6.5t-12 -8.5t-10 -9l-10.5 -10.5l-9.5 -9.5t-9.5 -10.5t-9 -10q3 -3 14 -16l15 -17.5t14 -14.5t16 -14t15 -9.5t18 -7.5t19 -2z" />
    <glyph glyph-name="integral" unicode="&#x222b;" horiz-adv-x="338" 
d="M361 729v-1q0 -34 -39 -34q-22 0 -37 25t-33 25q-38 0 -34 -122q1 -35 12.5 -220t13.5 -273q2 -144 -39.5 -233t-121.5 -89q-29 0 -46 12t-17 34q0 16 11.5 27.5t31.5 11.5q25 0 39.5 -24t35.5 -24q36 0 33 143q-2 65 -12 228t-12 205q-11 355 152 355q28 0 45 -13
t17 -33z" />
    <glyph glyph-name="approxequal" unicode="&#x2248;" horiz-adv-x="445" 
d="M365 334l33 -16q-13 -43 -37.5 -62t-65.5 -19q-39 0 -95 33q-38 22 -64 22q-47 0 -67 -52l-33 17q28 75 102 75q38 0 93 -32q43 -24 70 -24q48 0 64 58zM365 203l33 -16q-24 -83 -105 -83q-33 0 -93 34q-40 22 -65 22q-46 0 -66 -51l-33 17q28 75 104 75q42 0 94 -33
q41 -24 69 -24q46 0 62 59z" />
    <glyph glyph-name="notequal" unicode="&#x2260;" horiz-adv-x="443" 
d="M37 311h205q4 7 22.5 47t22.5 47l32 -16l-37 -78h114v-43h-134l-50 -105h184v-43h-204l-43 -89l-33 16l35 73h-114v43h135l49 105h-184v43z" />
    <glyph glyph-name="lessequal" unicode="&#x2264;" horiz-adv-x="436" 
d="M47 246v41l331 165v-50l-279 -134v-3l279 -134v-51zM47 50h331v-43h-331v43z" />
    <glyph glyph-name="greaterequal" unicode="&#x2265;" horiz-adv-x="436" 
d="M378 286v-41l-331 -165v51l279 134v3l-279 134v50zM47 50h331v-43h-331v43z" />
    <glyph glyph-name="blacksquare" unicode="&#x25a0;" horiz-adv-x="285" 
d="M45 334h195v-200h-195v200z" />
    <glyph glyph-name="blackrightpointingtriangle" unicode="&#x25b6;" horiz-adv-x="409" 
d="M50 74q1 310 0 310h1l324 -153v-1l-324 -157z" />
    <glyph glyph-name="whiterightpointingtriangle" unicode="&#x25b7;" horiz-adv-x="409" 
d="M86 329l1 -197l207 100zM50 76q1 310 0 310h1l324 -153v-1l-324 -157z" />
    <glyph glyph-name="blackleftpointingtriangle" unicode="&#x25c0;" horiz-adv-x="409" 
d="M359 383q-1 -310 0 -310h-1l-324 153v1l324 157z" />
    <glyph glyph-name="whiteleftpointingtriangle" unicode="&#x25c1;" horiz-adv-x="409" 
d="M322 132v197l-208 -100zM359 385q-1 -310 0 -310h-1l-324 153v1l324 157z" />
    <glyph glyph-name="blackdiamond" unicode="&#x25c6;" horiz-adv-x="335" 
d="M29 236l137 137l140 -141l-137 -137z" />
    <glyph glyph-name="fisheye" unicode="&#x25c9;" horiz-adv-x="331" 
d="M166 376h1q54 0 91.5 -39t37.5 -94t-38 -94t-92 -39q-55 0 -93 38.5t-38 94.5t38 94.5t93 38.5zM166 340h-1q-38 0 -63 -28.5t-25 -68.5t25.5 -68.5t63.5 -28.5t63 28.5t25 68.5t-25 68.5t-63 28.5zM166 295h-1q-21 0 -34.5 -15.5t-13.5 -36.5q0 -22 14 -37.5t35 -15.5
t34.5 15.5t13.5 37.5q0 21 -13.5 36.5t-34.5 15.5z" />
    <glyph glyph-name="lozenge" unicode="&#x25ca;" horiz-adv-x="527" 
d="M489 300l-199 -344h-47l-188 339l188 350h52zM434 295l-163 310h-3q-16 -34 -55.5 -110l-71.5 -135l-32 -59l159 -300h1z" />
    <glyph glyph-name="uni2610" unicode="&#x2610;" horiz-adv-x="687" 
d="M101 542h498v-506l-38 -36h-495v509zM88 503v-480h468v480h-468z" />
    <glyph glyph-name="uni2611" unicode="&#x2611;" horiz-adv-x="687" 
d="M101 542h498v-506l-38 -36h-495v509zM88 503v-480h468v480h-468zM427 439q9 12 33 22.5t46 12.5v-2q-25 -27 -50.5 -63.5t-54.5 -89.5l-45 -83t-49 -97l-39 -79h-1q-18 15 -63.5 96t-45.5 99q5 10 19.5 23.5t23.5 15.5h1q5 -25 29.5 -85.5t40.5 -90.5q95 240 155 321z
" />
    <glyph glyph-name="A.sc" unicode="&#xe000;" horiz-adv-x="469" 
d="M420 15l39 -3l-4 -15q-12 0 -55.5 1.5t-72.5 1.5q-8 0 -137 -3l5 14q36 3 45.5 8t10.5 16q6 53 6 162q-17 1 -52 1q-46 0 -73 -4q-59 -100 -76 -146q-6 -19 4.5 -26t55.5 -11l-4 -14q-13 0 -42.5 1.5t-45.5 1.5q-9 0 -39.5 -1.5t-48.5 -1.5l4 14q34 4 49.5 12.5
t34.5 35.5q51 73 221 365q21 34 29 58q22 -2 63 2.5t56 12.5q-6 -345 4 -460q1 -20 23 -22zM265 427l-25.5 -43.5l-44 -78.5l-51.5 -91q38 2 63 2q11 0 27.5 0.5t22.5 0.5q1 36 4 114.5t4 95.5z" />
    <glyph glyph-name="A.swash" unicode="&#xe001;" horiz-adv-x="645" 
d="M544 629q12 4 63 15t62 15l5 -4q-7 -12 -50 -150q-80 -258 -115 -420q-12 -51 13 -51q51 0 105 101l10 -13q-44 -80 -92.5 -110t-105.5 -30q-53 0 -67 35.5t11 128.5q34 110 46 157q-46 -16 -143 -16q-89 -213 -134 -263q-43 -43 -98 -43q-34 0 -53 19.5t-18 50.5
q1 38 24 59t50 21q39 0 46 -35q6 -24 25 -24q24 0 50 41q42 74 95 200q64 152 97 204q70 114 154 114q8 0 20 -2zM531 610q-1 0 -6 0.5t-7 0.5q-49 0 -106 -76.5t-115 -218.5q98 0 138 4q67 217 96 290z" />
    <glyph glyph-name="AE.sc" unicode="&#xe002;" horiz-adv-x="692" 
d="M417 484h174q85 0 112 7q-10 -21 -43 -154l-13 -4q4 49 -4 89q-7 27 -27.5 36t-74.5 9h-19q-16 0 -20 -10q-8 -25 -28.5 -105l-24.5 -95h42q70 0 102 76h11q-42 -118 -57 -197l-11 1q16 101 -52 101h-40q-4 -17 -22.5 -91t-26.5 -112q-2 -11 4 -14.5t29 -3.5q53 0 81.5 6
t50.5 25q52 42 89 114l9 -6q-21 -70 -60 -162q-20 2 -67 4q-56 2 -107 2h-117q-7 0 -29 -0.5t-36 -0.5q-48 -2 -65 -2l5 14l35 4q26 2 33 22q27 81 58 201q-13 -1 -61 -2t-61 -1q-105 -134 -139 -192q-8 -12 -4 -17.5t25 -8.5l52 -6l-5 -15q-24 0 -53.5 2t-40.5 2
q-22 0 -60 -2t-43 -2l4 15q39 4 57 12.5t43 38.5l307 392q10 13 -4 14l-68 5l7 14q90 -3 153 -3zM313 257l58 207h-11q-32 -38 -89.5 -115t-69.5 -92q38 -3 112 0z" />
    <glyph glyph-name="AE.swash" unicode="&#xe003;" horiz-adv-x="895" 
d="M542 645h1q21 0 45 -8h190q115 0 160 9q-31 -62 -65 -202h-12q10 72 4 114q-6 37 -29.5 49.5t-91.5 12.5h-39q-17 0 -23 -16q-6 -19 -73 -277q41 0 74.5 1t53.5 2t38 3.5t24.5 3.5t17.5 4t12 3l1 -5l-39 -41q-5 1 -91.5 5t-96.5 4q-49 -179 -69 -271q-2 -13 6 -17t43 -4
q101 0 151 34q35 23 71 65t60 83l11 -5q-63 -166 -85 -200q-42 4 -87 5q-57 3 -152 3h-91q-98 0 -166 -4l5 13l52 6q25 1 35 31q27 79 77 261q-16 -1 -73.5 -1h-94.5q-10 -20 -33.5 -73.5l-44.5 -98t-46 -88.5q-46 -79 -118 -79q-35 0 -54 21t-19 49q0 38 21 56t47 18
q15 0 30 -13q1 -1 3.5 -4.5t4 -5t4 -4.5t4.5 -4.5t4.5 -3t5 -2t5.5 -0.5q20 0 35.5 11.5t43.5 57.5t72 138l26 54.5l23.5 50.5l20.5 43t20 40.5l18 33t18.5 31.5l17 25.5t19 24.5t19 18.5t21.5 17.5q34 25 78 25zM470 327l78 291q-32 5 -65 -17t-64.5 -67.5t-56.5 -93
t-53 -110.5q95 -4 161 -3z" />
    <glyph glyph-name="Aacute.sc" unicode="&#xe004;" horiz-adv-x="469" 
d="M420 15l39 -3l-4 -15q-12 0 -55.5 1.5t-72.5 1.5q-8 0 -137 -3l5 14q36 3 45.5 8t10.5 16q6 53 6 162q-17 1 -52 1q-46 0 -73 -4q-59 -100 -76 -146q-6 -19 4.5 -26t55.5 -11l-4 -14q-13 0 -42.5 1.5t-45.5 1.5q-9 0 -39.5 -1.5t-48.5 -1.5l4 14q34 4 49.5 12.5
t34.5 35.5q51 73 221 365q21 34 29 58q22 -2 63 2.5t56 12.5q-6 -345 4 -460q1 -20 23 -22zM265 427l-25.5 -43.5l-44 -78.5l-51.5 -91q38 2 63 2q11 0 27.5 0.5t22.5 0.5q1 36 4 114.5t4 95.5zM310 542l-8 9q9 11 47.5 63.5t49.5 64.5q30 34 54 34q31 0 31 -30
q0 -31 -44 -59q-6 -4 -50 -31.5z" />
    <glyph glyph-name="Aacute.swash" unicode="&#xe005;" horiz-adv-x="645" 
d="M544 629q12 4 63 15t62 15l5 -4q-7 -12 -50 -150q-80 -258 -115 -420q-12 -51 13 -51q51 0 105 101l10 -13q-44 -80 -92.5 -110t-105.5 -30q-53 0 -67 35.5t11 128.5q34 110 46 157q-46 -16 -143 -16q-89 -213 -134 -263q-43 -43 -98 -43q-34 0 -53 19.5t-18 50.5
q1 38 24 59t50 21q39 0 46 -35q6 -24 25 -24q24 0 50 41q42 74 95 200q64 152 97 204q70 114 154 114q8 0 20 -2zM531 610q-1 0 -6 0.5t-7 0.5q-49 0 -106 -76.5t-115 -218.5q98 0 138 4q67 217 96 290zM513 685l-7 9q11 8 63 51.5t70 56.5q31 23 61 12q24 -11 11 -43
q-10 -22 -45 -34q-65 -24 -153 -52z" />
    <glyph glyph-name="Acircumflex.sc" unicode="&#xe006;" horiz-adv-x="469" 
d="M420 15l39 -3l-4 -15q-12 0 -55.5 1.5t-72.5 1.5q-8 0 -137 -3l5 14q36 3 45.5 8t10.5 16q6 53 6 162q-17 1 -52 1q-46 0 -73 -4q-59 -100 -76 -146q-6 -19 4.5 -26t55.5 -11l-4 -14q-13 0 -42.5 1.5t-45.5 1.5q-9 0 -39.5 -1.5t-48.5 -1.5l4 14q34 4 49.5 12.5
t34.5 35.5q51 73 221 365q21 34 29 58q22 -2 63 2.5t56 12.5q-6 -345 4 -460q1 -20 23 -22zM265 427l-25.5 -43.5l-44 -78.5l-51.5 -91q38 2 63 2q11 0 27.5 0.5t22.5 0.5q1 36 4 114.5t4 95.5zM368 715l10 3q14 -82 72 -173l-8 -8q-57 43 -91 80q-57 -44 -128 -80l-6 8
q55 49 95 96t56 74z" />
    <glyph glyph-name="Acircumflex.swash" unicode="&#xe007;" horiz-adv-x="645" 
d="M544 629q12 4 63 15t62 15l5 -4q-7 -12 -50 -150q-80 -258 -115 -420q-12 -51 13 -51q51 0 105 101l10 -13q-44 -80 -92.5 -110t-105.5 -30q-53 0 -67 35.5t11 128.5q34 110 46 157q-46 -16 -143 -16q-89 -213 -134 -263q-43 -43 -98 -43q-34 0 -53 19.5t-18 50.5
q1 38 24 59t50 21q39 0 46 -35q6 -24 25 -24q24 0 50 41q42 74 95 200q64 152 97 204q70 114 154 114q8 0 20 -2zM531 610q-1 0 -6 0.5t-7 0.5q-49 0 -106 -76.5t-115 -218.5q98 0 138 4q67 217 96 290zM582 818l11 3q37 -67 102 -120l-7 -9q-66 21 -115 50
q-57 -27 -137 -50l-5 9q105 62 151 117z" />
    <glyph glyph-name="Adieresis.sc" unicode="&#xe008;" horiz-adv-x="469" 
d="M420 15l39 -3l-4 -15q-12 0 -55.5 1.5t-72.5 1.5q-8 0 -137 -3l5 14q36 3 45.5 8t10.5 16q6 53 6 162q-17 1 -52 1q-46 0 -73 -4q-59 -100 -76 -146q-6 -19 4.5 -26t55.5 -11l-4 -14q-13 0 -42.5 1.5t-45.5 1.5q-9 0 -39.5 -1.5t-48.5 -1.5l4 14q34 4 49.5 12.5
t34.5 35.5q51 73 221 365q21 34 29 58q22 -2 63 2.5t56 12.5q-6 -345 4 -460q1 -20 23 -22zM265 427l-25.5 -43.5l-44 -78.5l-51.5 -91q38 2 63 2q11 0 27.5 0.5t22.5 0.5q1 36 4 114.5t4 95.5zM266 678h1q24 0 37 -16.5t10 -41.5q-3 -29 -23 -46.5t-42 -17.5
q-24 0 -38.5 14.5t-10.5 44.5q4 28 22 45.5t44 17.5zM443 678h1q24 0 37 -16.5t10 -41.5q-4 -29 -24 -46.5t-42 -17.5q-24 0 -38 14.5t-10 44.5q4 28 22 45.5t44 17.5z" />
    <glyph glyph-name="Adieresis.swash" unicode="&#xe009;" horiz-adv-x="645" 
d="M544 629q12 4 63 15t62 15l5 -4q-7 -12 -50 -150q-80 -258 -115 -420q-12 -51 13 -51q51 0 105 101l10 -13q-44 -80 -92.5 -110t-105.5 -30q-53 0 -67 35.5t11 128.5q34 110 46 157q-46 -16 -143 -16q-89 -213 -134 -263q-43 -43 -98 -43q-34 0 -53 19.5t-18 50.5
q1 38 24 59t50 21q39 0 46 -35q6 -24 25 -24q24 0 50 41q42 74 95 200q64 152 97 204q70 114 154 114q8 0 20 -2zM531 610q-1 0 -6 0.5t-7 0.5q-49 0 -106 -76.5t-115 -218.5q98 0 138 4q67 217 96 290zM474 804h1q23 0 35.5 -15.5t10.5 -38.5q-3 -27 -22 -42.5t-40 -15.5
q-20 0 -33.5 13.5t-10.5 39.5t19.5 42.5t39.5 16.5zM662 804h1q23 0 35.5 -15.5t10.5 -38.5q-3 -26 -22.5 -42t-39.5 -16q-21 0 -34.5 13.5t-10.5 39.5t19.5 42.5t40.5 16.5z" />
    <glyph glyph-name="Agrave.sc" unicode="&#xe00a;" horiz-adv-x="469" 
d="M420 15l39 -3l-4 -15q-12 0 -55.5 1.5t-72.5 1.5q-8 0 -137 -3l5 14q36 3 45.5 8t10.5 16q6 53 6 162q-17 1 -52 1q-46 0 -73 -4q-59 -100 -76 -146q-6 -19 4.5 -26t55.5 -11l-4 -14q-13 0 -42.5 1.5t-45.5 1.5q-9 0 -39.5 -1.5t-48.5 -1.5l4 14q34 4 49.5 12.5
t34.5 35.5q51 73 221 365q21 34 29 58q22 -2 63 2.5t56 12.5q-6 -345 4 -460q1 -20 23 -22zM265 427l-25.5 -43.5l-44 -78.5l-51.5 -91q38 2 63 2q11 0 27.5 0.5t22.5 0.5q1 36 4 114.5t4 95.5zM365 543l-9 -6q-78 76 -95 97q-24 30 -23 53q1 15 10 23.5t22 8.5
q14 0 26.5 -11.5t18.5 -27.5q25 -60 50 -137z" />
    <glyph glyph-name="Agrave.swash" unicode="&#xe00b;" horiz-adv-x="645" 
d="M544 629q12 4 63 15t62 15l5 -4q-7 -12 -50 -150q-80 -258 -115 -420q-12 -51 13 -51q51 0 105 101l10 -13q-44 -80 -92.5 -110t-105.5 -30q-53 0 -67 35.5t11 128.5q34 110 46 157q-46 -16 -143 -16q-89 -213 -134 -263q-43 -43 -98 -43q-34 0 -53 19.5t-18 50.5
q1 38 24 59t50 21q39 0 46 -35q6 -24 25 -24q24 0 50 41q42 74 95 200q64 152 97 204q70 114 154 114q8 0 20 -2zM531 610q-1 0 -6 0.5t-7 0.5q-49 0 -106 -76.5t-115 -218.5q98 0 138 4q67 217 96 290zM613 698l-6 -9q-26 10 -63 23l-62.5 22.5t-31.5 11.5q-26 12 -32 31
q-13 37 17 46q26 11 54 -11q8 -6 61.5 -56z" />
    <glyph glyph-name="Aring.sc" unicode="&#xe00c;" horiz-adv-x="469" 
d="M420 15l39 -3l-4 -15q-12 0 -55.5 1.5t-72.5 1.5q-8 0 -137 -3l5 14q36 3 45.5 8t10.5 16q6 53 6 162q-17 1 -52 1q-46 0 -73 -4q-59 -100 -76 -146q-6 -19 4.5 -26t55.5 -11l-4 -14q-13 0 -42.5 1.5t-45.5 1.5q-9 0 -39.5 -1.5t-48.5 -1.5l4 14q34 4 49.5 12.5
t34.5 35.5q51 73 221 365q21 34 29 58q22 -2 63 2.5t56 12.5q-6 -345 4 -460q1 -20 23 -22zM265 427l-25.5 -43.5l-44 -78.5l-51.5 -91q38 2 63 2q11 0 27.5 0.5t22.5 0.5q1 36 4 114.5t4 95.5zM366 714h1q37 0 57.5 -23t14.5 -63t-35 -61.5t-69 -21.5q-39 0 -61 23t-16 61
q6 42 35.5 63.5t72.5 21.5zM361 697h-1q-38 0 -49 -67q-10 -68 27 -68q38 0 49 71q10 64 -26 64z" />
    <glyph glyph-name="Aring.swash" unicode="&#xe00d;" horiz-adv-x="645" 
d="M544 629q12 4 63 15t62 15l5 -4q-7 -12 -50 -150q-80 -258 -115 -420q-12 -51 13 -51q51 0 105 101l10 -13q-44 -80 -92.5 -110t-105.5 -30q-53 0 -67 35.5t11 128.5q34 110 46 157q-46 -16 -143 -16q-89 -213 -134 -263q-43 -43 -98 -43q-34 0 -53 19.5t-18 50.5
q1 38 24 59t50 21q39 0 46 -35q6 -24 25 -24q24 0 50 41q42 74 95 200q64 152 97 204q70 114 154 114q8 0 20 -2zM531 610q-1 0 -6 0.5t-7 0.5q-49 0 -106 -76.5t-115 -218.5q98 0 138 4q67 217 96 290zM585 854h1q36 0 55.5 -20.5t15.5 -56.5q-4 -40 -32 -62t-69 -22
q-36 0 -57 20t-17 56q4 39 32.5 62t70.5 23zM582 839h-1q-36 0 -45 -75q-7 -55 22 -55q22 0 33 25t13 53q8 52 -22 52z" />
    <glyph glyph-name="Atilde.sc" unicode="&#xe00e;" horiz-adv-x="469" 
d="M420 15l39 -3l-4 -15q-12 0 -55.5 1.5t-72.5 1.5q-8 0 -137 -3l5 14q36 3 45.5 8t10.5 16q6 53 6 162q-17 1 -52 1q-46 0 -73 -4q-59 -100 -76 -146q-6 -19 4.5 -26t55.5 -11l-4 -14q-13 0 -42.5 1.5t-45.5 1.5q-9 0 -39.5 -1.5t-48.5 -1.5l4 14q34 4 49.5 12.5
t34.5 35.5q51 73 221 365q21 34 29 58q22 -2 63 2.5t56 12.5q-6 -345 4 -460q1 -20 23 -22zM265 427l-25.5 -43.5l-44 -78.5l-51.5 -91q38 2 63 2q11 0 27.5 0.5t22.5 0.5q1 36 4 114.5t4 95.5zM232 554l-15 4q14 108 80 108q22 0 68 -29q38 -24 55 -24q29 0 38 56l14 -5
q-14 -108 -78 -108q-21 0 -70 30q-37 23 -50 23q-33 0 -42 -55z" />
    <glyph glyph-name="Atilde.swash" unicode="&#xe00f;" horiz-adv-x="645" 
d="M544 629q12 4 63 15t62 15l5 -4q-7 -12 -50 -150q-80 -258 -115 -420q-12 -51 13 -51q51 0 105 101l10 -13q-44 -80 -92.5 -110t-105.5 -30q-53 0 -67 35.5t11 128.5q34 110 46 157q-46 -16 -143 -16q-89 -213 -134 -263q-43 -43 -98 -43q-34 0 -53 19.5t-18 50.5
q1 38 24 59t50 21q39 0 46 -35q6 -24 25 -24q24 0 50 41q42 74 95 200q64 152 97 204q70 114 154 114q8 0 20 -2zM531 610q-1 0 -6 0.5t-7 0.5q-49 0 -106 -76.5t-115 -218.5q98 0 138 4q67 217 96 290zM449 696l-14 4q6 41 25 73t54 32q25 0 66 -28q32 -24 53 -24
q13 0 23.5 15.5t12.5 41.5l14 -5q-5 -41 -23 -73.5t-53 -32.5q-25 0 -67 30q-32 21 -50 21q-16 0 -27 -15t-14 -39z" />
    <glyph glyph-name="B.sc" unicode="&#xe010;" horiz-adv-x="523" 
d="M101 476l5 13q13 0 55.5 -1.5t62.5 -1.5q27 0 72 1t77 1q86 0 113 -25t27 -72q0 -74 -80 -108q-38 -17 -112 -22l-1 -5q92 -6 129 -36q30 -24 30 -72q0 -39 -22 -72t-58 -52q-50 -27 -146 -27q-28 0 -82 2q-14 0 -40.5 0.5t-38.5 0.5q-16 0 -39.5 -0.5t-51 -2t-37.5 -1.5
l2 14q38 2 50 5.5t16 12.5q32 79 70 216q51 166 59 209q2 8 -0.5 12t-15.5 6.5t-44 4.5zM382 415v1q0 25 -8 38q-14 18 -45 18q-22 0 -28 -14q-3 -9 -57 -191q6 -2 25 -2q44 0 78.5 43t34.5 107zM337 177v1q0 31 -12 50q-16 24 -61 24q-20 0 -26 -2q-55 -193 -63 -224
q-2 -12 36 -12q54 0 90 49t36 114z" />
    <glyph glyph-name="B.swash" unicode="&#xe011;" horiz-adv-x="768" 
d="M121 9q50 4 69 9t25 19q57 148 175 562q5 18 -7 18q-9 3 -37 3q-78 0 -116 -21.5t-38 -74.5q0 -24 25 -51q12 -12 11 -30q1 -19 -14.5 -36.5t-44.5 -17.5q-28 0 -47 23.5t-19 61.5q0 79 63.5 121t186.5 42q12 0 49.5 -0.5t55.5 -0.5q27 0 75.5 1t79.5 1q84 0 124.5 -27.5
t40.5 -92.5q0 -104 -106 -146q-50 -19 -119 -25v-8q104 -13 148 -51q33 -27 33 -84q0 -55 -30.5 -102t-81.5 -73q-61 -32 -177 -32q-35 0 -92.5 2t-88.5 1q-74 0 -146 -3zM644 547v1q0 29 -10 45q-19 28 -68 28q-27 0 -32 -17q-9 -25 -23 -70l-31 -102.5t-24 -79.5
q8 -2 33 -2q68 0 111.5 57.5t43.5 139.5zM585 247v1q0 36 -14 57q-17 30 -83 30q-27 0 -39 -3q-67 -234 -83 -303q-2 -8 7.5 -12.5t34.5 -4.5q79 0 128 73.5t49 161.5z" />
    <glyph glyph-name="C.sc" unicode="&#xe012;" horiz-adv-x="503" 
d="M458 136h7q2 -24 3 -37q-24 -47 -84 -80.5t-137 -33.5q-95 0 -146 48.5t-51 140.5q0 76 33 147.5t90 119.5q77 60 182 60q102 0 140 -48l30 48l10 -4q-31 -81 -50 -188l-12 -2q8 80 -18 129q-23 46 -71 46q-51 0 -91 -48q-44 -56 -69.5 -138.5t-25.5 -158.5q0 -65 23 -96
q26 -32 70 -32q112 0 167 127z" />
    <glyph glyph-name="C.swash" unicode="&#xe013;" horiz-adv-x="577" 
d="M562 171l1 -46q-94 -142 -272 -142q-103 0 -163 57.5t-60 173.5q0 106 47 209t136 168q88 63 204 63q92 0 133 -36t41 -86q0 -39 -20 -60t-54 -21q-29 0 -40.5 18.5t-2.5 46.5q13 39 13 56q0 63 -66 63q-64 0 -119 -73q-118 -167 -118 -390q0 -61 26 -107q31 -50 99 -50
q73 0 122 37.5t87 118.5h6z" />
    <glyph glyph-name="Ccedilla.sc" unicode="&#xe014;" horiz-adv-x="503" 
d="M267 -14q-7 -8 -17.5 -21.5l-13.5 -17.5q61 -14 61 -66q0 -43 -29.5 -64t-69.5 -21q-31 0 -63 20l8 16q19 -14 49 -14q40 0 40 35q0 38 -60 40l-2 7q2 3 20.5 23l35 37.5t22.5 24.5h-8q-92 0 -141 47.5t-49 137.5q0 77 33.5 150t91.5 121q75 60 182 60q102 0 138 -47
l29 48l10 -5q-27 -72 -50 -187l-11 -2q7 80 -19 130q-24 45 -70 45q-49 0 -88 -49q-45 -57 -71.5 -139t-26.5 -158q0 -66 23 -97q26 -32 68 -32q111 0 165 127h8q5 -30 5 -38q-29 -51 -84.5 -79t-115.5 -32z" />
    <glyph glyph-name="Ccedilla.swash" unicode="&#xe015;" horiz-adv-x="577" 
d="M293 -147v1q0 38 -59 38l-2 7l76 84q-115 -3 -177.5 56t-62.5 175q0 106 47 209t136 168q88 63 204 63q92 0 133 -36t41 -86q0 -39 -20 -60t-54 -21q-29 0 -40.5 18.5t-2.5 46.5q13 39 13 56q0 63 -67 63q-64 0 -118 -73q-118 -167 -118 -390q0 -61 26 -107
q30 -50 98 -50q73 0 122.5 37.5t87.5 118.5h5l1 -46q-83 -127 -234 -141l-11.5 -14t-12.5 -14.5t-7 -8.5q61 -14 61 -66q0 -43 -29.5 -64t-69.5 -21q-30 0 -62 20l7 15q20 -13 49 -13q40 0 40 35z" />
    <glyph glyph-name="D.sc" unicode="&#xe016;" horiz-adv-x="571" 
d="M100 476l6 14q92 -4 114 -4q13 0 55 2q9 0 35 0.5t45 0.5q109 0 156 -42q49 -42 49 -136q-1 -91 -48 -173.5t-129 -116.5q-56 -24 -144 -24q-28 0 -75 2t-62 2q-25 0 -74 -2t-59 -2l3 14l37 4q13 2 18.5 6t10.5 16q20 54 63 201q48 164 60 214q4 18 -14 20zM344 473h-1
q-33 0 -37 -12q-11 -21 -66 -214q-58 -205 -59 -217q0 -9 7 -13t28 -4q39 0 70 18q56 32 95 138.5t40 196.5q0 56 -16 79q-21 28 -61 28z" />
    <glyph glyph-name="D.swash" unicode="&#xe017;" horiz-adv-x="835" 
d="M117 9l61 6q16 2 24.5 8t15.5 24q35 96 94 284t78 265q4 19 -6 20q-14 3 -36 3q-159 0 -159 -101q0 -25 22 -54q12 -15 11 -30q0 -19 -15.5 -36t-44.5 -17q-28 0 -46 21t-18 61q0 76 68.5 125t194.5 49q14 0 47.5 0.5t45.5 0.5q14 0 63 1t77 1q81 0 121 -13t72 -43
q60 -54 60 -165q0 -135 -64.5 -242t-177.5 -154q-66 -27 -173 -27q-21 0 -79 2q-56 2 -88 2q-45 0 -92 -1.5t-60 -1.5zM581 622h-1q-38 0 -43 -14q-22 -62 -84.5 -271.5t-82.5 -299.5q-3 -13 6.5 -19t36.5 -6q61 0 99 21q75 43 132 172.5t57 258.5q0 76 -24 111
q-33 47 -96 47z" />
    <glyph glyph-name="E.sc" unicode="&#xe018;" horiz-adv-x="481" 
d="M98 476l6 14q13 0 58 -2t66 -2h162q76 0 112 6q-12 -27 -49 -156l-13 -3q7 50 -1 88q-6 29 -25 38.5t-74 9.5h-18q-13 0 -17 -10q-11 -24 -59 -195q8 -1 34 -1q70 0 105 79h12q-46 -118 -61 -196h-12q2 23 3.5 45t-11.5 38t-41 16q-27 0 -36 -1l-18.5 -64.5l-22.5 -79.5
t-17 -65q-2 -11 4 -14.5t29 -3.5q54 0 83 6.5t52 25.5q64 55 95 113l10 -7l-29.5 -76.5t-33.5 -83.5q-100 5 -183 5h-116q-14 0 -68 -2q-52 -2 -65 -2l4 14l36 4q17 2 25 6t12 15q30 81 67 211q37 124 56 203q4 13 0 17.5t-16 5.5z" />
    <glyph glyph-name="E.swash" unicode="&#xe019;" horiz-adv-x="557" 
d="M450 362l-34 -23q-22 6 -51 6q-82 0 -118 -50t-36 -121q0 -69 36.5 -110t98.5 -41q42 0 74 12t52.5 34.5t32.5 45t23 54.5h8l2 -45q-30 -58 -97 -99t-171 -41q-92 0 -153 45t-61 135q0 64 35.5 108t88 63t117.5 21l1 4q-107 20 -107 126q0 69 56 119q57 49 156 49
q87 0 130 -33t43 -87q0 -27 -14.5 -48.5t-37.5 -26.5l-3 4q15 38 15 73q0 41 -21 68t-65 27q-58 0 -90.5 -54t-32.5 -120q0 -38 13 -60.5t31 -27.5q5 -1 76 3z" />
    <glyph glyph-name="Eacute.sc" unicode="&#xe01a;" horiz-adv-x="481" 
d="M98 476l6 14q13 0 58 -2t66 -2h162q76 0 112 6q-12 -27 -49 -156l-13 -3q7 50 -1 88q-6 29 -25 38.5t-74 9.5h-18q-13 0 -17 -10q-11 -24 -59 -195q8 -1 34 -1q70 0 105 79h12q-46 -118 -61 -196h-12q2 23 3.5 45t-11.5 38t-41 16q-27 0 -36 -1l-18.5 -64.5l-22.5 -79.5
t-17 -65q-2 -11 4 -14.5t29 -3.5q54 0 83 6.5t52 25.5q64 55 95 113l10 -7l-29.5 -76.5t-33.5 -83.5q-100 5 -183 5h-116q-14 0 -68 -2q-52 -2 -65 -2l4 14l36 4q17 2 25 6t12 15q30 81 67 211q37 124 56 203q4 13 0 17.5t-16 5.5zM309 542l-8 9q9 11 47.5 63.5t49.5 64.5
q30 34 54 34q31 0 31 -30q0 -31 -44 -59q-6 -4 -50 -31.5z" />
    <glyph glyph-name="Eacute.swash" unicode="&#xe01b;" horiz-adv-x="557" 
d="M450 362l-34 -23q-22 6 -51 6q-82 0 -118 -50t-36 -121q0 -69 36.5 -110t98.5 -41q42 0 74 12t52.5 34.5t32.5 45t23 54.5h8l2 -45q-30 -58 -97 -99t-171 -41q-92 0 -153 45t-61 135q0 64 35.5 108t88 63t117.5 21l1 4q-107 20 -107 126q0 69 56 119q57 49 156 49
q87 0 130 -33t43 -87q0 -27 -14.5 -48.5t-37.5 -26.5l-3 4q15 38 15 73q0 41 -21 68t-65 27q-58 0 -90.5 -54t-32.5 -120q0 -38 13 -60.5t31 -27.5q5 -1 76 3zM365 688l-7 9q11 8 63 51.5t70 56.5q31 23 61 12q24 -11 11 -43q-10 -22 -45 -34q-65 -24 -153 -52z" />
    <glyph glyph-name="Ecircumflex.sc" unicode="&#xe01c;" horiz-adv-x="481" 
d="M98 476l6 14q13 0 58 -2t66 -2h162q76 0 112 6q-12 -27 -49 -156l-13 -3q7 50 -1 88q-6 29 -25 38.5t-74 9.5h-18q-13 0 -17 -10q-11 -24 -59 -195q8 -1 34 -1q70 0 105 79h12q-46 -118 -61 -196h-12q2 23 3.5 45t-11.5 38t-41 16q-27 0 -36 -1l-18.5 -64.5l-22.5 -79.5
t-17 -65q-2 -11 4 -14.5t29 -3.5q54 0 83 6.5t52 25.5q64 55 95 113l10 -7l-29.5 -76.5t-33.5 -83.5q-100 5 -183 5h-116q-14 0 -68 -2q-52 -2 -65 -2l4 14l36 4q17 2 25 6t12 15q30 81 67 211q37 124 56 203q4 13 0 17.5t-16 5.5zM370 715l10 3q14 -82 72 -173l-8 -8
q-57 43 -91 80q-57 -44 -128 -80l-6 8q55 49 95 96t56 74z" />
    <glyph glyph-name="Ecircumflex.swash" unicode="&#xe01d;" horiz-adv-x="557" 
d="M450 362l-34 -23q-22 6 -51 6q-82 0 -118 -50t-36 -121q0 -69 36.5 -110t98.5 -41q42 0 74 12t52.5 34.5t32.5 45t23 54.5h8l2 -45q-30 -58 -97 -99t-171 -41q-92 0 -153 45t-61 135q0 64 35.5 108t88 63t117.5 21l1 4q-107 20 -107 126q0 69 56 119q57 49 156 49
q87 0 130 -33t43 -87q0 -27 -14.5 -48.5t-37.5 -26.5l-3 4q15 38 15 73q0 41 -21 68t-65 27q-58 0 -90.5 -54t-32.5 -120q0 -38 13 -60.5t31 -27.5q5 -1 76 3zM436 816l11 3q37 -67 102 -120l-7 -9q-66 21 -115 50q-57 -27 -137 -50l-5 9q105 62 151 117z" />
    <glyph glyph-name="Edieresis.sc" unicode="&#xe01e;" horiz-adv-x="481" 
d="M98 476l6 14q13 0 58 -2t66 -2h162q76 0 112 6q-12 -27 -49 -156l-13 -3q7 50 -1 88q-6 29 -25 38.5t-74 9.5h-18q-13 0 -17 -10q-11 -24 -59 -195q8 -1 34 -1q70 0 105 79h12q-46 -118 -61 -196h-12q2 23 3.5 45t-11.5 38t-41 16q-27 0 -36 -1l-18.5 -64.5l-22.5 -79.5
t-17 -65q-2 -11 4 -14.5t29 -3.5q54 0 83 6.5t52 25.5q64 55 95 113l10 -7l-29.5 -76.5t-33.5 -83.5q-100 5 -183 5h-116q-14 0 -68 -2q-52 -2 -65 -2l4 14l36 4q17 2 25 6t12 15q30 81 67 211q37 124 56 203q4 13 0 17.5t-16 5.5zM270 678h1q24 0 37 -16.5t10 -41.5
q-3 -29 -23 -46.5t-42 -17.5q-24 0 -38.5 14.5t-10.5 44.5q4 28 22 45.5t44 17.5zM447 678h1q24 0 37 -16.5t10 -41.5q-4 -29 -24 -46.5t-42 -17.5q-24 0 -38 14.5t-10 44.5q4 28 22 45.5t44 17.5z" />
    <glyph glyph-name="Edieresis.swash" unicode="&#xe01f;" horiz-adv-x="557" 
d="M450 362l-34 -23q-22 6 -51 6q-82 0 -118 -50t-36 -121q0 -69 36.5 -110t98.5 -41q42 0 74 12t52.5 34.5t32.5 45t23 54.5h8l2 -45q-30 -58 -97 -99t-171 -41q-92 0 -153 45t-61 135q0 64 35.5 108t88 63t117.5 21l1 4q-107 20 -107 126q0 69 56 119q57 49 156 49
q87 0 130 -33t43 -87q0 -27 -14.5 -48.5t-37.5 -26.5l-3 4q15 38 15 73q0 41 -21 68t-65 27q-58 0 -90.5 -54t-32.5 -120q0 -38 13 -60.5t31 -27.5q5 -1 76 3zM342 803h1q23 0 35.5 -15.5t10.5 -38.5q-3 -27 -22 -42.5t-40 -15.5q-20 0 -33.5 13.5t-10.5 39.5t19.5 42.5
t39.5 16.5zM530 803h1q23 0 35.5 -15.5t10.5 -38.5q-3 -26 -22.5 -42t-39.5 -16q-21 0 -34.5 13.5t-10.5 39.5t19.5 42.5t40.5 16.5z" />
    <glyph glyph-name="Egrave.sc" unicode="&#xe020;" horiz-adv-x="481" 
d="M98 476l6 14q13 0 58 -2t66 -2h162q76 0 112 6q-12 -27 -49 -156l-13 -3q7 50 -1 88q-6 29 -25 38.5t-74 9.5h-18q-13 0 -17 -10q-11 -24 -59 -195q8 -1 34 -1q70 0 105 79h12q-46 -118 -61 -196h-12q2 23 3.5 45t-11.5 38t-41 16q-27 0 -36 -1l-18.5 -64.5l-22.5 -79.5
t-17 -65q-2 -11 4 -14.5t29 -3.5q54 0 83 6.5t52 25.5q64 55 95 113l10 -7l-29.5 -76.5t-33.5 -83.5q-100 5 -183 5h-116q-14 0 -68 -2q-52 -2 -65 -2l4 14l36 4q17 2 25 6t12 15q30 81 67 211q37 124 56 203q4 13 0 17.5t-16 5.5zM363 543l-9 -6q-78 76 -95 97
q-24 30 -23 53q1 15 10 23.5t22 8.5q14 0 26.5 -11.5t18.5 -27.5q25 -60 50 -137z" />
    <glyph glyph-name="Egrave.swash" unicode="&#xe021;" horiz-adv-x="557" 
d="M450 362l-34 -23q-22 6 -51 6q-82 0 -118 -50t-36 -121q0 -69 36.5 -110t98.5 -41q42 0 74 12t52.5 34.5t32.5 45t23 54.5h8l2 -45q-30 -58 -97 -99t-171 -41q-92 0 -153 45t-61 135q0 64 35.5 108t88 63t117.5 21l1 4q-107 20 -107 126q0 69 56 119q57 49 156 49
q87 0 130 -33t43 -87q0 -27 -14.5 -48.5t-37.5 -26.5l-3 4q15 38 15 73q0 41 -21 68t-65 27q-58 0 -90.5 -54t-32.5 -120q0 -38 13 -60.5t31 -27.5q5 -1 76 3zM466 696l-6 -9q-26 10 -63 23l-62.5 22.5t-31.5 11.5q-26 12 -32 31q-13 37 17 46q26 11 54 -11q8 -6 61.5 -56z
" />
    <glyph glyph-name="Eth.sc" unicode="&#xe022;" horiz-adv-x="583" 
d="M45 249l9 22q7 0 29.5 -0.5t39.5 -0.5q23 76 48 182q4 15 -13 18l-48 6l7 14q96 -4 108 -4q14 0 56 2q9 0 35 0.5t43 0.5q117 0 163 -41q50 -43 50 -136q0 -90 -48.5 -175t-129.5 -118q-55 -22 -140 -22q-35 0 -87 1.5t-67 1.5q-22 0 -65.5 -1.5t-54.5 -1.5l6 14l33 4
q22 3 30 22q28 75 68 214q-28 0 -72 -2zM350 271l-9 -23q-12 0 -88 2q-54 -191 -60 -220q-2 -17 28 -17q46 0 73 15q59 33 99 142.5t40 195.5q0 56 -16 79q-19 28 -67 28q-31 0 -35 -13q-5 -15 -12 -38.5l-19.5 -68.5t-24.5 -84q35 0 91 2z" />
    <glyph glyph-name="Eth.swash" unicode="&#xe023;" horiz-adv-x="836" 
d="M457 347q11 0 63.5 1t71.5 2l-13 -24q-4 0 -128 2q-60 -201 -80 -292q-3 -13 6 -19t37 -6q59 0 97 22q75 43 133 172.5t58 258.5q0 76 -24 111q-33 47 -92 47q-43 0 -48 -14zM218 324l10 24q50 0 90 -1q52 167 73 248q4 20 -4 21q-15 3 -40 3q-157 0 -157 -101
q0 -30 22 -54q12 -11 12 -31q0 -19 -16.5 -35.5t-45.5 -16.5q-8 0 -17.5 3t-20.5 11t-18 25.5t-7 41.5q0 77 66.5 125.5t188.5 49.5h24.5h41h35.5q7 0 55 1.5t77 1.5q82 0 125.5 -13.5t74.5 -42.5q60 -54 60 -165q0 -137 -63.5 -243t-177.5 -153q-66 -27 -173 -27
q-21 0 -79 2q-56 2 -88 2q-45 0 -92.5 -1.5t-60.5 -1.5l5 12l62 6q16 2 24.5 8t14.5 24q35 95 93 281q-62 0 -94 -4z" />
    <glyph glyph-name="Euro.fitted" unicode="&#xe024;" horiz-adv-x="494" 
d="M33 269l13 22h50q1 4 4.5 22t6.5 27h-40l13 22h33q41 120 116 195t186 75q80 0 105 -40l25 40l9 -4q-35 -101 -51 -178l-12 -3q5 40 4 77.5t-19 64.5t-50 27q-34 0 -65 -26t-54 -69t-37.5 -80.5t-26.5 -78.5h207l-13 -22h-200l-11 -49h183l-12 -22h-175q-9 -45 -9 -103
q0 -144 92 -144q47 0 83 25.5t69 84.5l10 -11q-40 -73 -89 -104t-126 -31q-86 0 -127 54.5t-41 139.5q0 41 8 89h-59z" />
    <glyph glyph-name="Euro.oldstyle" unicode="&#xe025;" horiz-adv-x="489" 
d="M236 305q26 0 96.5 0.5t91.5 0.5l-12 -22q-10 0 -89 1t-92 1q-5 -20 -9 -48q10 0 81.5 0.5t83.5 0.5l-12 -22q-8 0 -74.5 1t-81.5 1q-5 -25 -5 -67q0 -54 20.5 -90t67.5 -36q87 0 139 96l10 -10q-37 -68 -86 -96.5t-126 -28.5q-81 0 -119.5 49t-39.5 131q0 37 4 52h-57
l13 19h47q8 40 11 48h-38l12 19h32q34 98 102 157t170 59q57 0 92 -25t35 -66q0 -27 -15.5 -42.5t-37.5 -15.5q-27 0 -36 13q-10 13 -3 32q8 21 8 44q0 44 -41 44q-87 0 -142 -200z" />
    <glyph glyph-name="F.sc" unicode="&#xe026;" horiz-adv-x="443" 
d="M101 476l5 14q8 0 60 -2t80 -2h116q90 0 141 7q-32 -82 -52 -164h-13q10 61 0 101q-5 23 -24.5 31.5t-72.5 8.5h-22q-12 0 -16 -11q-15 -40 -62 -207q7 -2 42 -2q40 0 64 14.5t44 59.5l11 -1q-29 -70 -55 -193h-12q8 53 -3 77.5t-59 24.5q-23 0 -39 -2q-49 -175 -53 -194
q-3 -18 13 -20q3 0 15 -1.5l24 -3t21 -1.5l-6 -14q-13 0 -71.5 2t-85.5 2q-25 0 -69 -2t-55 -2l3 14l39 4q19 3 26 18q20 54 70 218q48 167 54 202q3 11 0 15t-12 5z" />
    <glyph glyph-name="F.swash" unicode="&#xe027;" horiz-adv-x="672" 
d="M127 9l49 5q27 3 39 36q110 309 172 558q2 11 -10 13q-40 4 -53 4q-68 0 -98.5 -18t-30.5 -64q0 -31 19 -52q13 -14 13 -33q0 -20 -14.5 -37.5t-44.5 -17.5q-22 0 -42.5 19t-20.5 65q0 64 52 110t167 47q69 0 138 -3q138 -3 142 -3q133 0 171 16q-34 -73 -72 -207l-12 -2
q11 69 4 123q-5 34 -32 45.5t-83 8.5l-26 -1q-18 0 -24 -15q-23 -62 -86 -280q161 0 216 22l2 -6l-41 -52q-102 10 -183 16q-58 -197 -70 -260q-7 -26 19 -29q42 -7 68 -7l-4 -14q-15 0 -77 2t-92 2q-73 0 -161 -4z" />
    <glyph glyph-name="G.sc" unicode="&#xe028;" horiz-adv-x="559" 
d="M500 302h-13q14 86 -13 134t-78 48q-53 0 -91 -41q-52 -54 -81 -142t-29 -173q0 -72 25 -102q18 -25 48 -25q34 0 47 34q20 53 37 129q8 30 3.5 40t-26.5 12l-39 4l9 13q96 -4 129 -4q19 0 115 4l-1 -13q-26 -2 -34.5 -6.5t-12.5 -17.5q-12 -36 -30 -108q-9 -35 -13 -71
q-7 -1 -37.5 -8t-47.5 -10q-68 -14 -113 -14q-97 0 -150 49.5t-53 144.5q0 91 47 173t129 121q61 28 142 28q60 0 97.5 -17t50.5 -35l33 51l9 -8q-34 -71 -59 -190z" />
    <glyph glyph-name="G.swash" unicode="&#xe029;" horiz-adv-x="621" 
d="M589 358h1q27 0 27 -27q-4 -57 -48 -117q-10 -29 -31 -106.5t-28 -99.5q-53 -158 -178 -226q-67 -40 -134 -40q-57 0 -81 41t-16 88l7 4q7 -34 48 -69.5t93 -35.5q42 0 67 27t45 99q17 57 47 213q-74 -81 -185 -81q-69 0 -111 49.5t-42 142.5q0 116 54.5 219.5
t151.5 164.5q79 50 188 50q51 0 87.5 -12t55.5 -31.5t27 -40.5t8 -43q0 -43 -21 -63.5t-50 -20.5q-33 0 -44.5 22t1.5 48q14 28 14 51q0 37 -17.5 54.5t-57.5 17.5q-64 0 -127 -76q-55 -64 -87 -159.5t-32 -182.5q0 -141 86 -141q37 0 61.5 20t44.5 61q2 5 9 29t8 27
q23 71 66.5 107.5t92.5 36.5z" />
    <glyph glyph-name="H.sc" unicode="&#xe02a;" horiz-adv-x="584" 
d="M107 476l6 14q14 0 54.5 -2t63.5 -2q15 0 131 4l-5 -14q-29 -1 -39 -7t-16 -23q-9 -21 -18.5 -53l-21.5 -74.5t-16 -54.5q17 -1 78 -1q57 0 67 1q40 137 51 188q2 13 -6 18t-37 6l8 14q9 0 52.5 -2t68.5 -2q24 0 70 2t47 2l-5 -14q-30 -1 -40.5 -7t-17.5 -25
q-23 -66 -63 -206q-46 -162 -52 -204q-2 -12 7.5 -16.5t47.5 -6.5l-5 -14q-22 0 -66 1.5t-64 1.5q-23 0 -62.5 -1.5t-59.5 -1.5l3 14q34 4 43 9.5t17 28.5q11 32 23 73l22 77.5t12 44.5q-13 1 -69 1q-59 0 -77 -1q-52 -182 -58 -208q-3 -13 4.5 -18t37.5 -7l-4 -14
q-13 0 -57 1.5t-77 1.5q-21 0 -63.5 -1.5t-53.5 -1.5l3 14q33 1 46 6.5t20 20.5q18 41 67 209q47 159 56 201q3 16 -6.5 21.5t-46.5 6.5z" />
    <glyph glyph-name="H.swash" unicode="&#xe02b;" horiz-adv-x="674" 
d="M-25 9q37 2 52 8t22 26q30 75 90 283q71 237 78 270q4 18 -8.5 24t-58.5 8l6 13q10 0 59 -2t78 -2q24 0 75.5 2t71.5 2l-4 -13q-40 -2 -54 -9t-22 -29q-34 -95 -76 -249q28 -2 92 -2t112 2l47 155q61 201 236 198q11 2 33 -4l4 -16q-14 6 -32 6q-57 0 -100 -161
q-97 -345 -125 -477q-4 -18 8.5 -23.5t63.5 -9.5l-6 -13q-15 0 -68 2t-87 2q-38 0 -86 -2t-57 -2l4 13q42 4 56 10.5t22 29.5q9 28 80 270q-38 2 -109 2q-66 0 -96 -2q-58 -197 -75 -278q-4 -19 7 -24t56 -8l-4 -13q-18 0 -76.5 2t-75.5 2q-26 0 -75 -2t-63 -2z" />
    <glyph glyph-name="I.sc" unicode="&#xe02c;" horiz-adv-x="302" 
d="M108 476l6 14q14 0 58 -2t67 -2q38 0 79 2t49 2l-4 -14q-33 -1 -43.5 -6t-16.5 -20q-12 -29 -65 -210q-53 -184 -56 -205q-2 -14 7 -18t49 -7l-6 -14q-10 0 -55.5 2t-78.5 2q-27 0 -73.5 -2t-56.5 -2l4 14q35 2 46.5 7t17.5 18q8 17 67 210q47 151 57 206q2 15 -5.5 19
t-46.5 6z" />
    <glyph glyph-name="I.swash" unicode="&#xe02d;" horiz-adv-x="330" 
d="M150 628l6 13q17 0 64 -2t75 -2q41 0 92 2t54 2l-5 -13l-37 -4q-16 -2 -23.5 -8.5t-14.5 -26.5q-14 -36 -84 -268q-67 -228 -77 -278q-3 -17 1.5 -22.5t19.5 -7.5l48 -4l-7 -13q-9 0 -65 2t-90 2q-43 0 -90.5 -2t-50.5 -2l5 13l42 4q13 2 20.5 8.5t15.5 25.5
q16 39 88 277q57 184 77 264q5 19 1.5 27t-19.5 9z" />
    <glyph glyph-name="Iacute.sc" unicode="&#xe02e;" horiz-adv-x="302" 
d="M108 476l6 14q14 0 58 -2t67 -2q38 0 79 2t49 2l-4 -14q-33 -1 -43.5 -6t-16.5 -20q-12 -29 -65 -210q-53 -184 -56 -205q-2 -14 7 -18t49 -7l-6 -14q-10 0 -55.5 2t-78.5 2q-27 0 -73.5 -2t-56.5 -2l4 14q35 2 46.5 7t17.5 18q8 17 67 210q47 151 57 206q2 15 -5.5 19
t-46.5 6zM229 542l-8 9q9 11 47.5 63.5t49.5 64.5q30 34 54 34q31 0 31 -30q0 -31 -44 -59q-6 -4 -50 -31.5z" />
    <glyph glyph-name="Iacute.swash" unicode="&#xe02f;" horiz-adv-x="330" 
d="M150 628l6 13q17 0 64 -2t75 -2q41 0 92 2t54 2l-5 -13l-37 -4q-16 -2 -23.5 -8.5t-14.5 -26.5q-14 -36 -84 -268q-67 -228 -77 -278q-3 -17 1.5 -22.5t19.5 -7.5l48 -4l-7 -13q-9 0 -65 2t-90 2q-43 0 -90.5 -2t-50.5 -2l5 13l42 4q13 2 20.5 8.5t15.5 25.5
q16 39 88 277q57 184 77 264q5 19 1.5 27t-19.5 9zM252 687l-7 9q11 8 63 51.5t70 56.5q31 23 61 12q24 -11 11 -43q-10 -22 -45 -34q-65 -24 -153 -52z" />
    <glyph glyph-name="Icircumflex.sc" unicode="&#xe030;" horiz-adv-x="302" 
d="M108 476l6 14q14 0 58 -2t67 -2q38 0 79 2t49 2l-4 -14q-33 -1 -43.5 -6t-16.5 -20q-12 -29 -65 -210q-53 -184 -56 -205q-2 -14 7 -18t49 -7l-6 -14q-10 0 -55.5 2t-78.5 2q-27 0 -73.5 -2t-56.5 -2l4 14q35 2 46.5 7t17.5 18q8 17 67 210q47 151 57 206q2 15 -5.5 19
t-46.5 6zM284 715l10 3q14 -82 72 -173l-8 -8q-57 43 -91 80q-57 -44 -128 -80l-6 8q55 49 95 96t56 74z" />
    <glyph glyph-name="Icircumflex.swash" unicode="&#xe031;" horiz-adv-x="330" 
d="M150 628l6 13q17 0 64 -2t75 -2q41 0 92 2t54 2l-5 -13l-37 -4q-16 -2 -23.5 -8.5t-14.5 -26.5q-14 -36 -84 -268q-67 -228 -77 -278q-3 -17 1.5 -22.5t19.5 -7.5l48 -4l-7 -13q-9 0 -65 2t-90 2q-43 0 -90.5 -2t-50.5 -2l5 13l42 4q13 2 20.5 8.5t15.5 25.5
q16 39 88 277q57 184 77 264q5 19 1.5 27t-19.5 9zM334 811l11 3q37 -67 102 -120l-7 -9q-66 21 -115 50q-57 -27 -137 -50l-5 9q105 62 151 117z" />
    <glyph glyph-name="Idieresis.sc" unicode="&#xe032;" horiz-adv-x="302" 
d="M108 476l6 14q14 0 58 -2t67 -2q38 0 79 2t49 2l-4 -14q-33 -1 -43.5 -6t-16.5 -20q-12 -29 -65 -210q-53 -184 -56 -205q-2 -14 7 -18t49 -7l-6 -14q-10 0 -55.5 2t-78.5 2q-27 0 -73.5 -2t-56.5 -2l4 14q35 2 46.5 7t17.5 18q8 17 67 210q47 151 57 206q2 15 -5.5 19
t-46.5 6zM185 678h1q24 0 37 -16.5t10 -41.5q-3 -29 -23 -46.5t-42 -17.5q-24 0 -38.5 14.5t-10.5 44.5q4 28 22 45.5t44 17.5zM362 678h1q24 0 37 -16.5t10 -41.5q-4 -29 -24 -46.5t-42 -17.5q-24 0 -38 14.5t-10 44.5q4 28 22 45.5t44 17.5z" />
    <glyph glyph-name="Idieresis.swash" unicode="&#xe033;" horiz-adv-x="330" 
d="M150 628l6 13q17 0 64 -2t75 -2q41 0 92 2t54 2l-5 -13l-37 -4q-16 -2 -23.5 -8.5t-14.5 -26.5q-14 -36 -84 -268q-67 -228 -77 -278q-3 -17 1.5 -22.5t19.5 -7.5l48 -4l-7 -13q-9 0 -65 2t-90 2q-43 0 -90.5 -2t-50.5 -2l5 13l42 4q13 2 20.5 8.5t15.5 25.5
q16 39 88 277q57 184 77 264q5 19 1.5 27t-19.5 9zM240 801h1q23 0 35.5 -15.5t10.5 -38.5q-3 -27 -22 -42.5t-40 -15.5q-20 0 -33.5 13.5t-10.5 39.5t19.5 42.5t39.5 16.5zM428 801h1q23 0 35.5 -15.5t10.5 -38.5q-3 -26 -22.5 -42t-39.5 -16q-21 0 -34.5 13.5t-10.5 39.5
t19.5 42.5t40.5 16.5z" />
    <glyph glyph-name="Igrave.sc" unicode="&#xe034;" horiz-adv-x="302" 
d="M108 476l6 14q14 0 58 -2t67 -2q38 0 79 2t49 2l-4 -14q-33 -1 -43.5 -6t-16.5 -20q-12 -29 -65 -210q-53 -184 -56 -205q-2 -14 7 -18t49 -7l-6 -14q-10 0 -55.5 2t-78.5 2q-27 0 -73.5 -2t-56.5 -2l4 14q35 2 46.5 7t17.5 18q8 17 67 210q47 151 57 206q2 15 -5.5 19
t-46.5 6zM279 543l-9 -6q-78 76 -95 97q-24 30 -23 53q1 15 10 23.5t22 8.5q14 0 26.5 -11.5t18.5 -27.5q26 -60 50 -137z" />
    <glyph glyph-name="Igrave.swash" unicode="&#xe035;" horiz-adv-x="330" 
d="M150 628l6 13q17 0 64 -2t75 -2q41 0 92 2t54 2l-5 -13l-37 -4q-16 -2 -23.5 -8.5t-14.5 -26.5q-14 -36 -84 -268q-67 -228 -77 -278q-3 -17 1.5 -22.5t19.5 -7.5l48 -4l-7 -13q-9 0 -65 2t-90 2q-43 0 -90.5 -2t-50.5 -2l5 13l42 4q13 2 20.5 8.5t15.5 25.5
q16 39 88 277q57 184 77 264q5 19 1.5 27t-19.5 9zM373 689l-6 -9q-26 10 -63 23l-62.5 22.5t-31.5 11.5q-26 12 -32 31q-13 37 17 46q26 11 54 -11q8 -6 61.5 -56z" />
    <glyph glyph-name="J.sc" unicode="&#xe036;" horiz-adv-x="293" 
d="M100 476l9 14q10 0 34 -1.5t47 -2t43 -0.5q33 0 133 4l-5 -14l-20 -2q-21 -1 -27.5 -6.5t-10.5 -17.5q-15 -41 -78 -271q-9 -35 -40 -132q-20 -59 -55 -94q-63 -63 -161 -63q-32 0 -48 8l-8 23l3 3q21 -16 56 -16q23 0 35 29q24 54 75 231q58 201 77 283q4 19 -14 21
q-32 4 -45 4z" />
    <glyph glyph-name="J.swash" unicode="&#xe037;" horiz-adv-x="444" 
d="M308 610h-1q-64 0 -90 -19t-26 -63q0 -29 19 -51q12 -15 12 -32q-1 -21 -18 -36t-44 -15q-21 0 -39.5 18.5t-18.5 56.5q1 75 74 123t186 48h63q13 0 20 6q54 45 98 45q25 0 25 -19q0 -37 -60 -55q-3 -1 -9 -4t-11 -5q-19 -13 -38 -97q-89 -372 -126 -495
q-26 -85 -85.5 -139.5t-126.5 -78.5q-53 -19 -95 -19q-45 0 -71 26t-27 73q0 17 4 33l6 4q22 -54 58.5 -82.5t67.5 -28.5q34 0 56 27.5t47 108.5q8 26 112 399q45 162 118 251q11 12 0 15q-35 5 -80 5z" />
    <glyph glyph-name="K.sc" unicode="&#xe038;" horiz-adv-x="544" 
d="M106 476l6 14q84 -4 126 -4q32 0 75 2t48 2l-3 -14q-33 -2 -43 -6.5t-14 -18.5q-13 -35 -59 -193q71 29 139.5 90t100.5 103q13 16 -3 18l-59 6l10 14q10 0 43 -1.5t50 -1.5q60 0 97 4l-2 -14q-65 -6 -89 -23q-15 -11 -42.5 -34.5l-62.5 -54.5l-54 -47q15 -64 47.5 -161
t47.5 -126q6 -10 15.5 -13.5t43.5 -5.5l-8 -13q-131 4 -199 -6q-1 13 -27.5 104.5t-33.5 120.5q-5 15 -9 22t-9 6q-48 -168 -57 -210q-3 -13 5.5 -17t44.5 -8l-5 -14q-9 0 -51.5 2t-73.5 2q-23 0 -72 -2t-59 -2l5 14q36 4 46.5 8.5t14.5 15.5q16 38 66 207q39 133 57 210
q3 14 -6.5 18.5t-46.5 6.5z" />
    <glyph glyph-name="K.swash" unicode="&#xe039;" horiz-adv-x="810" 
d="M125 10l51 4q16 1 24.5 10t16.5 29q81 231 166 542q7 21 -7 24q-16 2 -36 2q-76 0 -110 -22.5t-34 -74.5q0 -29 23 -54q12 -13 12 -31q1 -19 -15 -37t-47 -18q-20 0 -42.5 22t-22.5 68q0 75 60.5 120t175.5 45q18 0 53.5 -0.5t54.5 -0.5q73 0 98 15l3 -5
q-24 -46 -98 -294q51 4 86 40q63 66 132 164q74 96 133 96q52 0 52 -48q0 -31 -30 -49q-13 -7 -22 1q-19 19 -42 19q-56 0 -136 -113q-57 -74 -93 -100q39 -8 70.5 -40t43.5 -94q2 -10 9.5 -51.5t12.5 -65.5q7 -41 16.5 -56.5t23.5 -15.5q43 0 81 89l12 -9
q-56 -140 -179 -140q-42 0 -69.5 28.5t-37.5 109.5q-13 122 -16 155q-7 62 -34 62q-16 0 -27 -26q-68 -232 -74 -276q-2 -19 18 -20l58 -4l-9 -14q-11 0 -69.5 2t-91.5 2q-30 0 -79.5 -2t-70.5 -2z" />
    <glyph glyph-name="L.sc" unicode="&#xe03a;" horiz-adv-x="445" 
d="M411 166l10 -6q-7 -13 -18.5 -43.5l-26 -68.5l-20.5 -54q-31 6 -252 6q-33 0 -85 -2q-54 -2 -56 -2l4 14l39 4q22 3 29 20q15 35 68 215q47 162 55 204q4 18 -15 19l-40 4l5 14q11 0 53.5 -2t72.5 -2q31 0 78.5 2t59.5 2l-4 -14l-41 -5q-19 -3 -28 -26q-4 -9 -62 -201
q-55 -193 -58 -215q-2 -6 2.5 -9.5t15.5 -3.5q83 0 123 33q55 46 91 117z" />
    <glyph glyph-name="L.swash" unicode="&#xe03b;" horiz-adv-x="568" 
d="M116 87q65 9 118 8q44 0 110.5 -3t76.5 -3q59 0 79 11t20 46q0 16 -3 29q-2 11 3 19q23 34 34 34q9 0 9 -22q-1 -44 -40.5 -106.5t-80.5 -91.5q-43 -30 -94 -30q-61 0 -152.5 11.5t-125.5 11.5q-50 0 -72 -11l-6 8l47 72q24 8 35 13.5t26 20t25 41.5t19 70
q4 17 16.5 88.5t19.5 106.5q21 113 92 178.5t171 65.5q68 0 95.5 -28t27.5 -66q0 -37 -19 -62.5t-53 -35.5l-4 6q26 37 26 90q0 34 -17 56.5t-48 22.5q-15 0 -27 -4t-23 -15.5t-19 -23t-17.5 -35.5t-15.5 -43t-15.5 -56l-16 -63.5t-17.5 -76.5q-21 -94 -67 -148.5
t-117 -84.5z" />
    <glyph glyph-name="Lslash.sc" unicode="&#xe03c;" horiz-adv-x="456" 
d="M113 476l5 14q12 0 56 -2t73 -2q32 0 83 2t54 2l-4 -14l-44 -5q-17 -1 -26 -26q-10 -28 -50 -162l41 21t38 20l15 -16q-11 -4 -50 -23.5t-50 -24.5q-60 -209 -63 -229q-2 -6 2.5 -10t17.5 -4q83 0 124 33q47 39 88 117l10 -6q-9 -20 -33.5 -85t-31.5 -81q-31 5 -253 5
q-66 0 -142 -4l5 14l40 5q21 3 28 19q11 27 52 162q-39 -18 -61 -29l-14 15l82 37q51 175 63 235q4 17 -15 18z" />
    <glyph glyph-name="Lslash.swash" unicode="&#xe03d;" horiz-adv-x="574" 
d="M73 253l-16 17q59 21 108 36q5 31 19 104q22 113 93 178.5t171 65.5q68 0 95.5 -28t27.5 -65t-19.5 -63.5t-52.5 -35.5l-5 6q27 39 27 90q0 34 -17 56t-49 22q-22 0 -39 -11.5t-30 -30t-25.5 -57.5t-22 -76.5t-24.5 -103.5q99 34 126 45l20 -17q-83 -30 -152 -52
q-19 -95 -61 -152t-126 -93q56 8 118 8q43 -1 109 -3.5t78 -2.5q55 0 77.5 11t22.5 47q0 16 -3 28q-2 11 3 19q19 33 33 33q9 0 9 -22q-1 -43 -39 -104.5t-82 -93.5q-43 -30 -94 -30q-64 0 -155 12t-121 12q-50 0 -74 -12l-6 8l47 73q21 7 37.5 16.5t27.5 24.5t18.5 27.5
t13 34t8 34t6.5 39t6 37.5q-46 -15 -88 -31z" />
    <glyph glyph-name="M.sc" unicode="&#xe03e;" horiz-adv-x="668" 
d="M278 8l-71 -12q-1 90 -14 445h-2q-70 -212 -110 -363q-10 -36 -6.5 -49t28.5 -15l41 -4l-5 -14q-12 0 -48 2t-55 2q-22 0 -82 -4l4 14q6 0 33 5q19 4 30.5 16t24.5 45q52 127 131 376q7 17 -18 20l-47 5l7 13q88 -4 116 -4q46 0 82 4q1 -33 22 -321q83 132 183 321
q15 -4 76 -4q2 0 118 4l-4 -13q-9 -1 -24.5 -4t-20.5 -3q-12 0 -18 -17q-4 -11 -26 -101q-68 -298 -70 -315q-1 -13 2 -17t15 -6l37 -4l-5 -14q-64 4 -124 4q-52 0 -138 -4l5 14q35 4 44.5 8.5t14.5 20.5q8 19 118 414h-1q-65 -111 -149.5 -270t-93.5 -175z" />
    <glyph glyph-name="M.swash" unicode="&#xe03f;" horiz-adv-x="830" 
d="M775 9l-8 -13q-84 4 -149 4q-29 0 -82 -2t-66 -2l4 13q43 5 55.5 11t19.5 28q28 81 80 250.5t77 243.5h-2q-42 -50 -132 -205.5t-175 -320.5q-57 -8 -104 -30q6 71 12.5 239.5t17.5 298.5h-1q-22 -53 -102 -314q-45 -144 -83 -192t-95 -48q-26 0 -46 21t-20 50
q0 40 21 59.5t44 19.5q27 0 34 -17q1 -2 4 -6.5t4.5 -6.5l4 -5.5t4 -5t4 -3.5t4 -3t4 -2t5.5 -1q35 0 65 94l86 246q2 5 11 33t12 36l12.5 33t16 34.5t18.5 29t24 29l28 22t35.5 19.5t42.5 11l3 -4q-14 -41 -21 -169q-3 -62 1 -179.5t2 -145.5q103 183 172 290q4 5 17 25.5
l19 30t19.5 27.5t24 29.5t25.5 25.5t30 24q54 35 116 46l3 -5q-33 -47 -68 -184q-78 -303 -97 -415q-4 -28 5.5 -33.5t63.5 -10.5z" />
    <glyph glyph-name="N.sc" unicode="&#xe040;" horiz-adv-x="533" 
d="M426 123q69 252 78 315q1 18 -8.5 26t-31.5 10l-34 2l8 14q26 0 55.5 -2t39.5 -2t41 2t41 2l-5 -14q-5 -1 -16 -2.5t-16 -2.5q-28 -4 -38 -29q-14 -35 -54 -175t-71 -268q-64 0 -96 -9q-20 59 -78 219l-72 199l-34.5 -131l-28 -107l-16.5 -67.5t-10 -51.5q-4 -31 19 -34
q33 -5 61 -7l-6 -14q-15 0 -50.5 2t-52.5 2q-16 0 -47.5 -2t-43.5 -2l4 14q10 0 34 4q31 4 47 46q23 55 114 374q-8 34 -26 36l-45 6l6 14q4 0 41.5 -2t67.5 -2q52 0 82 4q17 -51 39.5 -110l57.5 -146t44 -111z" />
    <glyph glyph-name="N.swash" unicode="&#xe041;" horiz-adv-x="753" 
d="M886 660q-84 -23 -138 -191q-6 -17 -27 -92q-48 -172 -93 -369q-14 -1 -48 -10t-51 -17q-18 78 -81.5 288t-73.5 249q-7 -20 -19 -70.5l-28 -121.5l-23 -102q-35 -144 -72.5 -195.5t-96.5 -51.5q-30 0 -51.5 20t-21.5 53q0 35 21 56t48 21q26 0 36 -22q15 -29 33 -29
q17 0 33 24t37 90.5t45 178.5q3 16 10 49.5l11.5 55.5t11 48.5t13 44.5t12.5 27q8 11 -2 13q-45 5 -49 5q-70 0 -101.5 -19t-31.5 -73q0 -26 24 -52q12 -11 12 -31q0 -22 -16 -40t-46 -18q-21 0 -41.5 19t-20.5 64q0 79 69.5 126.5t178.5 47.5h50q32 0 76 27
q9 -59 86.5 -282.5l79.5 -229.5q49 194 57 231q36 157 78 224t109 67z" />
    <glyph glyph-name="Ntilde.sc" unicode="&#xe042;" horiz-adv-x="533" 
d="M426 123q69 252 78 315q1 18 -8.5 26t-31.5 10l-34 2l8 14q26 0 55.5 -2t39.5 -2t41 2t41 2l-5 -14q-5 -1 -16 -2.5t-16 -2.5q-28 -4 -38 -29q-14 -35 -54 -175t-71 -268q-64 0 -96 -9q-20 59 -78 219l-72 199l-34.5 -131l-28 -107l-16.5 -67.5t-10 -51.5q-4 -31 19 -34
q33 -5 61 -7l-6 -14q-15 0 -50.5 2t-52.5 2q-16 0 -47.5 -2t-43.5 -2l4 14q10 0 34 4q31 4 47 46q23 55 114 374q-8 34 -26 36l-45 6l6 14q4 0 41.5 -2t67.5 -2q52 0 82 4q17 -51 39.5 -110l57.5 -146t44 -111zM271 554l-15 4q14 108 80 108q22 0 68 -29q38 -24 55 -24
q29 0 38 56l14 -5q-14 -108 -78 -108q-21 0 -70 30q-37 23 -50 23q-33 0 -42 -55z" />
    <glyph glyph-name="Ntilde.swash" unicode="&#xe043;" horiz-adv-x="753" 
d="M886 660q-84 -23 -138 -191q-6 -17 -27 -92q-48 -172 -93 -369q-14 -1 -48 -10t-51 -17q-18 78 -81.5 288t-73.5 249q-7 -20 -19 -70.5l-28 -121.5l-23 -102q-35 -144 -72.5 -195.5t-96.5 -51.5q-30 0 -51.5 20t-21.5 53q0 35 21 56t48 21q26 0 36 -22q15 -29 33 -29
q17 0 33 24t37 90.5t45 178.5q3 16 10 49.5l11.5 55.5t11 48.5t13 44.5t12.5 27q8 11 -2 13q-45 5 -49 5q-70 0 -101.5 -19t-31.5 -73q0 -26 24 -52q12 -11 12 -31q0 -22 -16 -40t-46 -18q-21 0 -41.5 19t-20.5 64q0 79 69.5 126.5t178.5 47.5h50q32 0 76 27
q9 -59 86.5 -282.5l79.5 -229.5q49 194 57 231q36 157 78 224t109 67zM513 689l-14 4q6 41 25 73t54 32q25 0 66 -28q32 -24 53 -24q13 0 23.5 15.5t12.5 41.5l14 -5q-5 -41 -23 -73.5t-53 -32.5q-25 0 -67 30q-31 21 -50 21q-16 0 -27 -15t-14 -39z" />
    <glyph glyph-name="O.sc" unicode="&#xe044;" horiz-adv-x="563" 
d="M352 496h1q97 0 148 -48t51 -140q0 -59 -26 -129.5t-66 -109.5q-45 -45 -95.5 -64.5t-120.5 -19.5q-92 0 -144.5 45.5t-52.5 136.5q0 77 37 156t98 121q74 52 170 52zM365 480h-2q-40 0 -73 -42q-40 -51 -74 -166t-34 -189q0 -82 60 -82q46 0 77 44q38 55 69.5 161.5
t33.5 179.5q3 94 -57 94z" />
    <glyph glyph-name="O.swash" unicode="&#xe045;" horiz-adv-x="667" 
d="M448 653h1q112 0 172 -60.5t60 -168.5q0 -84 -32 -176t-87 -153q-100 -112 -262 -112q-111 0 -172.5 56.5t-61.5 166.5q0 106 50 214.5t132 169.5q85 63 200 63zM457 639h-1q-53 0 -100 -60q-58 -77 -102 -222t-43 -245q0 -114 83 -114q61 0 108 68q57 87 96 221t39 241
q0 111 -80 111z" />
    <glyph glyph-name="OE.sc" unicode="&#xe046;" horiz-adv-x="801" 
d="M572 484h141q75 0 110 7q-15 -31 -46 -153l-12 -4q6 53 -3 90q-7 26 -24.5 34.5t-64.5 9.5h-26q-13 0 -17 -11q-18 -43 -62 -201h41q70 0 103 78h12q-42 -109 -60 -196l-12 1q18 99 -52 99q-28 0 -39 -1l-23 -90t-28 -112q-2 -11 3.5 -14.5t28.5 -3.5q54 0 84.5 7
t56.5 27q52 40 87 110l9 -7q-4 -12 -17 -44.5l-28 -70.5t-18 -45q-19 2 -69 4q-56 2 -104 2h-96q-57 0 -80 -2q1 5 3.5 12t7 21.5l8.5 28.5q-65 -75 -162 -75q-86 0 -132.5 43.5t-46.5 129.5q0 82 39.5 166.5t103.5 129.5q67 47 155 47q104 0 139 -77q12 44 15 63
q22 -3 75 -3zM182 98v-1q0 -92 67 -92q54 0 94 44q46 52 77 147t33 171q6 111 -71 111q-40 0 -75 -35q-51 -53 -88 -158.5t-37 -186.5z" />
    <glyph glyph-name="OE.swash" unicode="&#xe047;" horiz-adv-x="960" 
d="M698 637h172q106 0 141 9q-27 -63 -62 -200h-11q6 59 -1 109q-6 38 -29 51t-88 13h-38q-15 0 -23 -17q-46 -128 -80 -269q29 0 53 0.5t43.5 1t33.5 1t26.5 2t19.5 2.5t15.5 2.5t11 2.5t9.5 3t8 2l2 -5l-39 -42l-189 10q-65 -238 -71 -269q-3 -17 5 -22t42 -5
q56 0 88.5 7.5t61.5 27.5q76 49 126 136l11 -5q-9 -27 -39.5 -102t-40.5 -89q-40 4 -86 5q-56 3 -152 3h-91q-68 0 -82 -3l28 89q-82 -103 -201 -103q-100 0 -153 56.5t-53 161.5q0 112 53 224.5t141 173.5q77 55 179 55q126 0 166 -102l25 88q32 -3 68 -3zM211 125v-1
q0 -49 22.5 -82t65.5 -33q77 0 126 53q55 59 96 182t50 235q5 74 -20.5 112.5t-75.5 38.5q-56 0 -99 -43q-68 -71 -116.5 -205.5t-48.5 -256.5z" />
    <glyph glyph-name="Oacute.sc" unicode="&#xe048;" horiz-adv-x="563" 
d="M352 496h1q97 0 148 -48t51 -140q0 -59 -26 -129.5t-66 -109.5q-45 -45 -95.5 -64.5t-120.5 -19.5q-92 0 -144.5 45.5t-52.5 136.5q0 77 37 156t98 121q74 52 170 52zM365 480h-2q-40 0 -73 -42q-40 -51 -74 -166t-34 -189q0 -82 60 -82q46 0 77 44q38 55 69.5 161.5
t33.5 179.5q3 94 -57 94zM343 543l-8 9q9 11 47.5 63.5t49.5 64.5q30 34 54 34q31 0 31 -30q0 -31 -44 -59q-6 -4 -50 -31.5z" />
    <glyph glyph-name="Oacute.swash" unicode="&#xe049;" horiz-adv-x="667" 
d="M448 653h1q112 0 172 -60.5t60 -168.5q0 -84 -32 -176t-87 -153q-100 -112 -262 -112q-111 0 -172.5 56.5t-61.5 166.5q0 106 50 214.5t132 169.5q85 63 200 63zM457 639h-1q-53 0 -100 -60q-58 -77 -102 -222t-43 -245q0 -114 83 -114q61 0 108 68q57 87 96 221t39 241
q0 111 -80 111zM411 698l-7 9q11 8 63 51.5t70 56.5q31 23 61 12q24 -11 11 -43q-10 -22 -45 -34q-65 -24 -153 -52z" />
    <glyph glyph-name="Ocircumflex.sc" unicode="&#xe04a;" horiz-adv-x="563" 
d="M352 496h1q97 0 148 -48t51 -140q0 -59 -26 -129.5t-66 -109.5q-45 -45 -95.5 -64.5t-120.5 -19.5q-92 0 -144.5 45.5t-52.5 136.5q0 77 37 156t98 121q74 52 170 52zM365 480h-2q-40 0 -73 -42q-40 -51 -74 -166t-34 -189q0 -82 60 -82q46 0 77 44q38 55 69.5 161.5
t33.5 179.5q3 94 -57 94zM405 715l10 3q14 -82 72 -173l-8 -8q-57 43 -91 80q-57 -44 -128 -80l-6 8q55 49 95 96t56 74z" />
    <glyph glyph-name="Ocircumflex.swash" unicode="&#xe04b;" horiz-adv-x="667" 
d="M448 653h1q112 0 172 -60.5t60 -168.5q0 -84 -32 -176t-87 -153q-100 -112 -262 -112q-111 0 -172.5 56.5t-61.5 166.5q0 106 50 214.5t132 169.5q85 63 200 63zM457 639h-1q-53 0 -100 -60q-58 -77 -102 -222t-43 -245q0 -114 83 -114q61 0 108 68q57 87 96 221t39 241
q0 111 -80 111zM468 820l11 3q37 -67 102 -120l-7 -9q-66 21 -115 50q-57 -27 -137 -50l-5 9q105 62 151 117z" />
    <glyph glyph-name="Odieresis.sc" unicode="&#xe04c;" horiz-adv-x="563" 
d="M352 496h1q97 0 148 -48t51 -140q0 -59 -26 -129.5t-66 -109.5q-45 -45 -95.5 -64.5t-120.5 -19.5q-92 0 -144.5 45.5t-52.5 136.5q0 77 37 156t98 121q74 52 170 52zM365 480h-2q-40 0 -73 -42q-40 -51 -74 -166t-34 -189q0 -82 60 -82q46 0 77 44q38 55 69.5 161.5
t33.5 179.5q3 94 -57 94zM306 678h1q24 0 37 -16.5t10 -41.5q-3 -29 -23 -46.5t-42 -17.5q-24 0 -38.5 14.5t-10.5 44.5q4 28 22 45.5t44 17.5zM483 678h1q24 0 37 -16.5t10 -41.5q-4 -29 -24 -46.5t-42 -17.5q-24 0 -38 14.5t-10 44.5q4 28 22 45.5t44 17.5z" />
    <glyph glyph-name="Odieresis.swash" unicode="&#xe04d;" horiz-adv-x="667" 
d="M448 653h1q112 0 172 -60.5t60 -168.5q0 -84 -32 -176t-87 -153q-100 -112 -262 -112q-111 0 -172.5 56.5t-61.5 166.5q0 106 50 214.5t132 169.5q85 63 200 63zM457 639h-1q-53 0 -100 -60q-58 -77 -102 -222t-43 -245q0 -114 83 -114q61 0 108 68q57 87 96 221t39 241
q0 111 -80 111zM376 811h1q23 0 35.5 -15.5t10.5 -38.5q-3 -27 -22 -42.5t-40 -15.5q-20 0 -33.5 13.5t-10.5 39.5t19.5 42.5t39.5 16.5zM564 811h1q23 0 35.5 -15.5t10.5 -38.5q-3 -26 -22.5 -42t-39.5 -16q-21 0 -34.5 13.5t-10.5 39.5t19.5 42.5t40.5 16.5z" />
    <glyph glyph-name="Ograve.sc" unicode="&#xe04e;" horiz-adv-x="563" 
d="M352 496h1q97 0 148 -48t51 -140q0 -59 -26 -129.5t-66 -109.5q-45 -45 -95.5 -64.5t-120.5 -19.5q-92 0 -144.5 45.5t-52.5 136.5q0 77 37 156t98 121q74 52 170 52zM365 480h-2q-40 0 -73 -42q-40 -51 -74 -166t-34 -189q0 -82 60 -82q46 0 77 44q38 55 69.5 161.5
t33.5 179.5q3 94 -57 94zM404 544l-9 -6q-78 77 -95 97q-24 30 -23 53q1 15 10 23.5t22 8.5q14 0 26.5 -11.5t18.5 -27.5q26 -60 50 -137z" />
    <glyph glyph-name="Ograve.swash" unicode="&#xe04f;" horiz-adv-x="667" 
d="M448 653h1q112 0 172 -60.5t60 -168.5q0 -84 -32 -176t-87 -153q-100 -112 -262 -112q-111 0 -172.5 56.5t-61.5 166.5q0 106 50 214.5t132 169.5q85 63 200 63zM457 639h-1q-53 0 -100 -60q-58 -77 -102 -222t-43 -245q0 -114 83 -114q61 0 108 68q57 87 96 221t39 241
q0 111 -80 111zM523 705l-6 -9q-26 10 -63 23l-62.5 22.5t-31.5 11.5q-26 12 -32 31q-13 37 17 46q26 11 54 -11q8 -6 61.5 -56z" />
    <glyph glyph-name="Oslash.sc" unicode="&#xe050;" horiz-adv-x="563" 
d="M369 481h-1q-41 0 -77 -44q-40 -51 -70.5 -145.5t-36.5 -186.5q3 5 112.5 148t124.5 165q-2 63 -52 63zM506 515l26 -7l-45 -50q65 -48 65 -149q0 -60 -24.5 -129t-62.5 -109q-83 -86 -225 -86q-69 0 -114 27q-25 -28 -40 -47l-25 5q15 16 47 54q-61 43 -61 138
q0 82 37.5 160.5t99.5 123.5q68 50 174 50q68 0 111 -26l21.5 26zM234 0h1q44 0 78 43q38 46 70.5 147.5t37.5 194.5q-25 -36 -122.5 -164t-115.5 -149q2 -30 14.5 -51t36.5 -21z" />
    <glyph glyph-name="Otilde.sc" unicode="&#xe051;" horiz-adv-x="563" 
d="M352 496h1q97 0 148 -48t51 -140q0 -59 -26 -129.5t-66 -109.5q-45 -45 -95.5 -64.5t-120.5 -19.5q-92 0 -144.5 45.5t-52.5 136.5q0 77 37 156t98 121q74 52 170 52zM365 480h-2q-40 0 -73 -42q-40 -51 -74 -166t-34 -189q0 -82 60 -82q46 0 77 44q38 55 69.5 161.5
t33.5 179.5q3 94 -57 94zM276 554l-15 4q14 108 80 108q22 0 68 -29q38 -24 55 -24q29 0 38 56l14 -5q-14 -108 -78 -108q-21 0 -70 30q-37 23 -50 23q-33 0 -42 -55z" />
    <glyph glyph-name="Otilde.swash" unicode="&#xe052;" horiz-adv-x="667" 
d="M448 653h1q112 0 172 -60.5t60 -168.5q0 -84 -32 -176t-87 -153q-100 -112 -262 -112q-111 0 -172.5 56.5t-61.5 166.5q0 106 50 214.5t132 169.5q85 63 200 63zM457 639h-1q-53 0 -100 -60q-58 -77 -102 -222t-43 -245q0 -114 83 -114q61 0 108 68q57 87 96 221t39 241
q0 111 -80 111zM354 699l-14 4q6 41 25 73t54 32q25 0 66 -28q32 -24 53 -24q13 0 23.5 15.5t12.5 41.5l14 -5q-5 -41 -23 -73.5t-53 -32.5q-25 0 -67 30q-31 21 -50 21q-16 0 -27 -15t-14 -39z" />
    <glyph glyph-name="P.sc" unicode="&#xe053;" horiz-adv-x="502" 
d="M98 476l7 13q72 -4 117 -4q23 0 61 2q8 0 30.5 0.5t38.5 0.5q66 0 96 -11t47 -33q24 -30 24 -81q0 -94 -67 -145q-55 -41 -146 -41q-40 0 -56 8l2 12q21 -3 24 -3q31 0 50 22q25 27 42 76.5t17 101.5q0 37 -9 53q-15 26 -47 26q-14 0 -18.5 -3t-8.5 -13q-14 -38 -72 -239
q-47 -176 -48 -181q-4 -20 14 -21l54 -6l-5 -14q-13 0 -59 2t-85 2q-32 0 -80 -2t-55 -2l4 14l33 3q24 2 33 25q21 57 68 216q50 172 55 198q2 11 -1.5 15t-15.5 5z" />
    <glyph glyph-name="P.swash" unicode="&#xe054;" horiz-adv-x="742" 
d="M134 9l45 4q19 2 27 8t14 22q92 256 173 554q5 18 -8 20q-6 1 -35 1q-75 0 -115 -22.5t-40 -75.5q0 -26 20 -50q12 -12 12 -33q0 -22 -16.5 -39.5t-44.5 -17.5q-22 0 -43.5 19t-21.5 64q0 85 73.5 129t198.5 45q6 0 39 0.5t49 0.5q21 0 68 1t79 1q184 0 184 -150
q0 -138 -116 -206q-57 -36 -145 -36q-37 0 -67 10l4 15q10 -5 38 -5q33 0 62 29q39 39 59.5 104.5t20.5 129.5q0 91 -76 91q-18 0 -25.5 -5t-13.5 -21q-85 -260 -160 -548q-4 -17 0 -23.5t19 -8.5l68 -7l-7 -12q-18 0 -74.5 2t-98.5 2q-17 0 -152 -5z" />
    <glyph glyph-name="Q.alt" unicode="&#xe055;" horiz-adv-x="667" 
d="M456 641h-1q-57 0 -104 -67q-50 -73 -95 -212.5t-45 -243.5q0 -120 83 -120q62 0 109 68q57 86 96 219t39 243q0 113 -82 113zM992 -157l4 -10q-80 -125 -258 -125q-116 0 -294 132l-42 33l-48.5 38.5t-46.5 33.5q-39 30 -97 50q-143 46 -144 210q0 107 49.5 216.5
t130.5 168.5q89 65 206 65q107 0 168 -57.5t61 -170.5q0 -84 -31 -175t-84 -151q-87 -101 -224 -114v-3q52 -10 170 -72q62 -32 104 -51t107.5 -38.5t117.5 -19.5q106 0 151 40z" />
    <glyph glyph-name="Q.sc" unicode="&#xe056;" horiz-adv-x="563" 
d="M531 -89l1 -6q-47 -50 -129 -50q-36 0 -73.5 22t-88.5 75q-32 32 -77 43q-52 14 -85 55.5t-33 112.5q0 78 36.5 157.5t95.5 121.5q39 28 79 41t98 13q94 0 146 -46.5t52 -138.5q0 -65 -28 -137.5t-73 -113.5q-68 -63 -164 -73v-4q1 -1 118 -49q30 -13 66.5 -19t58.5 -4z
M364 480h-1q-41 0 -75 -44q-40 -54 -73 -168.5t-33 -186.5q0 -40 16 -61t43 -21q44 0 74 39q41 53 74.5 168.5t33.5 188.5q0 85 -59 85z" />
    <glyph glyph-name="Q.scalt" unicode="&#xe057;" horiz-adv-x="563" 
d="M877 -145l4 -9q-33 -53 -92.5 -83.5t-141.5 -30.5q-104 0 -266 119l-64 49l-64 49q-45 33 -89 46q-51 14 -84.5 56t-33.5 112q0 77 36.5 157t94.5 122q75 54 179 54q93 0 145 -47t52 -138q0 -65 -28 -137t-74 -114q-68 -63 -162 -73v-4q56 -15 166 -73q178 -91 288 -91
q96 0 134 36zM363 480h-1q-41 0 -74 -43q-40 -55 -73.5 -167t-33.5 -187q0 -41 16 -62.5t42 -21.5q44 0 76 40q42 55 74.5 169t32.5 189q0 83 -59 83z" />
    <glyph glyph-name="Q.swash" unicode="&#xe058;" horiz-adv-x="652" 
d="M266 -9q64 -27 130 -68q87 -56 151.5 -83.5t125.5 -27.5q60 0 92.5 22t53.5 60l11 -11q-31 -69 -98.5 -113.5t-163.5 -44.5q-115 0 -252 101q-30 21 -126 100q-22 18 -44 22q-52 -15 -97 -15q-35 0 -35 23q0 12 12 26t43 26.5t75 12.5q30 0 98 -17q65 15 120.5 72
t88.5 132t51.5 152.5t18.5 143.5q0 61 -23.5 95.5t-63.5 34.5q-48 0 -89.5 -40t-66 -98.5t-38.5 -117.5t-14 -103q0 -63 21.5 -94.5t55.5 -31.5q29 0 57 18l3 -16q-62 -57 -156 -57q-57 0 -92.5 46.5t-35.5 121.5q0 102 50 195.5t140 149.5q75 46 182 46q97 0 156 -58.5
t59 -153.5q0 -174 -109.5 -289.5t-290.5 -160.5z" />
    <glyph glyph-name="R.sc" unicode="&#xe059;" horiz-adv-x="524" 
d="M101 477l6 12q8 0 54 -1.5t68 -1.5q23 0 71 1.5t77 1.5q81 0 111.5 -24t30.5 -69q0 -126 -202 -139v-6q79 -9 114.5 -33.5t27.5 -80.5q-2 -19 -16 -69q-16 -53 26 -58q14 -2 25 1l-6 -14q-24 -6 -76 -6q-71 0 -96 26.5t-13 76.5l23 93q6 29 -10 43t-64 14h-14
q-46 -155 -57 -207q-4 -16 5 -20.5t51 -6.5l-5 -14q-11 0 -58.5 2t-74.5 2q-17 0 -133 -4l4 14q38 2 49 7t17 19q15 31 69 213q49 162 56 200q4 21 -11 22zM380 407v1q0 29 -10 44q-12 19 -41 19q-13 0 -18 -3t-9 -14q-9 -23 -59 -194h12q60 0 92.5 47.5t32.5 99.5z" />
    <glyph glyph-name="R.swash" unicode="&#xe05a;" horiz-adv-x="806" 
d="M195 525v-1q0 -26 21 -50q13 -17 13 -32q0 -20 -15.5 -37.5t-47.5 -17.5q-23 0 -43.5 21t-20.5 65q0 80 67 122t190 43q23 1 96 1q34 0 81.5 0.5t81.5 0.5q90 0 128.5 -30.5t38.5 -95.5q0 -45 -19.5 -80t-53 -56t-71.5 -33t-81 -16l-1 -3q90 -22 107 -132l5.5 -45.5
t5.5 -43.5q4 -37 11.5 -49.5t21.5 -12.5q40 0 77 85l12 -9q-53 -135 -173 -135q-43 0 -69.5 26.5t-29.5 102.5q-1 25 -2 70t-2 70q-4 65 -58 66h-21q-51 -170 -76 -276q-4 -15 0.5 -21t17.5 -7l57 -6l-7 -13q-10 0 -72 2t-93 2q-28 0 -82.5 -2t-70.5 -2l6 13l47 4
q19 2 28 9.5t16 26.5q115 324 173 545q6 21 -6 23q-13 3 -35 3q-78 0 -115 -22.5t-37 -72.5zM569 622h-1q-26 0 -33 -16q-8 -20 -86 -269q9 -1 28 -1q43 0 76.5 20t52 51.5t27.5 65t9 66.5q0 83 -73 83z" />
    <glyph glyph-name="S.sc" unicode="&#xe05b;" horiz-adv-x="414" 
d="M56 195l14 4q-7 -25 -9 -70q-2 -68 30.5 -98t86.5 -30q38 0 64.5 20.5t26.5 59.5q0 38 -28 61l-100 76q-60 46 -60 115q0 81 60 129q49 39 129 39q42 0 76 -14t46 -31l17.5 25.5t13.5 20.5l7 -11q-38 -96 -60 -179l-11 4q14 79 -12 124t-76 45q-36 0 -58 -23.5t-22 -60.5
t29 -59q86 -62 109 -82q53 -43 53 -106q0 -67 -49 -113q-57 -57 -167 -57q-36 0 -86.5 12t-78.5 27q35 81 55 172z" />
    <glyph glyph-name="S.swash" unicode="&#xe05c;" horiz-adv-x="510" 
d="M83 177h1q47 0 50 -64q11 -121 105 -121q48 0 79.5 30.5t31.5 84.5q0 53 -33 91q-13 16 -57.5 60t-54.5 56q-57 61 -57 135q0 105 87 166q55 38 136 38q51 0 87 -13.5t51.5 -34.5t22 -38.5t6.5 -32.5q0 -36 -18 -55t-47 -19q-25 0 -35.5 16t-6.5 35q8 26 8 38
q0 43 -22.5 64t-59.5 21q-41 0 -66.5 -28t-25.5 -73q0 -49 33 -88q12 -14 59 -59.5t71 -72.5q51 -55 51 -128q0 -55 -28.5 -100.5t-77.5 -73.5q-71 -39 -162 -39q-83 0 -138.5 35.5t-54.5 98.5q1 31 17.5 51t47.5 20z" />
    <glyph glyph-name="Scaron.sc" unicode="&#xe05d;" horiz-adv-x="414" 
d="M56 195l14 4q-7 -25 -9 -70q-2 -68 30.5 -98t86.5 -30q38 0 64.5 20.5t26.5 59.5q0 38 -28 61l-100 76q-60 46 -60 115q0 81 60 129q49 39 129 39q42 0 76 -14t46 -31l17.5 25.5t13.5 20.5l7 -11q-38 -96 -60 -179l-11 4q14 79 -12 124t-76 45q-36 0 -58 -23.5t-22 -60.5
t29 -59q86 -62 109 -82q53 -43 53 -106q0 -67 -49 -113q-57 -57 -167 -57q-36 0 -86.5 12t-78.5 27q35 81 55 172zM284 540l-10 -3q-17 85 -72 173l8 8q54 -40 90 -80q55 42 129 80l6 -8q-101 -89 -151 -170z" />
    <glyph glyph-name="Scaron.swash" unicode="&#xe05e;" horiz-adv-x="510" 
d="M83 177h1q47 0 50 -64q11 -121 105 -121q48 0 79.5 30.5t31.5 84.5q0 53 -33 91q-13 16 -57.5 60t-54.5 56q-57 61 -57 135q0 105 87 166q55 38 136 38q51 0 87 -13.5t51.5 -34.5t22 -38.5t6.5 -32.5q0 -36 -18 -55t-47 -19q-25 0 -35.5 16t-6.5 35q8 26 8 38
q0 43 -22.5 64t-59.5 21q-41 0 -66.5 -28t-25.5 -73q0 -49 33 -88q12 -14 59 -59.5t71 -72.5q51 -55 51 -128q0 -55 -28.5 -100.5t-77.5 -73.5q-71 -39 -162 -39q-83 0 -138.5 35.5t-54.5 98.5q1 31 17.5 51t47.5 20zM384 694l-10 -2q-31 63 -102 119l7 10q75 -24 115 -50
q64 29 137 50l6 -10q-99 -57 -153 -117z" />
    <glyph glyph-name="T.sc" unicode="&#xe05f;" horiz-adv-x="485" 
d="M278 486h94q138 0 174 10q-36 -89 -59 -178l-14 -7q5 34 5.5 77t-2.5 53q-3 19 -19 25t-67 5q-20 -52 -73 -245q-45 -169 -48 -188q-2 -11 0.5 -15.5t11.5 -5.5q26 -5 60 -6l-5 -14q-10 0 -63 1.5t-90 1.5q-26 0 -77 -1.5t-69 -1.5l4 14q6 1 21.5 2.5t26.5 3.5
q23 1 31 20q24 60 63 193q53 172 70 241q-47 0 -70 -10.5t-46 -37.5q-38 -46 -70 -109l-11 7q27 63 65 175q29 -10 157 -10z" />
    <glyph glyph-name="T.swash" unicode="&#xe060;" horiz-adv-x="625" 
d="M117 -4l4 13q9 1 31.5 4t35.5 4q27 2 36 22q21 48 99 297q71 223 85 284q-50 5 -84 5q-68 0 -95 -21t-27 -62q0 -24 20 -55q11 -15 5 -35q-3 -18 -18.5 -30t-35.5 -12q-25 0 -43.5 20.5t-18.5 59.5q0 73 58.5 114t166.5 42q62 0 158 -4t134 -4q60 0 86.5 14.5t42.5 49.5
l11 -5q-13 -53 -41.5 -70t-86.5 -17q-15 0 -50.5 2.5t-42.5 2.5l-86 -288q-51 -173 -75 -279q-3 -16 0 -22.5t16 -7.5q46 -7 84 -8l-6 -14q-176 4 -183 4q-45 0 -111 -2t-69 -2z" />
    <glyph glyph-name="Thorn.sc" unicode="&#xe063;" horiz-adv-x="501" 
d="M102 476l8 14q68 -4 123 -4q25 0 73.5 2t61.5 2l-5 -14q-38 -3 -48 -7t-13 -14q-14 -35 -20 -62q38 2 81 2q127 0 127 -120q0 -44 -19.5 -85.5t-51.5 -65.5q-50 -38 -139 -38q-44 0 -84 15l-16 -65q-3 -14 8 -18t59 -8l-4 -14q-11 0 -57 2t-85 2q-31 0 -79.5 -2t-57.5 -2
l4 14q39 1 50.5 6.5t16.5 20.5q23 61 67 209q44 142 58 207q2 13 -8 17.5t-50 5.5zM356 310v1q0 30 -9 46q-12 21 -50 21q-19 0 -23 -9q-17 -46 -72 -246q14 -17 44 -17q27 0 45 18q27 24 46.5 78t18.5 108z" />
    <glyph glyph-name="Thorn.swash" unicode="&#xe064;" horiz-adv-x="724" 
d="M328 623h-1q-131 0 -132 -90q-1 -22 15 -48q10 -18 10 -31q1 -21 -16.5 -34.5t-39.5 -13.5t-41 20t-18 60q1 71 58 111.5t147 39.5h142q60 0 118 2l-4 -11q-31 -1 -40.5 -7t-16.5 -26q-5 -14 -12 -39.5t-11 -38.5h81q92 0 128 -37.5t36 -112.5q0 -72 -35 -127t-91 -82
q-55 -26 -133 -26q-54 0 -94 15q-18 -63 -27 -99q-4 -17 0 -23.5t19 -8.5l78 -6l-7 -14q-21 0 -83.5 2t-100.5 2q-39 0 -93 -2t-67 -2l7 13l53 5q19 2 27.5 8t13.5 20q23 60 86 267q59 194 84 290q6 20 -3 22q-8 2 -37 2zM508 501h-1q-26 0 -31 -17q-53 -166 -93 -317
q24 -14 63 -14q35 0 67 33q35 37 56 100.5t21 119.5q0 46 -18 70.5t-64 24.5z" />
    <glyph glyph-name="U.sc" unicode="&#xe065;" horiz-adv-x="522" 
d="M96 476l8 14q14 0 56 -2t69 -2q26 0 70.5 2t59.5 2l-3 -14l-37 -4q-17 -2 -23 -19q-43 -104 -95 -324q-13 -63 13 -93q20 -22 64 -22q53 0 87.5 26t59.5 104q44 137 76 295q3 16 -1.5 23.5t-18.5 9.5l-44 4l5 14q10 0 38.5 -2t43.5 -2q16 0 48 2t37 2l-3 -14
q-39 -4 -51 -10t-19 -28q-14 -40 -49 -159t-45 -150q-31 -86 -87 -118q-45 -26 -128 -26q-100 0 -143 47q-39 45 -18 119q9 34 43.5 154t41.5 146q5 19 -11 21z" />
    <glyph glyph-name="U.swash" unicode="&#xe066;" horiz-adv-x="853" 
d="M847 124q-72 -142 -205 -142q-28 0 -43.5 10.5t-19 31t-1 41.5t10.5 50q5 13 10 35q-117 -168 -276 -168q-63 0 -90 42q-21 32 -6 115q12 67 66 219.5t90 235.5q5 15 -7 16q-18 2 -40 2q-71 0 -107 -19.5t-36 -69.5q0 -23 22 -58q13 -18 9 -39q-14 -46 -57 -46
q-22 0 -43.5 19.5t-21.5 64.5q0 79 68.5 125.5t197.5 47.5h74q68 0 103 17l3 -6q-20 -26 -52 -112q-92 -250 -117 -389q-13 -64 6 -87q13 -18 47 -18q39 0 78 32.5t69 81.5q33 57 48 101q73 211 119 380q114 0 175 13l2 -13q-22 -5 -34.5 -16.5t-21.5 -37.5
q-101 -304 -143 -500q-9 -43 13 -43q21 0 48.5 25.5t50.5 71.5z" />
    <glyph glyph-name="Uacute.sc" unicode="&#xe067;" horiz-adv-x="522" 
d="M96 476l8 14q14 0 56 -2t69 -2q26 0 70.5 2t59.5 2l-3 -14l-37 -4q-17 -2 -23 -19q-43 -104 -95 -324q-13 -63 13 -93q20 -22 64 -22q53 0 87.5 26t59.5 104q44 137 76 295q3 16 -1.5 23.5t-18.5 9.5l-44 4l5 14q10 0 38.5 -2t43.5 -2q16 0 48 2t37 2l-3 -14
q-39 -4 -51 -10t-19 -28q-14 -40 -49 -159t-45 -150q-31 -86 -87 -118q-45 -26 -128 -26q-100 0 -143 47q-39 45 -18 119q9 34 43.5 154t41.5 146q5 19 -11 21zM358 542l-8 9q9 11 47.5 63.5t49.5 64.5q30 34 54 34q31 0 31 -30q0 -31 -44 -59q-6 -4 -50 -31.5z" />
    <glyph glyph-name="Uacute.swash" unicode="&#xe068;" horiz-adv-x="853" 
d="M847 124q-72 -142 -205 -142q-28 0 -43.5 10.5t-19 31t-1 41.5t10.5 50q5 13 10 35q-117 -168 -276 -168q-63 0 -90 42q-21 32 -6 115q12 67 66 219.5t90 235.5q5 15 -7 16q-18 2 -40 2q-71 0 -107 -19.5t-36 -69.5q0 -23 22 -58q13 -18 9 -39q-14 -46 -57 -46
q-22 0 -43.5 19.5t-21.5 64.5q0 79 68.5 125.5t197.5 47.5h74q68 0 103 17l3 -6q-20 -26 -52 -112q-92 -250 -117 -389q-13 -64 6 -87q13 -18 47 -18q39 0 78 32.5t69 81.5q33 57 48 101q73 211 119 380q114 0 175 13l2 -13q-22 -5 -34.5 -16.5t-21.5 -37.5
q-101 -304 -143 -500q-9 -43 13 -43q21 0 48.5 25.5t50.5 71.5zM599 687l-7 9q11 8 63 51.5t70 56.5q31 23 61 12q24 -11 11 -43q-10 -22 -45 -34q-65 -24 -153 -52z" />
    <glyph glyph-name="Ucircumflex.sc" unicode="&#xe069;" horiz-adv-x="522" 
d="M96 476l8 14q14 0 56 -2t69 -2q26 0 70.5 2t59.5 2l-3 -14l-37 -4q-17 -2 -23 -19q-43 -104 -95 -324q-13 -63 13 -93q20 -22 64 -22q53 0 87.5 26t59.5 104q44 137 76 295q3 16 -1.5 23.5t-18.5 9.5l-44 4l5 14q10 0 38.5 -2t43.5 -2q16 0 48 2t37 2l-3 -14
q-39 -4 -51 -10t-19 -28q-14 -40 -49 -159t-45 -150q-31 -86 -87 -118q-45 -26 -128 -26q-100 0 -143 47q-39 45 -18 119q9 34 43.5 154t41.5 146q5 19 -11 21zM411 715l10 3q14 -82 72 -173l-8 -8q-57 43 -91 80q-57 -44 -128 -80l-6 8q55 49 95 96t56 74z" />
    <glyph glyph-name="Ucircumflex.swash" unicode="&#xe06a;" horiz-adv-x="853" 
d="M847 124q-72 -142 -205 -142q-28 0 -43.5 10.5t-19 31t-1 41.5t10.5 50q5 13 10 35q-117 -168 -276 -168q-63 0 -90 42q-21 32 -6 115q12 67 66 219.5t90 235.5q5 15 -7 16q-18 2 -40 2q-71 0 -107 -19.5t-36 -69.5q0 -23 22 -58q13 -18 9 -39q-14 -46 -57 -46
q-22 0 -43.5 19.5t-21.5 64.5q0 79 68.5 125.5t197.5 47.5h74q68 0 103 17l3 -6q-20 -26 -52 -112q-92 -250 -117 -389q-13 -64 6 -87q13 -18 47 -18q39 0 78 32.5t69 81.5q33 57 48 101q73 211 119 380q114 0 175 13l2 -13q-22 -5 -34.5 -16.5t-21.5 -37.5
q-101 -304 -143 -500q-9 -43 13 -43q21 0 48.5 25.5t50.5 71.5zM673 815l11 3q37 -67 102 -120l-7 -9q-66 21 -115 50q-57 -27 -137 -50l-5 9q105 62 151 117z" />
    <glyph glyph-name="Udieresis.sc" unicode="&#xe06b;" horiz-adv-x="522" 
d="M96 476l8 14q14 0 56 -2t69 -2q26 0 70.5 2t59.5 2l-3 -14l-37 -4q-17 -2 -23 -19q-43 -104 -95 -324q-13 -63 13 -93q20 -22 64 -22q53 0 87.5 26t59.5 104q44 137 76 295q3 16 -1.5 23.5t-18.5 9.5l-44 4l5 14q10 0 38.5 -2t43.5 -2q16 0 48 2t37 2l-3 -14
q-39 -4 -51 -10t-19 -28q-14 -40 -49 -159t-45 -150q-31 -86 -87 -118q-45 -26 -128 -26q-100 0 -143 47q-39 45 -18 119q9 34 43.5 154t41.5 146q5 19 -11 21zM309 678h1q24 0 37 -16.5t10 -41.5q-3 -29 -23 -46.5t-42 -17.5q-24 0 -38.5 14.5t-10.5 44.5q4 28 22 45.5
t44 17.5zM486 678h1q24 0 37 -16.5t10 -41.5q-4 -29 -24 -46.5t-42 -17.5q-24 0 -38 14.5t-10 44.5q4 28 22 45.5t44 17.5z" />
    <glyph glyph-name="Udieresis.swash" unicode="&#xe06c;" horiz-adv-x="853" 
d="M847 124q-72 -142 -205 -142q-28 0 -43.5 10.5t-19 31t-1 41.5t10.5 50q5 13 10 35q-117 -168 -276 -168q-63 0 -90 42q-21 32 -6 115q12 67 66 219.5t90 235.5q5 15 -7 16q-18 2 -40 2q-71 0 -107 -19.5t-36 -69.5q0 -23 22 -58q13 -18 9 -39q-14 -46 -57 -46
q-22 0 -43.5 19.5t-21.5 64.5q0 79 68.5 125.5t197.5 47.5h74q68 0 103 17l3 -6q-20 -26 -52 -112q-92 -250 -117 -389q-13 -64 6 -87q13 -18 47 -18q39 0 78 32.5t69 81.5q33 57 48 101q73 211 119 380q114 0 175 13l2 -13q-22 -5 -34.5 -16.5t-21.5 -37.5
q-101 -304 -143 -500q-9 -43 13 -43q21 0 48.5 25.5t50.5 71.5zM575 803h1q23 0 35.5 -15.5t10.5 -38.5q-3 -27 -22 -42.5t-40 -15.5q-20 0 -33.5 13.5t-10.5 39.5t19.5 42.5t39.5 16.5zM763 803h1q23 0 35.5 -15.5t10.5 -38.5q-3 -26 -22.5 -42t-39.5 -16q-21 0 -34.5 13.5
t-10.5 39.5t19.5 42.5t40.5 16.5z" />
    <glyph glyph-name="Ugrave.sc" unicode="&#xe06d;" horiz-adv-x="522" 
d="M96 476l8 14q14 0 56 -2t69 -2q26 0 70.5 2t59.5 2l-3 -14l-37 -4q-17 -2 -23 -19q-43 -104 -95 -324q-13 -63 13 -93q20 -22 64 -22q53 0 87.5 26t59.5 104q44 137 76 295q3 16 -1.5 23.5t-18.5 9.5l-44 4l5 14q10 0 38.5 -2t43.5 -2q16 0 48 2t37 2l-3 -14
q-39 -4 -51 -10t-19 -28q-14 -40 -49 -159t-45 -150q-31 -86 -87 -118q-45 -26 -128 -26q-100 0 -143 47q-39 45 -18 119q9 34 43.5 154t41.5 146q5 19 -11 21zM410 543l-9 -6q-78 76 -95 97q-24 30 -23 53q1 15 10 23.5t22 8.5q14 0 26.5 -11.5t18.5 -27.5q26 -60 50 -137z
" />
    <glyph glyph-name="Ugrave.swash" unicode="&#xe06e;" horiz-adv-x="853" 
d="M847 124q-72 -142 -205 -142q-28 0 -43.5 10.5t-19 31t-1 41.5t10.5 50q5 13 10 35q-117 -168 -276 -168q-63 0 -90 42q-21 32 -6 115q12 67 66 219.5t90 235.5q5 15 -7 16q-18 2 -40 2q-71 0 -107 -19.5t-36 -69.5q0 -23 22 -58q13 -18 9 -39q-14 -46 -57 -46
q-22 0 -43.5 19.5t-21.5 64.5q0 79 68.5 125.5t197.5 47.5h74q68 0 103 17l3 -6q-20 -26 -52 -112q-92 -250 -117 -389q-13 -64 6 -87q13 -18 47 -18q39 0 78 32.5t69 81.5q33 57 48 101q73 211 119 380q114 0 175 13l2 -13q-22 -5 -34.5 -16.5t-21.5 -37.5
q-101 -304 -143 -500q-9 -43 13 -43q21 0 48.5 25.5t50.5 71.5zM688 693l-6 -9q-26 10 -63 23l-62.5 22.5t-31.5 11.5q-26 12 -32 31q-13 37 17 46q26 11 54 -11q8 -6 61.5 -56z" />
    <glyph glyph-name="V.sc" unicode="&#xe06f;" horiz-adv-x="482" 
d="M413 476l1 14q6 0 39 -2t47 -2q12 0 44 2t49 2l-1 -14q-35 -2 -51.5 -10t-34.5 -33q-90 -114 -278 -433q-58 0 -102 -13q-2 161 -13 462q-1 15 -11.5 20.5t-48.5 6.5l7 14q8 0 52.5 -2t70.5 -2q15 0 32 0.5t46.5 1.5t53.5 2l-3 -14q-36 -2 -46 -7t-10 -18q-2 -37 -1 -157
t3 -206q55 82 122.5 194.5t92.5 163.5q10 19 -5 22q-41 7 -55 8z" />
    <glyph glyph-name="V.swash" unicode="&#xe070;" horiz-adv-x="736" 
d="M316 634h1q5 0 16.5 -0.5t23.5 -0.5q21 1 69.5 9t71.5 17l3 -3q-7 -77 -11 -153q-12 -301 -10 -403q139 185 187 274q69 124 71 211q1 17 -3 47q14 14 36.5 26t29.5 12q10 0 16.5 -19.5t5.5 -41.5q-1 -66 -104 -212l-280 -393q-68 -9 -97 -21h-5q3 48 11 292t5 316
q-2 20 -7 22q-7 2 -29 2q-117 0 -117 -88q0 -22 14 -48q11 -16 13 -26q6 -25 -12.5 -44.5t-47.5 -19.5q-24 0 -43.5 20.5t-19.5 63.5q0 79 62 120t150 41z" />
    <glyph glyph-name="W.sc" unicode="&#xe071;" horiz-adv-x="688" 
d="M621 476v14q13 0 44 -2t45 -2q13 0 42.5 2t44.5 2l-2 -14q-37 -5 -51 -12t-28 -29q-108 -169 -244 -436q-54 0 -93 -11q2 50 2.5 195.5t1.5 197.5q-159 -321 -186 -381q-46 0 -94 -12q13 289 9 446q-1 26 -10.5 33t-49.5 9l6 14q11 0 55.5 -2t71.5 -2q61 0 131 4l-4 -14
q-34 -2 -44.5 -8.5t-12.5 -21.5q-8 -74 -21 -320q157 310 170 353q43 -2 111 11q-1 -19 -2 -159t-3 -225q109 189 171 335q6 14 3 21t-18 8z" />
    <glyph glyph-name="W.swash" unicode="&#xe072;" horiz-adv-x="988" 
d="M331 638h1q5 0 16.5 -0.5t19.5 -0.5q39 1 135 21l3 -2q-7 -42 -23 -162q-7 -63 -20 -190t-19 -175l62 119.5l88.5 174.5t59.5 129q12 27 20 56q11 -2 62.5 9.5t72.5 20.5q-33 -248 -53 -542q92 137 161 259q70 142 74 227q1 20 -3 50q11 13 35.5 25t31.5 12q21 0 19 -70
q-1 -62 -96 -202l-260 -395q-69 -8 -98 -19h-10q5 36 13.5 121l20.5 212.5l19 199.5q-28 -58 -139 -274l-121 -236q-74 -10 -101 -23h-9q51 485 60 612q-1 19 -6 21q-14 4 -25 4q-59 0 -90.5 -26t-31.5 -66q0 -22 13 -46l5.5 -11t6 -12.5t2.5 -10.5q0 -25 -18 -40t-43 -15
q-22 0 -42.5 21t-20.5 63q0 82 64.5 121.5t163.5 39.5z" />
    <glyph glyph-name="X.sc" unicode="&#xe073;" horiz-adv-x="472" 
d="M370 476l7 14q16 0 47 -2t40 -2q17 0 45.5 2t42.5 2l-5 -14q-41 -3 -59.5 -11t-46.5 -32q-30 -26 -126 -131l36.5 -117l28.5 -94t16 -47q13 -30 39 -32l33 -3l-3 -13q-1 0 -50 2t-76 2q-33 0 -145 -4l2 13q33 4 43 8.5t9 14.5q-9 54 -45 177q-79 -91 -126 -157
q-9 -13 -10.5 -20.5t3 -11t16.5 -5.5l49 -6l-4 -13q-9 0 -40.5 2t-54.5 2q-17 0 -47.5 -2t-49.5 -2l2 13q31 2 45.5 8t34.5 23q54 49 177 187q-63 217 -69 230q-6 17 -63 19l1 14q124 -4 127 -4q35 0 129 4l-3 -14q-33 -2 -40 -7t-4 -18q3 -22 34 -131q44 47 106 129
q15 19 -7 22z" />
    <glyph glyph-name="X.swash" unicode="&#xe074;" horiz-adv-x="648" 
d="M635 144l10 -11q-41 -79 -87 -114t-108 -35q-43 0 -59 31.5t-28 121.5q-4 27 -8.5 71.5t-6.5 61.5q-105 -181 -149 -234q-37 -43 -65.5 -57t-65.5 -14q-33 0 -53.5 22t-20.5 53q0 42 23 61t47 19q27 0 42 -25q18 -37 38 -37q19 0 35.5 11.5t39.5 40.5q30 38 126 189
l-5.5 39.5l-6 42.5l-4.5 33q-10 75 -18 111.5t-15.5 47.5t-20.5 11q-44 0 -113 -86l-7 15q41 56 96.5 97.5t113.5 41.5q36 0 55.5 -30.5t31.5 -119.5q10 -59 12 -80q52 83 105 148q68 82 127 82q41 0 54 -33q-3 -6 -4 -7q-36 4 -40 4q-52 0 -110 -55t-129 -163
q21 -161 29 -205q12 -81 21.5 -109.5t27.5 -28.5q39 0 90 89z" />
    <glyph glyph-name="Y.sc" unicode="&#xe075;" horiz-adv-x="445" 
d="M376 476l6 14q5 0 39.5 -2t55.5 -2q17 0 43 2t42 2l-2 -14q-32 -2 -50 -9t-38 -26q-52 -46 -162 -200q-15 -20 -21 -40q-27 -88 -41 -162q-3 -19 17 -23q5 0 12 -1t20.5 -2.5t23.5 -2.5l-4 -14q-23 0 -77 2t-82 2q-31 0 -79 -2t-66 -2l7 14q5 0 51 6q24 2 35 28
q19 37 48 152q4 17 0 41q-16 112 -45 206q-6 19 -17.5 24.5t-50.5 8.5l6 14q13 0 58 -2t71 -2q67 0 134 4l-5 -14q-35 -4 -43.5 -8.5t-6.5 -17.5q13 -96 34 -207q107 139 147 205q12 19 -8 22q-10 2 -52 6z" />
    <glyph glyph-name="Y.swash" unicode="&#xe076;" horiz-adv-x="605" 
d="M100 547l-2 16q99 91 214 91q75 0 100 -69q29 -82 -17 -265h9q78 186 148 265q62 69 122 69q23 0 38.5 -17.5t15.5 -38.5q-2 -4 -3 -5q-14 8 -48 8q-90 0 -169 -117q-51 -73 -83 -163q-19 -48 -42.5 -134t-29.5 -136q-2 -21 3.5 -27.5t31.5 -8.5l54 -6l-7 -13
q-24 0 -86 2t-95 2q-35 0 -90.5 -2t-74.5 -2l8 13l39 4q32 3 43 11.5t23 35.5q28 71 66 218q30 116 24 193q-3 56 -21.5 87.5t-64.5 31.5q-57 0 -106 -43z" />
    <glyph glyph-name="Yacute.sc" unicode="&#xe077;" horiz-adv-x="445" 
d="M376 476l6 14q5 0 39.5 -2t55.5 -2q17 0 43 2t42 2l-2 -14q-32 -2 -50 -9t-38 -26q-52 -46 -162 -200q-15 -20 -21 -40q-27 -88 -41 -162q-3 -19 17 -23q5 0 12 -1t20.5 -2.5t23.5 -2.5l-4 -14q-23 0 -77 2t-82 2q-31 0 -79 -2t-66 -2l7 14q5 0 51 6q24 2 35 28
q19 37 48 152q4 17 0 41q-16 112 -45 206q-6 19 -17.5 24.5t-50.5 8.5l6 14q13 0 58 -2t71 -2q67 0 134 4l-5 -14q-35 -4 -43.5 -8.5t-6.5 -17.5q13 -96 34 -207q107 139 147 205q12 19 -8 22q-10 2 -52 6zM323 542l-8 9q9 11 47.5 63.5t49.5 64.5q30 34 54 34q31 0 31 -30
q0 -31 -44 -59q-6 -4 -50 -31.5z" />
    <glyph glyph-name="Yacute.swash" unicode="&#xe078;" horiz-adv-x="605" 
d="M100 547l-2 16q99 91 214 91q75 0 100 -69q29 -82 -17 -265h9q78 186 148 265q62 69 122 69q23 0 38.5 -17.5t15.5 -38.5q-2 -4 -3 -5q-14 8 -48 8q-90 0 -169 -117q-51 -73 -83 -163q-19 -48 -42.5 -134t-29.5 -136q-2 -21 3.5 -27.5t31.5 -8.5l54 -6l-7 -13
q-24 0 -86 2t-95 2q-35 0 -90.5 -2t-74.5 -2l8 13l39 4q32 3 43 11.5t23 35.5q28 71 66 218q30 116 24 193q-3 56 -21.5 87.5t-64.5 31.5q-57 0 -106 -43zM427 686l-7 9q11 8 63 51.5t70 56.5q31 23 61 12q24 -11 11 -43q-10 -22 -45 -34q-65 -24 -153 -52z" />
    <glyph glyph-name="Ydieresis.sc" unicode="&#xe079;" horiz-adv-x="445" 
d="M376 476l6 14q5 0 39.5 -2t55.5 -2q17 0 43 2t42 2l-2 -14q-32 -2 -50 -9t-38 -26q-52 -46 -162 -200q-15 -20 -21 -40q-27 -88 -41 -162q-3 -19 17 -23q5 0 12 -1t20.5 -2.5t23.5 -2.5l-4 -14q-23 0 -77 2t-82 2q-31 0 -79 -2t-66 -2l7 14q5 0 51 6q24 2 35 28
q19 37 48 152q4 17 0 41q-16 112 -45 206q-6 19 -17.5 24.5t-50.5 8.5l6 14q13 0 58 -2t71 -2q67 0 134 4l-5 -14q-35 -4 -43.5 -8.5t-6.5 -17.5q13 -96 34 -207q107 139 147 205q12 19 -8 22q-10 2 -52 6zM270 678h1q24 0 37 -16.5t10 -41.5q-3 -29 -23 -46.5t-42 -17.5
q-24 0 -38.5 14.5t-10.5 44.5q4 28 22 45.5t44 17.5zM447 678h1q24 0 37 -16.5t10 -41.5q-4 -29 -24 -46.5t-42 -17.5q-24 0 -38 14.5t-10 44.5q4 28 22 45.5t44 17.5z" />
    <glyph glyph-name="Ydieresis.swash" unicode="&#xe07a;" horiz-adv-x="605" 
d="M100 547l-2 16q99 91 214 91q75 0 100 -69q29 -82 -17 -265h9q78 186 148 265q62 69 122 69q23 0 38.5 -17.5t15.5 -38.5q-2 -4 -3 -5q-14 8 -48 8q-90 0 -169 -117q-51 -73 -83 -163q-19 -48 -42.5 -134t-29.5 -136q-2 -21 3.5 -27.5t31.5 -8.5l54 -6l-7 -13
q-24 0 -86 2t-95 2q-35 0 -90.5 -2t-74.5 -2l8 13l39 4q32 3 43 11.5t23 35.5q28 71 66 218q30 116 24 193q-3 56 -21.5 87.5t-64.5 31.5q-57 0 -106 -43zM393 805h1q23 0 35.5 -15.5t10.5 -38.5q-3 -27 -22 -42.5t-40 -15.5q-20 0 -33.5 13.5t-10.5 39.5t19.5 42.5
t39.5 16.5zM581 805h1q23 0 35.5 -15.5t10.5 -38.5q-3 -26 -22.5 -42t-39.5 -16q-21 0 -34.5 13.5t-10.5 39.5t19.5 42.5t40.5 16.5z" />
    <glyph glyph-name="Z.sc" unicode="&#xe07b;" horiz-adv-x="504" 
d="M89 311l-10 5q44 136 46 180q13 -4 54 -8q21 -2 133 -2q149 0 212 2q-16 -35 -35 -60l-150 -191l-172 -220q106 -1 150 9.5t70 38.5q43 45 81 126l10 -8q-54 -171 -58 -187q-63 4 -181 4h-170q-50 0 -81 -2l-3 12l190 231.5t179 227.5h-46q-67 0 -101 -11.5t-55 -38.5
q-36 -51 -63 -108z" />
    <glyph glyph-name="Z.swash" unicode="&#xe07c;" horiz-adv-x="567" 
d="M214 111h1q15 -1 101.5 -8t108.5 -7q100 0 100 63q0 4 -3 28q-1 13 1 18q21 33 33 33q8 0 8 -21q0 -49 -46.5 -118.5t-92.5 -100.5q-40 -26 -83 -26q-39 0 -140.5 15.5t-153.5 14.5q-31 0 -59 -5l-3 7q49 72 75 93q252 219 459 422q-8 0 -56.5 1.5t-83.5 1.5
q-53 1 -154 -5q-34 -3 -56.5 -25.5t-53.5 -75.5l-8 13q67 121 98 223q12 -10 51 -13q36 -3 83 -3h112q142 0 174 4q-8 -35 -32.5 -70.5t-52.5 -60.5l-121 -115l-165.5 -152.5l-144.5 -132.5q38 5 104 2z" />
    <glyph glyph-name="Zcaron.sc" unicode="&#xe07d;" horiz-adv-x="504" 
d="M89 311l-10 5q44 136 46 180q13 -4 54 -8q21 -2 133 -2q149 0 212 2q-16 -35 -35 -60l-150 -191l-172 -220q106 -1 150 9.5t70 38.5q43 45 81 126l10 -8q-54 -171 -58 -187q-63 4 -181 4h-170q-50 0 -81 -2l-3 12l190 231.5t179 227.5h-46q-67 0 -101 -11.5t-55 -38.5
q-36 -51 -63 -108zM326 540l-10 -3q-17 85 -72 173l8 8q54 -40 90 -80q55 42 129 80l6 -8q-101 -89 -151 -170z" />
    <glyph glyph-name="Zcaron.swash" unicode="&#xe07e;" horiz-adv-x="567" 
d="M214 111h1q15 -1 101.5 -8t108.5 -7q100 0 100 63q0 4 -3 28q-1 13 1 18q21 33 33 33q8 0 8 -21q0 -49 -46.5 -118.5t-92.5 -100.5q-40 -26 -83 -26q-39 0 -140.5 15.5t-153.5 14.5q-31 0 -59 -5l-3 7q49 72 75 93q252 219 459 422q-8 0 -56.5 1.5t-83.5 1.5
q-53 1 -154 -5q-34 -3 -56.5 -25.5t-53.5 -75.5l-8 13q67 121 98 223q12 -10 51 -13q36 -3 83 -3h112q142 0 174 4q-8 -35 -32.5 -70.5t-52.5 -60.5l-121 -115l-165.5 -152.5l-144.5 -132.5q38 5 104 2zM420 688l-10 -2q-31 63 -102 119l7 10q75 -24 115 -50q64 29 137 50
l6 -10q-99 -57 -153 -117z" />
    <glyph glyph-name="c_t" unicode="&#xe07f;" horiz-adv-x="724" 
d="M488 418h68q19 63 26 91q5 22 -3 29q-7 6 -40.5 11t-54.5 5q-58 0 -83.5 -19t-25.5 -72q0 -14 8 -42q53 -23 53 -80q0 -34 -21.5 -51t-45.5 -17q-22 0 -34 12q-17 15 -7 36q15 33 15 57q0 40 -30 40q-52 0 -96 -93q-50 -102 -50 -207q0 -97 66 -97q104 0 158 131h5l2 -38
q-31 -54 -88.5 -90.5t-124.5 -36.5q-75 0 -112.5 34.5t-37.5 108.5q0 72 37.5 145t100.5 115q64 43 143 43q20 0 42 -5q-10 18 -10 39q0 59 47 85.5t110 26.5q64 0 104 -6q60 9 129 29l3 -4l-13.5 -42l-23.5 -75l-20 -63h104l-10 -15l-101 -6q-70 -217 -101 -351
q-7 -27 22 -27q31 0 62 34t45 76l10 -25q-28 -60 -76 -88.5t-103 -28.5q-59 0 -76.5 25t0.5 85l89 300l-67 6z" />
    <glyph glyph-name="cent.fitted" unicode="&#xe080;" horiz-adv-x="492" 
d="M391 586l28 7l-25 -74q46 -4 77.5 -30t31.5 -66q0 -28 -16 -43.5t-34 -15.5q-23 0 -31.5 12.5t-2.5 26.5q11 28 11 45q0 20 -6 32.5t-14 16.5t-22 7l-124 -385q134 1 190 122h4l2 -37q-29 -43 -84 -73.5t-119 -36.5l-23 -78l-30 -7l29 85q-79 2 -123.5 40t-43.5 115
q2 68 38.5 133t105.5 105q67 38 162 34zM191 222q0 -91 52 -100q24 68 124 384q-75 -8 -125 -101t-51 -183z" />
    <glyph glyph-name="currency.taboldstyle" unicode="&#xe081;" horiz-adv-x="455" 
d="M271 369h-1q-56 0 -92.5 -54.5t-40.5 -124.5q-2 -45 19 -73.5t57 -28.5q65 0 99 55.5t37 124.5q5 101 -78 101zM282 405h1q63 0 95 -33l70 74l34 -43l-84 -61q22 -32 20 -90q-2 -39 -20.5 -79t-46.5 -66l61 -61l-48 -45l-46 81q-48 -33 -113 -33q-60 0 -94 32l-72 -76
l-26 43l75 60q-24 38 -21 92q2 41 22 82.5t52 66.5l-57 54l51 46l42 -73q45 29 105 29z" />
    <glyph glyph-name="dollar.fitted" unicode="&#xe082;" horiz-adv-x="492" 
d="M348 129v1q0 32 -18.5 56t-61.5 56l-67 -213q6 -2 22 -2q51 0 88 26t37 76zM225 500v-1q0 -51 72 -104l65 202q-12 3 -31 3q-44 0 -75 -26.5t-31 -73.5zM387 679l26 5l-26 -74q27 -4 52.5 -18.5t35.5 -27.5q21 22 34 40l6 -9q-48 -119 -64 -186l-12 4q32 148 -59 179
l-67 -208q74 -57 91 -74q47 -47 47 -109q0 -73 -53 -126q-69 -64 -183 -64q-13 0 -19 1l-24 -76l-28 -7l29 85q-76 4 -151 52q31 64 60 172l15 6q-11 -44 -14 -80q-6 -112 97 -130q8 23 32 98.5l40 122.5l-70 58q-56 42 -56 114q0 90 74 149q52 40 131 40q14 0 35 -3z" />
    <glyph glyph-name="dotlessi.sc" unicode="&#xe083;" horiz-adv-x="302" 
d="M108 476l6 14q14 0 58 -2t67 -2q38 0 79 2t49 2l-4 -14q-33 -1 -43.5 -6t-16.5 -20q-12 -29 -65 -210q-53 -184 -56 -205q-2 -14 7 -18t49 -7l-6 -14q-10 0 -55.5 2t-78.5 2q-27 0 -73.5 -2t-56.5 -2l4 14q35 2 46.5 7t17.5 18q8 17 67 210q47 151 57 206q2 15 -5.5 19
t-46.5 6z" />
    <glyph glyph-name="egrave.superior" unicode="&#xe084;" horiz-adv-x="315" 
d="M300 589l-8 -3l-32 30.5l-29 26.5t-14 14q-13 13 -13 30q1 10 8.5 16.5t16.5 6.5q19 0 32 -20q4 -6 11 -24.5l16 -43.5zM340 394l-2 -29q-59 -67 -157 -67q-44 0 -73.5 20t-29.5 65q0 40 22 80.5t66 67.5q43 28 106 28q46 0 69.5 -19t23.5 -52q0 -18 -12 -29
q-9 -8 -29 -15q-55 -16 -136 -22q-8 -26 -8 -55q0 -48 43 -48q77 0 111 75h6zM266 547h-1q-7 0 -16.5 -6.5t-26.5 -33.5t-31 -72q39 3 64 12q13 5 22.5 24.5t9.5 44.5q0 31 -21 31z" />
    <glyph glyph-name="f_i.sc" unicode="&#xe085;" horiz-adv-x="745" 
d="M101 476l5 14q8 0 60 -2t80 -2h116q90 0 141 7q-32 -82 -52 -164h-13q10 61 0 101q-5 23 -24.5 31.5t-72.5 8.5h-22q-12 0 -16 -11q-15 -40 -62 -207q7 -2 42 -2q40 0 64 14.5t44 59.5l11 -1q-29 -70 -55 -193h-12q8 53 -3 77.5t-59 24.5q-23 0 -39 -2q-49 -175 -53 -194
q-3 -18 13 -20q3 0 15 -1.5l24 -3t21 -1.5l-6 -14q-13 0 -71.5 2t-85.5 2q-25 0 -69 -2t-55 -2l3 14l39 4q19 3 26 18q20 54 70 218q48 167 54 202q3 11 0 15t-12 5zM551 476l6 14q15 0 58 -2t67 -2q38 0 79 2t49 2l-4 -14q-33 -1 -43.5 -6t-16.5 -20q-12 -29 -65 -210
q-53 -184 -56 -205q-2 -14 7 -18t49 -7l-6 -14q-10 0 -55.5 2t-78.5 2q-27 0 -73.5 -2t-56.5 -2l4 14q35 2 46.5 7t17.5 18q8 17 67 210q47 151 57 206q2 15 -5.5 19t-46.5 6z" />
    <glyph glyph-name="f_l.sc" unicode="&#xe086;" horiz-adv-x="889" 
d="M101 476l5 14q8 0 60 -2t80 -2h116q90 0 141 7q-32 -82 -52 -164h-13q10 61 0 101q-5 23 -24.5 31.5t-72.5 8.5h-22q-12 0 -16 -11q-15 -40 -62 -207q7 -2 42 -2q40 0 64 14.5t44 59.5l11 -1q-29 -70 -55 -193h-12q8 53 -3 77.5t-59 24.5q-23 0 -39 -2q-49 -175 -53 -194
q-3 -18 13 -20q3 0 15 -1.5l24 -3t21 -1.5l-6 -14q-13 0 -71.5 2t-85.5 2q-25 0 -69 -2t-55 -2l3 14l39 4q19 3 26 18q20 54 70 218q48 167 54 202q3 11 0 15t-12 5zM854 166l10 -6q-7 -13 -18.5 -43.5l-26 -68.5l-20.5 -54q-31 6 -252 6q-33 0 -85 -2q-54 -2 -56 -2l4 14
l39 4q22 3 29 20q15 35 68 215q47 162 55 204q4 18 -15 19l-40 4l5 14q11 0 53.5 -2t72.5 -2q31 0 78.5 2t59.5 2l-4 -14l-41 -5q-19 -3 -28 -26q-4 -9 -62 -201q-55 -193 -58 -215q-2 -6 2.5 -9.5t15.5 -3.5q83 0 123 33q55 46 91 117z" />
    <glyph glyph-name="florin.fitted" unicode="&#xe087;" horiz-adv-x="492" 
d="M92 327l14 23q30 -3 83 -3q47 169 112 229q40 36 75.5 50.5t81.5 14.5q42 0 67 -19.5t25 -55.5q0 -25 -16.5 -40t-36.5 -15q-22 0 -32 8.5t-6 24.5q7 26 7 44q0 36 -26 36q-29 0 -50 -61q-22 -60 -60 -216q55 0 115 2l-13 -23q-78 3 -107 3q-52 -199 -79 -274
q-52 -137 -146 -198q-66 -41 -122 -41q-38 0 -59.5 17t-21.5 44q0 22 15.5 36.5t36.5 14.5q24 0 33 -30q15 -55 39 -55q18 0 30.5 17t29.5 76q26 88 104 393q-42 0 -93 -2z" />
    <glyph glyph-name="florin.oldstyle" unicode="&#xe088;" horiz-adv-x="478" 
d="M97 297l14 25q11 -2 75 -2q43 146 104 203q69 65 155 65q37 0 63 -18t26 -47t-17 -44.5t-43 -15.5q-21 0 -31.5 11.5t-2.5 30.5q10 23 10 40q1 26 -18 26q-25 0 -42 -45q-17 -46 -60 -206q85 0 108 2l-11 -26q-44 2 -103 2q-44 -163 -69 -234q-27 -81 -61.5 -128.5
t-84.5 -76.5q-55 -33 -113 -33q-37 0 -60 17.5t-23 42.5q0 23 17.5 39.5t45.5 16.5q24 0 28 -34q5 -59 25 -59q15 0 24 13t21 53l59.5 214.5t46.5 168.5q-60 0 -83 -1z" />
    </font>
</defs>
</svg>
