<?xml version="1.0" standalone="no"?>
<!DOCTYPE svg PUBLIC "-//W3C//DTD SVG 1.1//EN" "http://www.w3.org/Graphics/SVG/1.1/DTD/svg11.dtd" >
<svg>
<metadata>
Created by FontForge 20090622 at Wed Sep 14 10:15:29 2016
 By deploy user
&#194;&#169; 2003 Adobe Systems Incorporated. All Rights Reserved.
</metadata>
<defs>
<font id="KeplerStd-Italic" horiz-adv-x="1000" >
  <font-face 
    font-family="Kepler Std"
    font-weight="400"
    font-style="italic"
    font-stretch="normal"
    units-per-em="1000"
    panose-1="2 4 6 3 6 7 10 9 2 4"
    ascent="700"
    descent="-300"
    x-height="441"
    cap-height="634"
    bbox="-208 -327 3778.11 882"
    underline-thickness="58"
    underline-position="-82"
    slope="-13"
    unicode-range="U+0020-U+FB06"
  />
<missing-glyph horiz-adv-x="500" 
d="M0 0v700h500v-700h-500zM250 395l170 255h-340zM280 350l170 -255v510zM80 50h340l-170 255zM50 605v-510l170 255z" />
    <glyph glyph-name="T_h" unicode="Th" horiz-adv-x="994" 
d="M129 454l-24 10q20 43 68 180q17 -7 70 -10q54 -3 154 -3h67q178 0 221 8q1 6 3.5 15t2.5 12q54 3 96 12q-29 -70 -121 -384q112 147 230 147q35 0 51 -18q24 -22 -1 -96q-76 -227 -88 -266q-9 -27 7 -27q21 0 50 29t48 67l19 -21q-30 -60 -73 -92t-89 -32q-72 0 -32 120
q72 211 83 252q11 40 -21 40q-31 0 -72.5 -29.5t-82.5 -87.5q-43 -62 -74 -156q-16 -46 -39 -126q-36 -2 -87 -7q129 420 177 601q-56 11 -202 10q-21 -61 -79 -263q-62 -219 -76 -280q-5 -27 19 -28q44 -6 73 -7l-9 -27q-14 0 -69 1.5t-83 1.5q-10 0 -145 -3l9 27
q14 1 59 6q32 3 42 28q28 77 90 286q67 223 75 258q-94 0 -131 -9.5t-58 -40.5q-34 -46 -58 -98z" />
    <glyph glyph-name="T_h.swash" unicode="&#xe060;h" horiz-adv-x="1048" 
d="M843 682q-29 -73 -121 -388q112 147 228 147q33 0 51 -18q24 -22 -1 -96q-82 -247 -87 -263q-8 -30 7 -30q21 0 50 29t47 68l20 -21q-30 -60 -73 -92.5t-90 -32.5q-75 0 -34 120q74 217 83 251q11 40 -20 40q-70 0 -152 -117q-44 -60 -75 -155q-26 -81 -39 -126
q-36 -2 -89 -7q111 362 115 376l68 242q-29 -14 -100 -14q-21 0 -117 4q-30 -91 -79 -264q-55 -191 -74 -275q-3 -15 1 -21.5t19 -7.5q47 -5 81 -7l-11 -27q-20 0 -75 1.5t-85 1.5q-31 0 -88 -1.5t-67 -1.5l8 27q12 1 68 7q33 3 43 27q26 67 91 286q62 208 75 260
q-68 4 -102 4q-134 0 -134 -93q0 -27 17 -53q9 -14 2 -29q-3 -11 -14 -19t-25 -8q-22 0 -38 21t-16 57q0 74 59 116t160 43q73 0 183 -4q92 -5 133 -5q72 0 109.5 10.5t68.5 40.5z" />
    <glyph glyph-name="f_f" unicode="ff" horiz-adv-x="519" 
d="M74 424h74q32 114 88 169q67 64 154 64q77 0 105 -43q63 66 135 66q39 0 63.5 -19.5t24.5 -50.5q0 -25 -14.5 -38t-32.5 -13q-16 0 -24 7t-6 20q4 20 4 28q0 36 -34 36q-46 0 -77 -85q-20 -57 -41 -141h101l-11 -28l-98 -6q-78 -315 -112 -406q-47 -121 -141 -174
q-46 -27 -88 -27q-20 0 -40.5 14t-20.5 34q0 15 12.5 29.5t24.5 17.5q15 6 30 -13q22 -31 53 -31q25 0 41 20.5t31 61.5q34 98 122 474h-171q-78 -319 -118 -428q-48 -124 -138 -177q-41 -25 -89 -25q-28 0 -51.5 17.5t-23.5 41.5q0 15 12 29.5t25 18.5q18 8 32 -15
q28 -45 60 -45q27 0 45 26t36 85q40 120 122 471l-74 7zM235 424h171q21 82 49 136q-5 28 -26 47.5t-54 19.5q-68 0 -106 -94q-21 -56 -34 -109z" />
    <glyph glyph-name="f_i" unicode="fi" horiz-adv-x="520" 
d="M75 424h73q37 133 100 194q63 62 155 62q56 0 88 -23.5t32 -62.5q0 -25 -14 -41t-40 -16q-19 0 -26 9q-12 10 -7 28q7 23 7 29q2 49 -57 49q-62 0 -103 -87q-22 -49 -48 -141q212 -1 272 17l3 -4q-24 -51 -77 -218q-32 -98 -46 -155q-6 -30 8 -30q22 0 51.5 30t46.5 66
l19 -21q-31 -59 -74.5 -91t-89.5 -32q-41 0 -47 32t12 80l95 298l-182 -8q-75 -306 -118 -426q-47 -123 -138 -177q-39 -25 -89 -25q-29 0 -52 18t-23 41q0 15 12 30t27 19q17 6 30 -15q27 -46 60 -46q27 0 45 25.5t36 84.5q42 131 122 471l-74 8z" />
    <glyph glyph-name="f_l" unicode="fl" horiz-adv-x="519" 
d="M74 424h72q21 75 44 118.5t57 75.5q66 62 153 62q61 0 94 -28q15 3 43.5 11.5t39.5 11.5q-33 -82 -99 -301q-76 -254 -88 -310q-6 -29 9 -29q20 0 49.5 28t47.5 67l20 -21q-31 -60 -75 -92t-90 -32q-72 0 -36 117l148 494q-5 21 -25.5 37.5t-52.5 16.5q-67 0 -104 -85
q-23 -49 -47 -141h117l-12 -28l-114 -8q-77 -314 -118 -425q-45 -123 -138 -179q-39 -24 -89 -24q-29 0 -52 18t-23 41q0 15 11.5 29t24.5 18q19 8 32 -13q27 -46 61 -46q27 0 44.5 25.5t36.5 84.5q43 130 122 471l-74 9z" />
    <glyph glyph-name="f_f_i" unicode="ffi" horiz-adv-x="778" 
d="M74 424h74q33 115 89 169q66 63 152 63q40 0 70 -13t42 -31q66 68 160 68q55 0 87.5 -23t32.5 -61q0 -25 -14.5 -41.5t-40.5 -16.5q-16 0 -24 8q-13 10 -8 30q7 21 7 28q2 48 -57 48q-61 0 -103 -88q-25 -52 -47 -140q211 -1 271 17l3 -4q-28 -60 -77 -215
q-35 -114 -46 -159q-6 -29 8 -29q21 0 50.5 30t46.5 66l20 -20q-31 -59 -74.5 -91.5t-89.5 -32.5q-41 0 -47.5 32t11.5 80l40 123.5t55 174.5l-180 -6q-74 -303 -112 -406q-48 -123 -140 -176q-46 -26 -87 -26q-20 0 -40.5 14.5t-20.5 33.5q0 16 13.5 31t24.5 18
q13 3 29 -15q23 -31 53 -31q25 0 39.5 20t30.5 63q38 107 122 474h-171q-78 -319 -118 -428q-47 -123 -138 -177q-41 -25 -90 -25q-28 0 -50.5 17.5t-22.5 41.5q0 16 12.5 31.5t26.5 17.5q17 5 30 -16q27 -45 59 -45q27 0 45 25.5t36 85.5q36 110 123 471l-75 7zM235 424
h171q19 74 53 135q-6 29 -27.5 48.5t-55.5 19.5q-68 0 -106 -93q-20 -49 -35 -110z" />
    <glyph glyph-name="f_f_l" unicode="ffl" horiz-adv-x="778" 
d="M74 424h74q31 113 88 168q68 65 155 65q37 0 66.5 -12.5t42.5 -30.5q68 66 159 66q62 0 94 -29q15 3 42 11.5t41 12.5q-29 -68 -99 -301q-76 -254 -88 -310q-6 -29 8 -29q20 0 49.5 28t47.5 67l20 -21q-30 -60 -74 -92t-90 -32q-72 0 -36 117l147 494q-5 21 -25 37.5
t-52 16.5q-66 0 -105 -87q-21 -45 -46 -139h116l-12 -28l-112 -6q-77 -313 -112 -407q-48 -122 -140 -175q-46 -26 -87 -26q-21 0 -41.5 14t-20.5 34q0 15 13 30t24 18q13 4 29 -13q24 -32 55 -32q25 0 40 20t30 63q33 93 122 474h-171q-78 -319 -118 -428
q-47 -122 -138 -177q-41 -25 -90 -25q-28 0 -51 17.5t-23 41.5q0 15 12 29.5t26 18.5q17 6 31 -14q26 -46 60 -46q27 0 45 25.5t36 84.5q37 113 123 472l-75 7zM235 424h171q19 78 53 138q-5 27 -27 46t-55 19q-69 0 -107 -93q-19 -46 -35 -110z" />
    <glyph glyph-name=".notdef" horiz-adv-x="500" 
d="M0 0v700h500v-700h-500zM250 395l170 255h-340zM280 350l170 -255v510zM80 50h340l-170 255zM50 605v-510l170 255z" />
    <glyph glyph-name=".null" horiz-adv-x="0" 
 />
    <glyph glyph-name="nonmarkingreturn" horiz-adv-x="333" 
 />
    <glyph glyph-name="space" unicode=" " horiz-adv-x="207" 
 />
    <glyph glyph-name="exclam" unicode="!" horiz-adv-x="204" 
d="M230 643h1q23 0 36 -29t5 -56q-6 -25 -37 -82q-72 -133 -111 -272h-29q34 134 43 276q3 62 10 87q8 30 34 53t48 23zM62 -13h-1q-21 0 -34 15.5t-12 41.5q1 29 20 49.5t45 20.5q24 0 38 -17t12 -44q-1 -30 -20 -48t-48 -18z" />
    <glyph glyph-name="quotedbl" unicode="&#x22;" horiz-adv-x="301" 
d="M293 474l-23 5q19 51 29.5 107t8.5 83q13 8 37 18t36 10q13 0 17 -20.5t-1 -31.5q-15 -55 -104 -171zM152 474l-21 5q18 52 28.5 107t8.5 83q11 8 35.5 18t36.5 10q14 0 18 -20.5t-1 -31.5q-14 -53 -105 -171z" />
    <glyph glyph-name="numbersign" unicode="#" horiz-adv-x="441" 
d="M335 403h-97l-48 -121h97zM281 593l39 3l-12 -27.5l-21.5 -49.5l-23.5 -54h96q42 103 51 128l41 3q-38 -84 -57 -131q26 0 54 0.5t34 0.5q-19 -35 -29 -65q-7 0 -34 0.5t-51 0.5l-47 -119q90 2 96 2q-13 -25 -27 -66h-95q-14 -36 -55 -149l-41 -3l62 152h-97l-58 -149
l-42 -6l66 155q-52 0 -85 -1q15 29 27 66q8 0 18.5 -0.5t29.5 -1t36 -0.5l50 121q-45 1 -98 -1q18 35 26 64q19 -1 96 -1q12 28 29.5 73.5t21.5 54.5z" />
    <glyph glyph-name="dollar" unicode="$" horiz-adv-x="472" 
d="M353 146v1q0 35 -19 57t-67 55l-68 -220q5 -1 16 -1q59 0 98.5 27.5t39.5 80.5zM191 473v-1q0 -33 19 -55t59 -49l65 209q-14 2 -27 2q-54 0 -85 -30t-31 -76zM365 676l38 6l-28 -84q23 -5 46.5 -18t33.5 -25q6 2 29 37l18 -10q-37 -82 -60 -175l-24 4q30 124 -54 158
l-68 -215q69 -47 86 -63q51 -42 51 -105q0 -66 -49 -115q-62 -61 -175 -61q-14 0 -18 1l-27 -87l-39 -7l32 97q-72 9 -147 55q29 66 52 164l29 5q-13 -38 -14 -72q-7 -100 90 -121l73 230q-64 45 -66 47q-60 43 -60 114q0 81 69 133q50 37 127 37q20 0 32 -2z" />
    <glyph glyph-name="percent" unicode="%" horiz-adv-x="733" 
d="M147 -18l-29 26l475 560q-55 -29 -123 -29q-46 0 -75 13q5 -13 5 -41q0 -88 -54.5 -161.5t-137.5 -73.5q-48 0 -77 28.5t-29 83.5q0 87 58.5 162t142.5 75q30 0 59 -16l13 10q42 -48 110 -48q88 0 140 44q10 8 38 42l54 6zM302 594h-1q-25 0 -45 -19q-34 -30 -56.5 -89.5
t-22.5 -111.5q0 -66 49 -66q40 0 71 38.5t45.5 86t14.5 89.5q0 72 -55 72zM602 359h1q50 0 75 -30t25 -81q0 -89 -52.5 -164t-137.5 -75q-49 0 -78 28t-29 84q0 83 57.5 160.5t138.5 77.5zM607 328h-1q-26 0 -46 -19q-33 -29 -55.5 -89t-22.5 -113q0 -66 50 -66
q56 0 92.5 72.5t36.5 137.5q0 77 -54 77z" />
    <glyph glyph-name="ampersand" unicode="&#x26;" horiz-adv-x="653" 
d="M364 355l-28 -30q-22 4 -39 4q-65 0 -107 -45t-42 -113q0 -69 41 -106.5t108 -37.5q86 0 138.5 57t59.5 147h18l16 -56q-30 -88 -103 -139.5t-173 -51.5q-90 0 -149.5 42t-59.5 129q0 85 71 142q51 41 135 51v5q-79 24 -79 104q0 76 57.5 120.5t139.5 44.5
q79 0 112.5 -32.5t33.5 -69.5q0 -28 -13.5 -42.5t-32.5 -14.5q-18 0 -26.5 10.5t-4.5 24.5q6 24 6 32q0 28 -17.5 46t-53.5 18q-53 0 -82.5 -46t-29.5 -101q0 -67 42 -85q22 0 58 4zM336 188l-19 16q24 50 61.5 83t77.5 33q12 0 127 -5q62 -3 65 42q2 20 -2 39l8 6
q10 -2 19 -11.5t8 -23.5q-1 -30 -22 -57.5t-46 -43.5q-34 -22 -70 -21q-16 0 -57 2.5t-57 2.5q-58 0 -93 -62z" />
    <glyph glyph-name="quotesingle" unicode="'" horiz-adv-x="163" 
d="M153 474l-21 5q41 121 37 190q10 8 35 18t37 10q13 0 17.5 -20.5t-0.5 -31.5q-13 -52 -105 -171z" />
    <glyph glyph-name="parenleft" unicode="(" horiz-adv-x="328" 
d="M420 718l11 -26q-104 -46 -183 -182q-58 -100 -90 -224t-32 -246q0 -155 70 -213q-4 -5 -11 -13t-10 -12q-125 90 -125 292q0 144 60.5 292.5t165.5 239.5q67 58 144 92z" />
    <glyph glyph-name="parenright" unicode=")" horiz-adv-x="328" 
d="M-45 -198l-11 26q104 46 183 182q58 99 90 223t32 247q0 155 -70 213q2 3 10 12.5t10 12.5q126 -88 126 -292q0 -144 -61 -292t-166 -240q-65 -58 -143 -92z" />
    <glyph glyph-name="asterisk" unicode="*" horiz-adv-x="389" 
d="M316 515l-2 19q25 8 61.5 33t43.5 27q14 3 26 -10.5t14 -23.5q2 -11 -6.5 -29.5t-23.5 -20.5q-5 -1 -46.5 4.5t-66.5 0.5zM304 543l-18 5q7 24 7 69t3 52q5 14 22 18.5t27 1.5q11 -3 21.5 -17t3.5 -30q-2 -5 -29 -39.5t-37 -59.5zM270 492l18 -6q-7 -25 -5.5 -69.5
t-1.5 -50.5q-6 -14 -24 -19t-28 -3q-10 3 -21 18t-6 31q2 5 30 39t38 60zM259 519l2 -20q-25 -7 -60 -32.5t-42 -26.5q-15 -3 -28 10.5t-15 24.5q-1 11 6.5 28.5t22.5 20.5q6 1 47.5 -4.5t66.5 -0.5zM300 492l15 14q15 -19 53 -38.5t42 -24.5q8 -14 3 -31.5t-13 -24.5
q-5 -5 -14 -9t-21 -3.5t-18 9.5q-2 3 -16 45t-31 63zM276 546l-15 -15q-17 18 -54 37.5t-42 25.5q-7 15 -3 31t11 25q6 5 15 8.5t20.5 3t17.5 -9.5q4 -5 19.5 -46t30.5 -60z" />
    <glyph glyph-name="plus" unicode="+" horiz-adv-x="519" 
d="M283 11h-54v199h-181v52h181v180h54v-180h178v-52h-178v-199z" />
    <glyph glyph-name="comma" unicode="," horiz-adv-x="194" 
d="M-25 -111l-8 25q40 8 71.5 33.5t38.5 58.5q1 4 -1 4t-6 -2q-11 -6 -24 -6q-17 0 -28.5 13.5t-10.5 34.5q1 28 20 47.5t46 19.5q25 0 39.5 -20t13.5 -53q-2 -61 -47.5 -104t-103.5 -51z" />
    <glyph glyph-name="hyphen" unicode="-" horiz-adv-x="297" 
d="M40 191l22 60q102 -3 216 0l-21 -60q-113 3 -217 0z" />
    <glyph glyph-name="period" unicode="." horiz-adv-x="197" 
d="M58 -14h-1q-21 0 -34.5 15.5t-12.5 41.5q2 29 20.5 49.5t44.5 20.5q24 0 38 -17t12 -44q-1 -30 -20 -48t-47 -18z" />
    <glyph glyph-name="slash" unicode="/" horiz-adv-x="350" 
d="M386 680l46 -16q-53 -80 -214 -386l-198 -377l-47 13q33 55 209 382z" />
    <glyph glyph-name="zero" unicode="0" horiz-adv-x="472" 
d="M355 625h2q75 0 109 -47.5t34 -126.5q0 -115 -48.5 -243t-130.5 -185q-54 -37 -125 -37q-76 0 -112.5 49t-36.5 126q0 115 52.5 242.5t138.5 185.5q53 36 117 36zM351 596h-1q-43 0 -86 -54q-55 -68 -92.5 -196t-37.5 -226q0 -48 17.5 -76t52.5 -28q47 0 89 55
q50 67 86.5 199.5t36.5 224.5q0 101 -65 101z" />
    <glyph glyph-name="one" unicode="1" horiz-adv-x="472" 
d="M365 24l-9 -27q-41 0 -94.5 1.5t-68.5 1.5q-21 0 -71 -1.5t-85 -1.5l10 27l73 7q20 2 28 6t13 17q22 56 78 254q64 228 69 248q3 13 -10 13q-19 -1 -105 -3l14 28q172 19 207 31l5 -3q-26 -75 -92 -314q-56 -199 -68 -255q-2 -11 2 -15.5t17 -6.5z" />
    <glyph glyph-name="two" unicode="2" horiz-adv-x="472" 
d="M423 172l22 -13q-43 -81 -74 -163q-76 4 -276 4q-79 0 -105 -2l-3 8q4 6 11 17.5l12.5 20t8.5 14.5q112 70 198.5 146t122.5 134q47 78 47 151q0 105 -83 105q-50 0 -78 -38.5t-35 -97.5q-5 -45 -40 -45q-39 0 -39 50q0 25 17.5 57t48.5 57q59 48 142 48q81 0 127 -46
q37 -39 37 -103q0 -102 -106 -195q-58 -48 -277 -207q198 2 241 7q19 3 33 21q30 38 48 70z" />
    <glyph glyph-name="three" unicode="3" horiz-adv-x="472" 
d="M153 461l-21 37q17 45 72.5 86t131.5 41q62 0 100.5 -31.5t38.5 -86.5q0 -79 -80 -130q-44 -27 -98 -41l-1 -5q81 -12 117 -57q26 -31 26 -77q0 -101 -87 -164q-64 -47 -168 -47q-70 0 -118.5 33t-48.5 86q0 22 12.5 36t33.5 14q28 0 34 -43q16 -97 97 -97q65 0 104.5 58
t39.5 133q0 104 -104 104q-27 0 -56 -8l-11 18l11 17q26 2 65 9q62 12 100.5 53t38.5 106q0 39 -20.5 61t-56.5 22q-101 0 -141 -127h-11z" />
    <glyph glyph-name="four" unicode="4" horiz-adv-x="472" 
d="M285 213q22 69 57.5 191l42.5 146q-175 -170 -297 -322q13 -5 74 -10t123 -5zM27 193l-1 25q166 185 371 384q58 12 86 23l6 -4q-18 -56 -114 -406q65 1 108 18l-6 -29q-39 -22 -112 -28q-13 -45 -47 -180q-56 0 -94 -12l-6 5q12 34 56 184q-69 0 -148 6t-99 14z" />
    <glyph glyph-name="five" unicode="5" horiz-adv-x="472" 
d="M114 252l-19 26q31 62 68 179.5t45 162.5q24 -9 63 -15q49 -7 87 -7q64 0 99.5 8.5t57.5 31.5l13 -19q-31 -55 -78 -78q-44 -22 -116 -22q-64 0 -111 10q-8 -21 -35.5 -99.5t-40.5 -107.5q67 54 149 54q68 0 108.5 -38t39.5 -110q0 -112 -85 -182q-70 -60 -173 -60
q-70 0 -117 32t-47 84q0 22 12.5 36.5t33.5 14.5q28 0 34 -44q14 -94 95 -94q68 0 107.5 64.5t39.5 145.5q0 47 -20 74q-23 35 -70 35q-85 0 -140 -82z" />
    <glyph glyph-name="six" unicode="6" horiz-adv-x="472" 
d="M500 620l-2 -29q-16 2 -31 2q-97 0 -182 -78t-121 -203q89 81 170 81q58 0 93.5 -39.5t35.5 -107.5q0 -126 -95 -205q-64 -55 -155 -55q-82 0 -124 49.5t-42 135.5q0 107 50.5 209.5t138.5 168.5q102 76 221 76q28 0 43 -5zM294 348h-1q-77 0 -128 -86q-28 -49 -28 -126
q0 -56 22 -88t63 -32q52 0 88 45q27 34 42.5 85.5t15.5 101.5q0 43 -18 71.5t-56 28.5z" />
    <glyph glyph-name="seven" unicode="7" horiz-adv-x="472" 
d="M137 427l-24 9q19 35 41.5 98.5t25.5 85.5q13 -6 49 -7q28 -2 153 -2q146 0 168 1l3 -8q-31 -64 -99 -157q-114 -147 -177 -249t-92 -210l-4 -3q-38 0 -58 14q-17 12 -13 35q8 37 71 121q41 62 149.5 195t141.5 180q-31 4 -151 4q-58 0 -85.5 -4t-37.5 -11t-22 -26
q-31 -50 -39 -66z" />
    <glyph glyph-name="eight" unicode="8" horiz-adv-x="472" 
d="M340 625h1q60 0 100.5 -34t40.5 -91q0 -64 -61 -109q-22 -17 -93 -57q60 -52 83.5 -87t23.5 -78q0 -83 -76 -138q-61 -45 -154 -45q-78 0 -126 37t-48 100q0 66 60 113q24 19 116 73q-71 69 -71 135q0 73 55 125q60 56 149 56zM324 596h-1q-47 0 -77 -32t-30 -81
q0 -66 91 -131q109 64 109 149q0 43 -25 69t-67 26zM221 15h2q52 0 88 32.5t36 86.5q0 39 -28 73.5t-89 83.5q-124 -74 -124 -161q0 -52 31.5 -83.5t83.5 -31.5z" />
    <glyph glyph-name="nine" unicode="9" horiz-adv-x="472" 
d="M59 -8l1 30q23 -5 48 0q105 6 176.5 84.5t103.5 196.5q-78 -78 -165 -78q-58 0 -96 38t-38 109q0 108 80 188q65 65 161 65q80 0 123 -53t43 -137q0 -116 -49.5 -222.5t-138.5 -167.5q-83 -59 -196 -59q-25 0 -53 6zM326 597h-1q-52 0 -89 -48q-56 -70 -56 -172
q0 -49 22.5 -78.5t61.5 -29.5q68 0 114 75q31 55 31 132q0 54 -21 87.5t-62 33.5z" />
    <glyph glyph-name="colon" unicode=":" horiz-adv-x="197" 
d="M58 -14h-1q-21 0 -34 15.5t-12 40.5q2 29 21 49t44 20q24 0 37.5 -16.5t11.5 -43.5q-1 -30 -20 -47.5t-47 -17.5zM132 275h-1q-21 0 -34 15.5t-12 40.5q2 29 20.5 49t44.5 20q24 0 37.5 -16.5t11.5 -43.5q-1 -29 -20 -47t-47 -18z" />
    <glyph glyph-name="semicolon" unicode=";" horiz-adv-x="197" 
d="M135 275h-1q-21 0 -34 15.5t-12 40.5q2 29 20.5 49t44.5 20q24 0 37.5 -16.5t11.5 -43.5q-1 -29 -20 -47t-47 -18zM-25 -110l-7 25q39 8 70 33.5t39 57.5q1 4 -1.5 4t-6.5 -2q-9 -6 -24 -6q-17 0 -28 13t-10 34q1 27 20 47t46 20q24 0 38.5 -19.5t13.5 -52.5
q-2 -60 -47.5 -103.5t-102.5 -50.5z" />
    <glyph glyph-name="less" unicode="&#x3c;" horiz-adv-x="500" 
d="M67 208v59l354 189v-60l-301 -158v-2l301 -156v-62z" />
    <glyph glyph-name="equal" unicode="=" horiz-adv-x="519" 
d="M462 171v-52h-414v52h414zM462 352v-52h-414v52h414z" />
    <glyph glyph-name="greater" unicode="&#x3e;" horiz-adv-x="500" 
d="M421 267v-59l-354 -190v60l299 158v2l-299 157v61z" />
    <glyph glyph-name="question" unicode="?" horiz-adv-x="396" 
d="M209 200l-23 -10q-32 48 -31 86q1 46 46 81q17 14 70 54t67 52q37 31 37 74q1 35 -20 55t-55 20q-39 0 -64 -21t-25 -59q0 -10 4 -28q5 -17 -8 -30q-12 -14 -35 -14q-18 0 -30.5 13.5t-12.5 34.5q0 55 54 94.5t124 39.5q64 0 103.5 -36t38.5 -101q-1 -76 -86 -131
q-59 -37 -117 -82q-48 -37 -37 -92zM150 -14h-1q-21 0 -34.5 15.5t-12.5 40.5q1 29 20 49t45 20q24 0 37.5 -16.5t11.5 -43.5q-1 -29 -19.5 -47t-46.5 -18z" />
    <glyph glyph-name="at" unicode="@" horiz-adv-x="734" 
d="M289 105v-1q0 -31 21 -31q43 0 90.5 59t69.5 119q14 35 18 52q3 24 -8 39t-33 15q-42 0 -82 -54q-33 -45 -54.5 -99t-21.5 -99zM525 -30l11 -26q-96 -102 -250 -102q-114 0 -180 70t-66 190q0 184 120.5 314t303.5 130q123 0 189.5 -66.5t66.5 -167.5q0 -110 -67 -197
t-173 -87q-49 0 -56 32.5t15 86.5q-33 -50 -79.5 -84.5t-89.5 -34.5q-57 0 -57 71q0 69 43 144.5t101 112.5q47 29 89 29q44 0 59 -37l9 24h68q-59 -141 -90 -267q-9 -42 18 -42q54 0 94 41.5t57.5 95t17.5 105.5q0 96 -59 151.5t-166 55.5q-143 0 -230 -107
q-105 -128 -105 -304q0 -100 46 -155q56 -66 153 -66q122 0 207 90z" />
    <glyph glyph-name="A" unicode="A" horiz-adv-x="585" 
d="M483 648l7 -4q-6 -112 -2 -357q3 -189 9 -232q1 -12 6.5 -17.5t17.5 -6.5l54 -6l-5 -28q-10 0 -54.5 1.5t-71.5 1.5q-19 0 -124 -3l8 28q45 4 56 10t12 29q2 74 2 192q-118 0 -191 -11q-73 -118 -98 -168q-13 -31 -0.5 -39.5t70.5 -12.5l-7 -28q-15 0 -54.5 1.5
t-56.5 1.5q-29 0 -66 -1.5t-46 -1.5l7 28q43 4 62 15t46 52q231 346 317 486q15 23 19 37l3 9q19 -1 43 6t37 18zM398 291q0 17 1 112.5t2 148.5l-169 -269q36 5 166 8z" />
    <glyph glyph-name="B" unicode="B" horiz-adv-x="566" 
d="M142 607l9 27q78 -3 117 -3q20 0 61.5 1.5t69.5 1.5q106 0 144 -40q26 -29 26 -76q0 -114 -110 -159q-29 -11 -81 -18v-5q84 -11 119 -49q32 -31 32 -87q0 -61 -33 -106.5t-88 -70.5q-56 -26 -155 -26q-27 0 -78.5 1.5t-77.5 1.5q-32 0 -119 -3l8 27q47 4 62.5 9t20.5 18
q32 91 85 276q61 218 70 255q2 13 -12 17t-70 8zM475 521v1q0 29 -14 50q-21 32 -97 32q-37 0 -42 -16q-6 -17 -70 -236q8 -1 42 -1q78 0 129.5 46t51.5 124zM427 217v1q0 39 -16 63q-30 43 -125 43q-21 0 -43 -2q-65 -233 -75 -277q-1 -6 3 -9.5t18.5 -6t40.5 -2.5
q92 0 144 51t53 139z" />
    <glyph glyph-name="C" unicode="C" horiz-adv-x="586" 
d="M535 173h16q3 -44 2 -54q-37 -61 -107 -98t-150 -37q-108 0 -165 62t-57 173q0 96 40.5 191.5t112.5 159.5q92 77 211 77q52 0 92 -17t58 -44l35 52l21 -10q-46 -118 -64 -207l-25 -1q16 96 -11 143q-31 53 -101 53q-84 0 -148 -71q-57 -65 -87 -155.5t-30 -180.5
q0 -89 35 -135q41 -52 110 -52q77 0 127.5 38t84.5 113z" />
    <glyph glyph-name="D" unicode="D" horiz-adv-x="653" 
d="M140 608l11 26q8 0 49.5 -1.5t62.5 -1.5q19 0 67 2q50 2 82 2q121 0 180 -53q64 -54 64 -172q0 -126 -62.5 -233.5t-172.5 -154.5q-67 -27 -171 -27q-38 0 -75 3q-50 2 -75 2q-20 0 -67 -1.5t-56 -1.5l10 28l47 4q17 2 25 8t15 26q17 48 75 247q48 163 72 263
q4 15 -0.5 20.5t-18.5 7.5zM388 605h-1q-35 0 -47 -3.5t-16 -13.5q-20 -50 -80 -266q-66 -241 -71 -272q-1 -9 2 -13.5t17 -8t41 -3.5q88 0 139 27q82 44 132.5 155.5t51.5 224.5q0 81 -32 121q-40 52 -136 52z" />
    <glyph glyph-name="E" unicode="E" horiz-adv-x="546" 
d="M143 607l10 27q16 0 66.5 -1.5t76.5 -1.5h152q102 0 142 6q-18 -36 -52 -172l-24 -1q6 54 6 90q-1 29 -19.5 38t-85.5 9h-73q-14 0 -21 -17q-32 -91 -70 -239q9 -2 76 -2q50 0 70.5 15.5t44.5 64.5h25q-34 -89 -63 -220h-24q8 65 -2.5 86.5t-62.5 21.5q-63 0 -75 -2
q-51 -177 -67 -252q-1 -8 -1.5 -13.5t7.5 -8.5t23.5 -4t45.5 -1q77 0 110 6.5t56 26.5q37 31 83 111l25 -9l-37.5 -88.5t-35.5 -83.5q-12 2 -78 5q-76 2 -162 2h-97q-14 0 -40 -0.5t-38 -0.5q-48 -2 -60 -2l9 27l56 7q14 2 21.5 8.5t13.5 24.5q30 89 81 268q48 166 66 246
q3 12 -1 17.5t-19 6.5z" />
    <glyph glyph-name="F" unicode="F" horiz-adv-x="514" 
d="M142 607l10 27q17 0 72.5 -1.5t81.5 -1.5h114q124 0 188 8q-10 -25 -20 -56t-16 -52.5l-12.5 -44t-7.5 -25.5h-26q9 43 9 90q0 31 -19.5 40.5t-91.5 9.5h-80q-17 0 -22 -15q-21 -55 -74 -253q9 -2 79 -2q60 0 82.5 14.5t48.5 70.5l24 -2q-15 -39 -36.5 -116.5
t-27.5 -112.5h-25q11 71 -1.5 92.5t-75.5 21.5q-68 0 -78 -1q-48 -172 -63 -241q-5 -22 17 -25q30 -4 76 -8l-9 -27q-18 0 -70.5 1.5t-72.5 1.5q-26 0 -76 -1.5t-62 -1.5l9 27l51 6q23 2 32 24q20 53 84 274q55 193 68 254q3 16 -14 18z" />
    <glyph glyph-name="G" unicode="G" horiz-adv-x="637" 
d="M599 418h-28q20 95 -11.5 146.5t-108.5 51.5q-73 0 -132 -52q-67 -61 -104.5 -161t-37.5 -204q0 -90 36 -134q40 -49 109 -49q86 0 110 59q17 42 41 135q7 31 2.5 41t-27.5 12l-62 6l9 27q11 0 64 -1.5t71 -1.5q38 0 116 3l-6 -26q-34 -5 -45 -9.5t-17 -19.5
q-23 -54 -44 -143q-8 -35 -12 -71l-94 -27q-64 -16 -118 -16q-112 0 -174 61t-62 171q0 125 62 238t167 162q68 31 149 31q60 0 101 -18.5t58 -42.5l38 56l22 -10q-50 -116 -72 -214z" />
    <glyph glyph-name="H" unicode="H" horiz-adv-x="667" 
d="M147 607l10 27q78 -3 121 -3q18 0 62 1.5t65 1.5l-7 -27q-42 -1 -57 -8t-23 -28q-23 -67 -67 -225q19 -1 122 -1q111 0 142 1q45 153 62 229q3 18 -9.5 24t-56.5 7l8 28q15 0 59 -1.5t62 -1.5q22 0 67 1.5t55 1.5l-7 -28q-43 -1 -58 -8t-23 -28q-23 -61 -73 -248
q-55 -199 -68 -259q-4 -22 9.5 -29t68.5 -9l-11 -28q-15 0 -62 1.5t-70 1.5q-17 0 -125 -3l10 28q46 3 61 11t23 35l69 240q-56 2 -139 2q-82 0 -126 -2q-49 -176 -66 -251q-4 -20 8.5 -26.5t60.5 -8.5l-8 -28q-114 3 -133 3q-21 0 -123 -3l8 28q45 2 62 9.5t24 26.5
q22 64 80 265q63 223 67 243q4 22 -9.5 29t-64.5 9z" />
    <glyph glyph-name="I" unicode="I" horiz-adv-x="310" 
d="M150 606l10 28q18 0 60 -1.5t63 -1.5q27 0 69.5 1.5t55.5 1.5l-9 -28l-44 -4q-15 -2 -22.5 -8t-13.5 -23q-18 -49 -76 -253q-59 -206 -69 -258q-4 -17 1 -23t19 -8l54 -5l-9 -27q-15 0 -64 1.5t-72 1.5q-29 0 -70.5 -1.5t-53.5 -1.5l10 27l43 5q18 2 26.5 8.5t15.5 26.5
q18 49 78 255l70 250q4 18 0 24.5t-21 8.5z" />
    <glyph glyph-name="J" unicode="J" horiz-adv-x="296" 
d="M146 607l11 27q16 0 54 -1.5t62 -1.5q23 0 67 1.5t59 1.5l-8 -27q-7 -1 -15 -2t-18 -2t-15 -2q-18 -3 -25 -25q-9 -23 -98 -350q-20 -74 -53 -178q-30 -90 -80 -135q-61 -60 -141 -60q-24 0 -33 12q-7 11 -9 27l7 9q21 -12 50 -12t49 19.5t41 78.5q26 67 72 229
q87 315 96 359q3 14 -1 20t-17 7q-32 4 -55 5z" />
    <glyph glyph-name="K" unicode="K" horiz-adv-x="601" 
d="M152 607l10 27q96 -3 120 -3q28 0 68.5 1.5t54.5 1.5l-8 -27l-39 -4q-18 -2 -25.5 -6.5t-12.5 -17.5q-20 -50 -74 -245q52 18 158 109.5t145 140.5q13 14 -6 16l-51 6l9 27q15 0 52 -1t58 -1q30 0 102 3l-9 -27q-43 -4 -62.5 -11t-44.5 -26q-21 -16 -110.5 -93
l-139.5 -118q29 -65 82.5 -171.5t74.5 -135.5q9 -13 25.5 -18.5t60.5 -8.5l-11 -28q-42 3 -95 -1q-22 -1 -66 -7q-8 23 -66.5 141t-76.5 159q-6 16 -13.5 20t-22.5 -1q-56 -203 -67 -255q-3 -13 2 -17.5t22 -6.5l46 -4l-9 -28q-11 0 -59.5 1.5t-72.5 1.5q-25 0 -65.5 -1.5
t-52.5 -1.5l9 28l42 4q29 4 39 30q31 91 81 264q58 203 68 252q4 15 -0.5 21t-22.5 7z" />
    <glyph glyph-name="L" unicode="L" horiz-adv-x="517" 
d="M471 186l27 -4q-8 -19 -34.5 -87.5t-39.5 -99.5q-38 5 -314 5q-55 0 -133 -3l8 27q8 1 53 6q24 3 33 24q25 72 84 279l67 246q2 11 -2 16.5t-18 6.5l-54 5l10 27q9 0 56 -1.5t69 -1.5q5 0 131 3l-8 -27l-52 -6q-16 -2 -23 -7t-12 -19q-25 -71 -74 -246q-63 -230 -75 -285
q-1 -6 2.5 -9t15 -4.5t35.5 -1.5q82 0 112.5 7t53.5 31q36 36 82 119z" />
    <glyph glyph-name="M" unicode="M" horiz-adv-x="811" 
d="M154 607l12 27q93 -3 110 -3q54 0 76 3q1 -26 10.5 -117.5l22.5 -206.5t17 -158q298 469 305 482q30 -3 74 -3q17 0 55 1.5t57 1.5l-8 -27q-13 -1 -34.5 -4t-25.5 -3q-21 -3 -27 -26q-81 -303 -117 -511q-4 -19 2.5 -25t27.5 -8l51 -6l-10 -27q-34 3 -135 3
q-77 0 -129 -3l9 27q49 5 62.5 12.5t20.5 30.5q12 41 32 115.5l52 198l57 215.5h-1q-201 -315 -365 -597q-8 -1 -23.5 -4t-18.5 -3q-3 66 -20.5 298l-21.5 285h-1q-140 -445 -152 -496q-8 -31 6 -41t75 -14l-9 -27q-15 0 -53 1.5t-61 1.5q-22 0 -66.5 -1.5t-50.5 -1.5l9 27
q45 6 53 8q28 5 43 40q57 140 175 506q3 12 -0.5 16t-15.5 6z" />
    <glyph glyph-name="N" unicode="N" horiz-adv-x="639" 
d="M497 123q103 382 112 446q2 17 -4 23.5t-27 8.5l-52 5l11 28q18 1 54.5 -1t47.5 -2q15 0 57 2t56 1l-10 -28q-26 -2 -48 -6q-22 -5 -33 -29q-21 -53 -72.5 -236t-85.5 -336q-30 0 -65 -11q-17 53 -50.5 149l-77.5 217l-65 183q-102 -387 -115 -457q-5 -26 -1 -35.5
t18 -11.5q35 -7 68 -9l-9 -27q-19 0 -62 1.5t-62 1.5q-58 0 -105 -3l10 27q8 0 50 7q24 6 40 42q28 67 142 489q9 33 -30 38l-57 6l10 28q8 0 43 -2t57 -2q39 0 66 4z" />
    <glyph glyph-name="O" unicode="O" horiz-adv-x="640" 
d="M433 647h1q103 0 158 -58.5t55 -164.5q0 -88 -35 -185t-93 -158q-93 -97 -231 -97q-101 0 -159.5 54.5t-58.5 164.5q0 105 49.5 215t129.5 169q80 60 184 60zM432 619h-1q-76 0 -137 -75q-54 -69 -88.5 -177t-34.5 -198q0 -78 32 -116t85 -38q81 0 140 71q53 69 86.5 179
t33.5 206q0 66 -28 107t-88 41z" />
    <glyph glyph-name="P" unicode="P" horiz-adv-x="540" 
d="M141 606l12 28q9 0 51 -1.5t62 -1.5q14 0 55 1.5t71 1.5q113 0 155 -51q34 -39 34 -106q0 -115 -83 -186q-64 -51 -158 -51q-47 0 -72 11l7 29q20 -7 49 -7q52 0 89 34q71 64 71 184q0 52 -23 78q-27 34 -90 34q-24 0 -34 -4.5t-15 -16.5q-27 -74 -84 -282
q-50 -177 -63 -236q-3 -18 1.5 -25t22.5 -8l65 -6l-10 -28q-15 0 -65 1.5t-84 1.5q-30 0 -75 -1.5t-52 -1.5l9 28l42 4q19 1 28.5 8.5t17.5 27.5q21 60 80 262q59 206 67 247q4 14 0 19.5t-18 6.5z" />
    <glyph glyph-name="Q" unicode="Q" horiz-adv-x="640" 
d="M431 619h-1q-74 0 -137 -76q-54 -70 -88 -177.5t-34 -199.5q0 -76 31.5 -115t87.5 -39q79 0 138 74q54 70 87 179t33 205q0 149 -117 149zM625 -107v-23q-17 -16 -53.5 -26.5t-71.5 -10.5q-49 0 -92.5 27t-104.5 81q-43 37 -88 51q-73 23 -109 73.5t-36 137.5
q0 105 49.5 215t127.5 167q84 62 187 62q102 0 157 -58.5t55 -164.5q0 -88 -35 -185.5t-91 -156.5q-75 -79 -182 -96v-3q11 -5 58 -28.5t77 -35.5q79 -34 152 -26z" />
    <glyph glyph-name="R" unicode="R" horiz-adv-x="564" 
d="M142 607l11 27q12 1 55.5 -1t60.5 -2q15 0 60 1.5t77 1.5q96 0 136 -35q32 -29 32 -90q0 -81 -57.5 -127.5t-153.5 -57.5l-1 -5q75 -13 104 -42.5t25 -81.5q3 -32 -12 -93q-17 -77 42 -78q23 0 31 2l-12 -29q-24 -6 -62 -6q-68 0 -89 31t-8 92q4 16 17 79q11 58 -14.5 82
t-79.5 27q-44 5 -65 2q-59 -205 -66 -243q-4 -18 0.5 -23.5t22.5 -7.5l51 -6l-9 -27q-10 0 -58 1.5t-74 1.5q-24 0 -67.5 -1.5t-57.5 -1.5l10 28l35 4q23 2 31.5 8.5t15.5 25.5q17 41 82 265q45 155 68 244q4 16 -1 21.5t-23 7.5zM381 604h-25q-25 0 -34 -21q-3 -8 -73 -246
q9 -1 30 -1q92 0 145 50.5t53 129.5q0 40 -19 61q-25 27 -77 27z" />
    <glyph glyph-name="S" unicode="S" horiz-adv-x="466" 
d="M70 215l30 5q-14 -48 -14 -89q0 -59 34.5 -87.5t93.5 -28.5q57 0 94.5 35t37.5 92q0 47 -36 81q-12 12 -31 29.5l-44.5 40l-37.5 33.5q-66 56 -66 131q0 93 71 149q52 41 130 41q45 0 79 -15t49 -37l34 48l21 -13q-34 -73 -65 -190l-27 4q20 81 -7.5 127t-88.5 46
q-55 0 -84 -33t-29 -84q0 -58 48 -96q25 -25 112 -102q62 -51 62 -118q0 -78 -50 -131q-63 -69 -184 -69q-104 0 -185 59q28 67 53 172z" />
    <glyph glyph-name="T" unicode="T" horiz-adv-x="564" 
d="M127 454l-24 9q32 68 69 181q17 -7 59 -10q46 -3 143 -3h66q126 0 162.5 2t62.5 11q-35 -83 -58 -181l-29 -8q13 70 11 111q-1 24 -25.5 31t-116.5 6q-24 -74 -77 -265q-58 -210 -73 -278q-5 -26 19 -28q44 -6 73 -7l-9 -28q-14 0 -69 1.5t-83 1.5q-11 0 -146 -3l8 28
q29 2 59 5q34 5 42 29q32 86 89 285q58 202 72 259q-62 0 -92 -4.5t-44 -13.5t-30 -32q-27 -37 -59 -99z" />
    <glyph glyph-name="U" unicode="U" horiz-adv-x="624" 
d="M739 634l-7 -27q-47 -3 -60.5 -12t-24.5 -42q-16 -49 -53.5 -180.5l-48.5 -168.5q-22 -76 -48.5 -118.5t-73.5 -72.5q-50 -30 -143 -30q-52 0 -95.5 17t-63.5 46q-41 59 -15 158q11 44 55 196t50 178q5 21 -14 23l-54 6l10 27q20 0 62 -1.5t63 -1.5q24 0 62 1.5t54 1.5
l-7 -27l-47 -6q-21 -3 -29 -22q-22 -56 -58.5 -184.5t-54.5 -209.5q-17 -79 19 -122q33 -38 100 -38q75 0 118.5 41.5t75.5 151.5q60 200 89 342q4 24 -0.5 31.5t-24.5 9.5l-51 6l9 27q13 0 49.5 -1.5t51.5 -1.5q18 0 53 1.5t52 1.5z" />
    <glyph glyph-name="V" unicode="V" horiz-adv-x="578" 
d="M96 606l9 28q10 0 49.5 -1.5t62.5 -1.5q7 0 130 3l-7 -28q-47 -3 -58.5 -8.5t-12.5 -22.5q-4 -86 1 -482l81 126.5l80.5 125.5l67 108t65.5 114q9 17 7.5 23.5t-13.5 8.5q-23 3 -62 7l8 28q5 0 45 -1.5t61 -1.5q14 0 51.5 1.5t57.5 1.5l-7 -28q-44 -4 -62.5 -14.5
t-42.5 -43.5l-170 -253.5t-185 -297.5q-38 0 -68 -14l-4 4q2 383 -9 589q-1 23 -27 25z" />
    <glyph glyph-name="W" unicode="W" horiz-adv-x="835" 
d="M100 607l8 27q81 -3 113 -3q21 0 42 0.5t46.5 1.5t39.5 1l-7 -27q-48 -3 -59 -9t-13 -28q-2 -29 -22 -456l110.5 218.5t131.5 266.5q6 14 10 30q37 -2 80 8q-1 -23 -2.5 -99.5t-3.5 -207t-4 -225.5q211 367 256 461q9 19 5.5 26t-19.5 9l-54 6l8 27q10 0 48 -1.5t56 -1.5
q20 0 55 1.5t52 1.5l-6 -27q-42 -4 -59 -12t-33 -32q-64 -98 -169 -278t-161 -287q-43 -4 -64 -14l-6 4q3 63 6 260.5t5 278.5l-106.5 -213l-97 -192t-58.5 -124q-47 -6 -65 -14l-6 4q20 433 17 586q-1 15 -5 20.5t-17 6.5q-28 4 -52 6z" />
    <glyph glyph-name="X" unicode="X" horiz-adv-x="588" 
d="M125 607l8 27q93 -3 119 -3q66 0 128 3l-6 -27q-38 -3 -47.5 -9t-5.5 -23q31 -105 49 -176q107 123 142 175q9 14 6 19.5t-18 7.5l-44 6l8 27q8 0 45 -1.5t62 -1.5q24 0 62 1.5t52 1.5l-6 -27q-57 -5 -79.5 -15t-55.5 -43q-54 -55 -163 -185q60 -211 93 -303
q5 -16 15.5 -22t33.5 -8l50 -7l-6 -27q-16 0 -60.5 1.5t-67.5 1.5q-20 0 -43 -0.5t-51 -1.5t-45 -1l6 27q43 5 54 11.5t7 24.5q-58 215 -62 233q-141 -172 -176 -225q-23 -33 9 -37l54 -7l-8 -27q-39 3 -117 3q-57 0 -118 -3l7 27q42 3 63.5 11.5t47.5 32.5q62 58 227 260
q-52 182 -76 251q-9 20 -38 23z" />
    <glyph glyph-name="Y" unicode="Y" horiz-adv-x="513" 
d="M362 25l-9 -28q-84 3 -154 3q-61 0 -143 -3l9 28q8 1 30 3t32 4q19 2 27.5 9.5t16.5 28.5q25 66 60 199q5 18 1 44q-3 27 -25.5 117t-37.5 132q-10 28 -23.5 34.5t-64.5 10.5l8 27q78 -3 119 -3q66 0 123 3l-8 -28q-40 -3 -50 -8.5t-8 -18.5q6 -36 57 -246l73 95l68.5 90
t38.5 55q14 24 -7 27q-27 4 -53 6l9 28q13 0 46 -1.5t53 -1.5q13 0 49 1.5t59 1.5l-9 -28q-41 -3 -59.5 -11t-45.5 -36q-75 -79 -196 -243q-18 -24 -28 -58q-36 -122 -49 -199q-4 -23 18 -26q16 -3 73 -8z" />
    <glyph glyph-name="Z" unicode="Z" horiz-adv-x="581" 
d="M154 438l-24 8q41 103 51 196q15 -6 60 -10q24 -1 124 -1h154q21 0 59.5 1.5t51.5 1.5q-19 -41 -38 -64q-25 -32 -203 -236l-259 -303q140 -1 201 3t86 13.5t44 33.5q36 41 72 124l24 -12q-36 -103 -60 -199q-33 3 -82 5q-34 1 -110 1h-195q-81 0 -112 -3l-6 19
l262 293.5l248 291.5h-118q-65 0 -98 -6t-47 -17t-31 -36q-20 -32 -54 -104z" />
    <glyph glyph-name="bracketleft" unicode="[" horiz-adv-x="328" 
d="M197 -141l-15 -29q-135 4 -176 -4l121 436q91 332 114 432q33 -9 180 0l-12 -29q-45 0 -87 -7q-15 -3 -21 -20q-25 -63 -109 -376q-90 -337 -97 -384q-1 -7 4 -11t18 -5z" />
    <glyph glyph-name="backslash" unicode="\" horiz-adv-x="385" 
d="M179 662l47 21q13 -205 33 -403q4 -38 11 -120.5t13 -145.5t11 -98l-47 -18q-7 129 -32 396q-26 310 -36 368z" />
    <glyph glyph-name="bracketright" unicode="]" horiz-adv-x="328" 
d="M177 663l13 29q135 -4 176 4l-121 -436q-80 -299 -113 -432q-17 4 -78.5 3.5t-101.5 -3.5l12 29q54 0 86 8q14 1 22 19q25 63 109 376q90 338 97 385q3 14 -23 16z" />
    <glyph glyph-name="asciicircum" unicode="^" horiz-adv-x="502" 
d="M481 286h-61l-136 292l-130 -292h-63l167 353h56z" />
    <glyph glyph-name="underscore" unicode="_" horiz-adv-x="500" 
d="M451 -111v-58h-500v58h500z" />
    <glyph glyph-name="grave" unicode="`" horiz-adv-x="437" 
d="M343 500l-21 -14l-39 49.5l-38 47t-19 24.5q-21 27 -18 52q2 17 12 26t22 9q30 -2 45 -38z" />
    <glyph glyph-name="a" unicode="a" horiz-adv-x="513" 
d="M490 130l19 -20q-23 -49 -63 -86.5t-91 -37.5q-38 0 -47 32t5 69q3 12 9 33h-2q-36 -55 -89 -94.5t-113 -39.5q-41 0 -61.5 28t-20.5 75q0 85 47.5 177t119.5 139q54 36 112 36q69 0 86 -46l10 34h82q-75 -214 -105 -358q-8 -36 10 -36q20 0 46.5 27.5t45.5 67.5zM126 93
v-1q0 -57 38 -57q73 0 147 125q21 36 45 97t24 88q0 32 -16 47.5t-40 15.5q-52 0 -98 -53q-44 -52 -72 -126t-28 -136z" />
    <glyph glyph-name="b" unicode="b" horiz-adv-x="490" 
d="M122 634l10 26q110 3 170 17q-17 -45 -112 -360q98 124 199 124q46 0 68 -30t21 -80q-1 -84 -45.5 -168.5t-110.5 -127.5q-72 -49 -152 -49q-65 0 -99 26q-22 16 -27 36.5t5 53.5l73 249q64 217 73 267q3 15 -10 15zM187 17h1q43 0 84 38q43 38 79.5 121t37.5 159
q2 62 -40 62q-36 0 -77.5 -36.5t-71.5 -90.5q-28 -49 -49.5 -107.5t-21.5 -90.5q0 -55 58 -55z" />
    <glyph glyph-name="c" unicode="c" horiz-adv-x="420" 
d="M384 153l2 -48q-28 -49 -83 -84t-121 -35q-139 0 -139 145q0 75 35.5 147.5t97.5 116.5q65 46 133 46q55 0 84 -25t29 -65q0 -29 -15.5 -45.5t-36.5 -16.5q-20 0 -29 13q-9 12 -2 28q10 24 10 37q0 45 -48 45q-69 0 -121 -101q-47 -84 -47 -182q0 -49 21 -75.5t59 -26.5
q100 0 156 126h15z" />
    <glyph glyph-name="d" unicode="d" horiz-adv-x="526" 
d="M503 130l20 -20q-62 -125 -157 -125q-37 0 -44.5 34.5t6.5 74.5q2 5 4 15t4 15q-90 -138 -206 -138q-46 0 -69.5 31t-23.5 82q0 81 42.5 164.5t111.5 133.5q59 44 128 44t93 -40q49 155 61 212q2 11 0 15t-10 4q-6 0 -27.5 0.5t-37.5 0.5l10 27q112 2 174 17
q-47 -119 -133 -425q-35 -125 -47 -180q-8 -38 8 -38q20 0 48 30t45 66zM128 99v-1q0 -28 11 -46t33 -18q67 0 140 113q26 39 51.5 102t25.5 98q0 26 -14.5 44.5t-44.5 18.5q-51 0 -99 -49q-43 -46 -73 -119.5t-30 -142.5z" />
    <glyph glyph-name="e" unicode="e" horiz-adv-x="419" 
d="M381 154l4 -50q-37 -55 -94.5 -86.5t-120.5 -31.5t-96 36.5t-33 102.5q0 75 34.5 149t95.5 121q59 46 131 46q58 0 85 -29.5t27 -72.5q0 -57 -71 -89q-80 -37 -204 -52q-8 -38 -8 -69q0 -101 77 -101q105 0 158 126h15zM291 411h-1q-37 0 -77.5 -42.5t-67.5 -138.5
q82 9 137 34q56 29 56 89q0 27 -12.5 42.5t-34.5 15.5z" />
    <glyph glyph-name="f" unicode="f" horiz-adv-x="259" 
d="M76 424h72q37 140 99 202q55 54 125 54q40 0 64.5 -19.5t24.5 -51.5q0 -25 -14.5 -37.5t-32.5 -12.5q-16 0 -24 7t-6 20q4 18 4 28q0 36 -34 36q-43 0 -74 -80q-19 -47 -44 -146h98l-11 -30l-96 -7q-82 -327 -118 -425q-47 -123 -138 -178q-41 -24 -90 -24
q-29 0 -51.5 18t-22.5 42q0 15 10.5 29t24.5 19q21 9 33 -13q28 -48 61 -48q27 0 44.5 25.5t36.5 84.5q47 147 122 470l-75 8z" />
    <glyph glyph-name="g" unicode="g" horiz-adv-x="432" 
d="M273 441h1q61 0 96 -31q52 36 87 36q15 0 26 -8.5t11 -16.5q-1 -9 -12.5 -22.5t-21.5 -19.5q-35 24 -74 9q17 -25 17 -65q0 -81 -52 -138t-136 -57q-48 0 -78 20q-36 -11 -36 -39q0 -26 46 -41q16 -5 39 -11.5l52.5 -15l46.5 -13.5q101 -28 101 -111q0 -56 -37 -95
t-87 -54t-107 -15q-76 0 -140 36t-64 101q0 43 33.5 68.5t78.5 25.5q17 0 31 -4l7 -20q-36 0 -58.5 -17.5t-22.5 -47.5q0 -45 48 -76t115 -31q61 0 94.5 25.5t33.5 64.5q0 49 -58 67l-42.5 14l-49.5 16t-40 12q-87 25 -87 90q0 30 22 53t60 34q-31 29 -31 81q0 77 55 136.5
t133 59.5zM277 413h-1q-38 0 -63 -35q-22 -28 -35.5 -72.5t-13.5 -82.5q0 -35 15 -51t37 -16q35 0 59 29q23 28 38 74.5t15 86.5q0 67 -51 67z" />
    <glyph glyph-name="h" unicode="h" horiz-adv-x="513" 
d="M120 631l10 27q114 4 174 19q-28 -66 -120 -383q112 147 225 147q32 0 51 -19q31 -29 3 -113q-17 -51 -47.5 -135t-38.5 -108q-10 -32 7 -32q22 0 50.5 29t47.5 68l19 -21q-63 -125 -160 -125q-77 0 -34 124l82 232q17 55 -25 55q-31 0 -71 -29t-81 -87q-44 -64 -74 -156
l-39 -127q-9 0 -23.5 -1t-33.5 -2.5t-29 -2.5q91 297 114 377q60 210 68 246q4 16 -14 17h-61z" />
    <glyph glyph-name="i" unicode="i" horiz-adv-x="267" 
d="M242 633h1q43 0 41 -49q-1 -26 -17.5 -42t-39.5 -16q-19 0 -31 13t-11 35q1 27 18.5 43t38.5 16zM75 389l10 28q127 12 167 24l3 -4q-22 -50 -63.5 -178.5t-57.5 -194.5q-7 -30 7 -30q22 0 52 30t47 66l20 -21q-32 -59 -74.5 -91t-88.5 -32q-41 0 -48 32t11 80
q4 13 39.5 121.5t47.5 153.5q3 10 1 13.5t-11 3.5q-40 0 -62 -1z" />
    <glyph glyph-name="j" unicode="j" horiz-adv-x="242" 
d="M229 634h1q42 0 40 -50q-1 -26 -18 -41.5t-40 -15.5q-18 0 -30 13t-11 35q1 27 18.5 43t39.5 16zM72 417q113 10 169 24l3 -4q-105 -394 -139 -491q-34 -99 -100 -145q-61 -43 -118 -43q-31 0 -51 16.5t-20 35.5q0 15 12.5 29.5t25.5 16.5q16 4 28 -15q24 -41 53 -41
q36 0 61 67q19 50 74 242q52 189 69 263q5 20 -12 20l-66 -1z" />
    <glyph glyph-name="k" unicode="k" horiz-adv-x="469" 
d="M125 633l10 26q127 7 170 18q-28 -77 -134 -433q61 17 118 88q57 70 85 89q28 21 55 21q45 0 45 -39q0 -18 -10 -28t-22 -12q-10 -1 -19 6q-11 11 -25 11q-28 0 -77 -57q-36 -41 -64 -60q27 -5 46.5 -32.5t24.5 -67.5q9 -72 11 -87q5 -38 25 -38q16 0 38 23.5t43 69.5
l20 -18q-27 -67 -66.5 -98.5t-78.5 -31.5q-57 0 -66 87q-1 9 -3.5 44.5t-4.5 52.5q-5 60 -43 60q-22 0 -42 -20q-43 -143 -59 -207q-52 -2 -89 -7q35 102 109 353q60 205 75 269q5 17 -14 17z" />
    <glyph glyph-name="l" unicode="l" horiz-adv-x="250" 
d="M125 633l10 27q114 2 172 17q-36 -90 -100 -308q-73 -251 -85 -304q-8 -31 10 -31q19 0 48.5 28.5t48.5 68.5l20 -21q-31 -61 -74.5 -93t-88.5 -32q-73 0 -38 117l78 261q48 163 71 251q4 18 -13 18z" />
    <glyph glyph-name="m" unicode="m" horiz-adv-x="787" 
d="M756 130l19 -21q-30 -60 -73.5 -92t-89.5 -32q-80 0 -34 120l86 229q10 23 4.5 41t-26.5 18q-57 0 -123 -85.5t-99 -179.5q-30 -80 -45 -131q-47 -1 -90 -7q73 194 113 344q15 59 -24 59q-50 0 -115.5 -81.5t-102.5 -182.5q-24 -62 -45 -132q-46 -1 -88 -7
q37 99 71.5 213t45.5 169q2 11 -1 15.5t-13 4.5l-58 -1l9 26q122 13 163 24q-5 -15 -15 -53t-19 -68.5t-16 -50.5q24 34 44.5 59.5t50.5 53.5t64.5 43.5t70.5 15.5q32 0 47.5 -17.5t14 -44t-9.5 -56.5l-15 -50q113 168 231 168q33 0 50 -19q31 -32 0 -115
q-11 -31 -45.5 -122t-43.5 -120q-9 -31 9 -31q21 0 50 28.5t48 67.5z" />
    <glyph glyph-name="n" unicode="n" horiz-adv-x="526" 
d="M495 129l19 -20q-30 -59 -74 -91.5t-88 -32.5q-78 0 -34 122l83 228q10 23 4.5 40.5t-28.5 17.5q-60 0 -122 -82t-97 -175q-31 -82 -47 -138q-29 -1 -88 -8q34 89 69.5 208t46.5 175q4 18 -9 18l-61 -1l9 27q96 7 160 24l-49 -172q115 172 232 172q30 0 50 -16
q36 -32 4 -118q-85 -238 -86 -242q-10 -30 8 -30q21 0 49.5 28t48.5 66z" />
    <glyph glyph-name="o" unicode="o" horiz-adv-x="472" 
d="M305 441h1q70 0 107 -38.5t37 -110.5q0 -75 -35 -151t-93 -115q-60 -40 -135 -40q-38 0 -68 10.5t-53.5 44.5t-23.5 90q0 75 37 151.5t97 118.5q59 40 129 40zM303 413h-1q-53 0 -97 -61q-32 -45 -55.5 -118t-23.5 -128q0 -47 19.5 -69t48.5 -22q47 0 84 44q37 45 63 126
t26 142q0 86 -64 86z" />
    <glyph glyph-name="p" unicode="p" horiz-adv-x="508" 
d="M39 310q74 35 111 91q19 65 27 96q58 13 85 25l3 -4l-68 -217q104 140 203 140q47 0 71.5 -33t24.5 -83q0 -92 -52.5 -186t-132.5 -132q-45 -21 -92 -21q-70 0 -97 40q-41 -141 -51 -191q-4 -17 0 -22.5t17 -7.5l63 -6l-8 -27h-96q-89 0 -160 -7l9 27l42 7q17 3 26 9.5
t15 20.5q48 137 153 501q-46 -33 -81 -42zM361 396h-1q-35 0 -74.5 -37.5t-73.5 -93.5q-25 -39 -45 -93t-20 -86q0 -34 19 -51t49 -17q52 0 99 57q38 48 65 120.5t27 133.5q0 29 -11.5 48t-33.5 19z" />
    <glyph glyph-name="q" unicode="q" horiz-adv-x="494" 
d="M401 -203l-9 -27q-28 2 -117 2q-50 0 -134 -6l8 27q26 3 58 10q25 4 35 28q13 34 88 282q-100 -127 -207 -127q-43 0 -66 28t-23 78q0 85 50.5 178.5t131.5 140.5q51 30 102 30q75 0 92 -57l15 45h79q-52 -153 -97 -316q-68 -246 -76 -285q-5 -20 16 -23zM327 408h-1
q-47 0 -92 -49q-50 -55 -80 -128.5t-30 -139.5q0 -26 11 -43t30 -17q69 0 144 110q27 38 52 99t25 94q0 31 -14 52.5t-45 21.5z" />
    <glyph glyph-name="r" unicode="r" horiz-adv-x="372" 
d="M63 389l10 27q99 8 154 25q-5 -30 -39 -168h4q43 86 82 127t82 41q25 0 37.5 -16.5t12.5 -35.5q0 -30 -16 -46.5t-35 -16.5q-20 0 -26 20q-6 22 -22 22q-25 0 -59.5 -51.5t-63.5 -118.5q-37 -90 -68 -199q-46 -3 -89 -8q34 97 67 213t39 167q1 18 -13 18h-57z" />
    <glyph glyph-name="s" unicode="s" horiz-adv-x="374" 
d="M364 444l20 -11q-35 -78 -53 -156l-24 -1q12 64 -6.5 100t-66.5 36q-32 0 -51.5 -20.5t-19.5 -50.5q0 -35 30 -58q12 -10 48 -36.5t42 -31.5q48 -33 48 -89q0 -59 -49 -100q-48 -40 -128 -40q-82 0 -142 41q19 45 46 143l25 4q-9 -31 -9 -67q-1 -42 23.5 -66.5
t72.5 -24.5q35 0 59 18.5t25 52.5q0 31 -30 57l-79 63q-54 38 -54 96q0 64 49 105q40 33 104 33q31 0 57 -10t36 -24z" />
    <glyph glyph-name="t" unicode="t" horiz-adv-x="302" 
d="M269 137l15 -33q-28 -56 -76 -87t-94 -31q-37 0 -53 16.5t-15 37.5t10 53l89 295l-71 7l14 29h68q10 30 36 121q64 9 96 22q-15 -35 -49 -143h110l-15 -29l-106 -7q-63 -190 -95 -324q-8 -37 19 -37q32 0 66.5 34.5t50.5 75.5z" />
    <glyph glyph-name="u" unicode="u" horiz-adv-x="519" 
d="M495 130l19 -21q-27 -53 -68 -88.5t-91 -35.5q-70 0 -38 105q2 5 11 35q-44 -64 -97.5 -101.5t-108.5 -37.5q-57 0 -70.5 35t7.5 91l47.5 146t37.5 116q4 16 -13 16l-58 -2l13 28q120 12 167 25q-19 -31 -60 -155.5t-57 -196.5q-6 -24 0.5 -39t24.5 -15q54 0 110.5 63.5
t88.5 145.5q32 86 43 130q5 15 -13 15l-56 -1l11 28q107 8 166 25q-30 -72 -68 -189t-54 -187q-7 -33 9 -33q20 0 48.5 29t48.5 69z" />
    <glyph glyph-name="v" unicode="v" horiz-adv-x="428" 
d="M95 392l-53 -1l9 26q95 7 156 24q-13 -67 -18 -228q-4 -100 -3 -143q72 74 127 161.5t58 145.5q1 29 -4 50q52 23 61 23q3 0 7 -7t7 -19.5t3 -25.5q0 -39 -31 -89q-33 -54 -114 -153t-136 -159q-32 -3 -63 -10q14 315 11 388q-1 9 -4 13t-13 4z" />
    <glyph glyph-name="w" unicode="w" horiz-adv-x="653" 
d="M104 391l-54 -1l9 27q104 6 162 24q-18 -51 -44 -353q124 173 175 260q2 8 3.5 20l3.5 28.5t3 27.5q33 1 86 13q-16 -77 -22 -247q-3 -77 -2 -124q170 193 174 309q1 17 -2 49q42 24 55 24q6 0 13 -17.5t6 -38.5q-2 -39 -28 -88q-26 -47 -104.5 -146.5t-134.5 -160.5
q-32 -4 -63 -10q3 188 11 303q-5 -8 -41.5 -60l-81.5 -118l-76 -115l-62 -10q34 308 32 385q0 19 -18 19z" />
    <glyph glyph-name="x" unicode="x" horiz-adv-x="465" 
d="M438 125l18 -19q-59 -121 -143 -121q-30 0 -45 23.5t-29 82.5q-3 14 -8 41.5t-8 40.5q-76 -115 -102 -145q-46 -50 -90 -50q-24 0 -38.5 15t-14.5 38q0 22 14 36t32 14q16 0 25 -17q9 -19 21 -19q37 0 144 167q-27 124 -37 153q-4 16 -9.5 20.5t-16.5 4.5q-17 0 -64 -5
l5 26q122 19 155 31q16 -83 34 -157l43.5 57.5t40.5 47t49.5 41t46.5 12.5q28 0 41 -11q-1 -3 -3 -11.5l-3 -12.5q-50 1 -99 -40t-107 -120q8 -45 31 -145q17 -60 37 -60q35 0 80 82z" />
    <glyph glyph-name="y" unicode="y" horiz-adv-x="431" 
d="M41 419q93 4 159 24q-2 -62 15 -357l109 206q42 74 82.5 113t95.5 40l3 -24q-56 -13 -146 -151q-84 -133 -182 -320q-57 -107 -99 -149.5t-92 -42.5q-35 0 -53 19.5t-18 45.5q0 23 14 37t31 14q23 0 31 -23q9 -33 31 -33q28 0 58.5 36.5t71.5 121.5q-11 13 -15 56
q-7 201 -25 338q-2 15 -16 19t-63 3z" />
    <glyph glyph-name="z" unicode="z" horiz-adv-x="416" 
d="M384 188h1q11 0 11 -22q0 -88 -95 -160q-35 -26 -74 -26q-32 0 -113 22q-39 12 -65 12q-23 0 -51 -18l-9 16q22 34 50 58q207 185 304 294q-154 -1 -186 -8q-18 -4 -34.5 -26t-40.5 -70l-20 12q60 136 68 170q12 -9 38 -11q26 -4 162 -4q77 0 97 10l7 -9q-21 -44 -61 -84
q-26 -28 -277 -270q14 2 70 -6q85 -16 104 -16q41 0 60 18.5t19 42.5q0 13 -3 27q-2 13 2 21q6 9 17.5 18t18.5 9z" />
    <glyph glyph-name="braceleft" unicode="{" horiz-adv-x="328" 
d="M425 707l-10 -30q-57 -3 -85 -29.5t-38 -87.5q-18 -131 -25 -157q-15 -62 -48.5 -95.5t-94.5 -49.5q48 -21 65.5 -55.5t1.5 -93.5q-4 -16 -48 -136q-28 -72 -17.5 -102.5t69.5 -35.5l-9 -29q-26 0 -50 7t-47 25.5t-29 50t4 79.5q6 21 31.5 94t31.5 99q11 44 -5.5 62.5
t-61.5 20.5l7 29q47 0 75 20.5t40 72.5q7 29 18.5 91t15.5 82q14 65 52 105.5t77 53t80 9.5z" />
    <glyph glyph-name="bar" unicode="|" horiz-adv-x="293" 
d="M115 750h67v-1000h-67v1000z" />
    <glyph glyph-name="braceright" unicode="}" horiz-adv-x="328" 
d="M-52 -194l9 30q57 3 85 29.5t37 87.5q3 19 7 52.5t8 59t10 46.5q16 61 49.5 94.5t95.5 50.5q-49 20 -66.5 54.5t-2.5 93.5q12 42 49 135q29 74 19 104.5t-69 35.5l9 28q25 1 49.5 -6.5t46.5 -26t28 -50t-4 -78.5q-6 -24 -31.5 -96.5t-31.5 -97.5q-10 -44 6 -62t61 -20
l-6 -30q-93 0 -115 -87q-8 -30 -19.5 -95.5t-15.5 -83.5q-14 -64 -52.5 -105t-77.5 -53.5t-78 -9.5z" />
    <glyph glyph-name="asciitilde" unicode="~" horiz-adv-x="521" 
d="M414 326l50 -8q-6 -178 -116 -178q-31 0 -57 20t-57 59q-24 31 -40 44.5t-34 13.5q-52 0 -63 -130l-50 7q7 178 118 178q55 0 108 -70q50 -65 79 -65q25 0 40.5 25.5t21.5 103.5z" />
    <glyph glyph-name="uni00A0" unicode="&#xa0;" horiz-adv-x="207" 
 />
    <glyph glyph-name="exclamdown" unicode="&#xa1;" horiz-adv-x="200" 
d="M-9 -225h-1q-18 0 -34 25.5t-7 59.5q4 16 38 82q73 137 111 272h29q-35 -133 -43 -275q-4 -64 -10 -88q-6 -27 -32 -51.5t-51 -24.5zM158 431h1q23 0 36 -15.5t12 -41.5q-2 -29 -20.5 -49.5t-45.5 -20.5q-24 0 -37.5 16.5t-11.5 43.5q1 29 20 48t46 19z" />
    <glyph glyph-name="cent" unicode="&#xa2;" horiz-adv-x="472" 
d="M373 602l39 8l-28 -83q49 -5 78 -30.5t29 -64.5q0 -27 -14.5 -41t-33.5 -14q-16 1 -24 11t-4 27q7 16 7 29q0 46 -48 55l-111 -357q116 3 173 116h16l-5 -51q-26 -38 -78 -66.5t-116 -32.5l-25 -83l-40 -8l30 91q-68 5 -106.5 44.5t-38.5 108.5q1 68 33.5 127.5
t91.5 98.5q61 40 152 42zM166 257v-1q0 -41 16.5 -72t48.5 -37l111 354q-78 -6 -127 -80t-49 -164z" />
    <glyph glyph-name="sterling" unicode="&#xa3;" horiz-adv-x="472" 
d="M36 300l18 35q17 -1 83 -1q11 95 31 144q30 80 95 119q49 28 104 28q67 0 97 -30.5t30 -72.5q0 -25 -14.5 -41.5t-32.5 -16.5q-38 0 -31 35q7 23 7 36q1 32 -16.5 47t-47.5 15q-77 0 -104 -121q-12 -53 -21 -142q97 0 160 3l-22 -38q-60 3 -143 3q-14 -87 -48 -137
q-37 -52 -106 -96q276 5 288 12q14 8 22 21t36 72h29q-42 -100 -59 -174l-9 -6q-37 3 -142 5q-53 1 -148 1q-35 0 -116 -3l-4 11l35 49q82 45 104 119q17 57 23 126q-50 0 -98 -2z" />
    <glyph glyph-name="currency" unicode="&#xa4;" horiz-adv-x="472" 
d="M299 455h-1q-64 0 -103 -61t-41 -134q-2 -52 21 -81.5t64 -29.5q69 0 106 62.5t39 133.5q2 48 -19 79t-66 31zM308 490h1q61 0 95 -33l69 73l33 -41l-81 -63q25 -35 23 -96q-3 -96 -71 -158l59 -65l-44 -41l-50 79q-49 -33 -113 -33q-26 0 -53 9.5t-43 23.5l-71 -75
l-30 41l79 62q-25 35 -23 96q2 43 21.5 87t52.5 73l-58 62l44 42l49 -76q50 33 111 33z" />
    <glyph glyph-name="yen" unicode="&#xa5;" horiz-adv-x="472" 
d="M100 588l9 27q12 0 46.5 -1.5t54.5 -1.5q26 0 64 1.5t52 1.5l-7 -27q-13 -1 -48 -5q-12 -1 -11 -18q3 -17 9.5 -48.5l16 -75l15.5 -72.5q117 145 147 187q6 9 7.5 14t-4 9t-17 5.5t-34.5 3.5l11 27q11 0 42.5 -1.5t46.5 -1.5q14 0 43.5 1.5t44.5 1.5l-7 -27
q-31 -2 -49 -10.5t-45 -35.5q-55 -51 -174 -203q61 0 129 3l-18 -35q-7 0 -25.5 0.5t-46.5 1.5t-52 1l-22 -81q80 0 128 2l-18 -35q-6 0 -25 0.5t-47 1.5t-47 1q-28 -104 -37 -146q-4 -22 17 -23q29 -3 70 -6l-10 -27q-141 3 -149 3q-19 0 -66.5 -1.5t-58.5 -1.5l9 27
q7 1 61 7q30 4 39 32q15 40 42 136q-91 0 -121 -2l14 35q9 0 48 -1t68 -1l22 80q-106 0 -128 -2l17 35q5 0 18.5 -0.5l40 -1.5t57.5 -1q-33 156 -52 206q-10 27 -22.5 34t-47.5 8z" />
    <glyph glyph-name="brokenbar" unicode="&#xa6;" horiz-adv-x="293" 
d="M114 675h67v-350h-67v350zM114 -175v350h67v-350h-67z" />
    <glyph glyph-name="section" unicode="&#xa7;" horiz-adv-x="461" 
d="M356 618h1q42 0 70.5 -21t28.5 -58q0 -25 -13 -41t-32 -16q-18 0 -27 12q-7 9 -1 26q6 12 6 25q0 18 -13.5 30.5t-42.5 12.5q-30 0 -49 -20t-20 -50q-2 -30 10 -55q7 -14 54 -88t63 -107q19 -39 19 -85q0 -59 -30.5 -120t-78.5 -105q-89 -83 -171 -83q-46 0 -79 23.5
t-33 67.5q0 26 14.5 43.5t36.5 17.5t31 -21q6 -14 -2 -24q-12 -14 -12 -28q0 -20 16 -34.5t46 -14.5q36 0 59.5 20.5t24.5 53.5t-25 77q-89 145 -97 163q-23 44 -23 95q0 71 37 135.5t96 110.5q74 58 136 58zM144 368v-1q0 -61 35 -118l40.5 -66t40.5 -68q42 -70 20 -141
q71 62 71 158q0 45 -19 82q-15 31 -57 100t-47 78q-35 66 -12 130q-72 -64 -72 -154z" />
    <glyph glyph-name="dieresis" unicode="&#xa8;" horiz-adv-x="437" 
d="M247 633h1q44 0 41 -50q-1 -24 -18 -39t-38 -15q-19 0 -31 12.5t-11 35.5q1 25 18 40.5t38 15.5zM414 633h1q44 0 41 -50q-1 -24 -18 -39t-38 -15q-19 0 -31 12.5t-11 35.5q1 25 18 40.5t38 15.5z" />
    <glyph glyph-name="copyright" unicode="&#xa9;" horiz-adv-x="730" 
d="M393 643h1q132 0 217.5 -92t85.5 -229t-87 -228t-217 -91q-131 0 -217.5 90.5t-86.5 228.5q0 135 87.5 228t216.5 93zM394 611h-1q-112 0 -187 -82t-75 -207t75 -206t189 -81q112 0 187 81t75 206q0 124 -72.5 206.5t-190.5 82.5zM528 275l20 -12q-14 -54 -54.5 -79
t-91.5 -25q-88 0 -133 51q-37 42 -37 113q0 82 55 131q47 42 125 42q54 0 88 -23q7 -4 8 2l8 18l20 -2q-9 -57 -3 -130h-20q-10 53 -29 78q-25 31 -68 31t-69 -32q-30 -37 -30 -107q0 -72 29 -104q28 -34 75 -34q78 0 107 82z" />
    <glyph glyph-name="ordfeminine" unicode="&#xaa;" horiz-adv-x="366" 
d="M402 374l16 -16q-47 -89 -120 -89q-52 0 -30 71q2 4 4 11.5t3 9.5q-74 -92 -143 -92q-58 0 -58 68q0 48 31 104.5t79 89.5q42 29 87 29q44 0 56 -34l6 19h70q-54 -125 -74 -220q-3 -18 5 -18q14 0 33.5 19t34.5 48zM278 534h-1q-32 0 -63 -37q-64 -77 -66 -157
q0 -32 20 -32q46 0 98 80q15 22 28.5 55t13.5 51t-8.5 29t-21.5 11z" />
    <glyph glyph-name="guillemotleft" unicode="&#xab;" horiz-adv-x="458" 
d="M262 405l23 -14q-37 -80 -126 -179q15 -35 26.5 -86t12.5 -93l-25 -17q-17 71 -50.5 125t-67.5 66l13 22q46 16 98.5 63t95.5 113zM435 392l19 -16q-19 -39 -54.5 -88t-64.5 -78q15 -37 26.5 -87.5t11.5 -79.5l-25 -15q-32 130 -107 178l13 22q96 40 181 164z" />
    <glyph glyph-name="logicalnot" unicode="&#xac;" horiz-adv-x="521" 
d="M407 97v202h-357v52h411v-254h-54z" />
    <glyph glyph-name="uni00AD" unicode="&#xad;" horiz-adv-x="297" 
d="M40 191l22 60q102 -3 216 0l-21 -60q-113 3 -217 0z" />
    <glyph glyph-name="registered" unicode="&#xae;" horiz-adv-x="258" 
d="M215 645h1q46 0 76 -32t30 -80q0 -47 -31 -79.5t-77 -32.5q-45 0 -76 32.5t-31 79.5t31 79.5t77 32.5zM214 626h-1q-34 0 -58 -26.5t-24 -67.5q0 -38 24.5 -64.5t60.5 -26.5t60.5 26.5t24.5 64.5q0 40 -24.5 67t-62.5 27zM159 572l1 11q2 0 12.5 -0.5t13.5 -0.5
q4 0 16 0.5t22 0.5q34 0 34 -23q0 -19 -26 -24v-1q20 -1 24 -13q4 -8 4 -15q1 -10 10 -10l2 1h4l-1 -11q-2 0 -10 -1.5t-12 -1.5q-20 0 -22 21q0 2 -0.5 6t-0.5 6q-2 9 -13 11q0 1 -7 0h-7q0 -6 0.5 -14t0.5 -11q0 -4 4 -4l10 -2l-1 -11h-55v11l6 1q7 0 8 4q1 7 1 34t-1 31
q0 4 -4 4zM229 555v1q0 17 -16 17q-9 0 -10 -3v-31q7 0 12 1q14 0 14 15z" />
    <glyph glyph-name="macron" unicode="&#xaf;" horiz-adv-x="439" 
d="M206 534l21 60h208l-20 -60h-209z" />
    <glyph glyph-name="degree" unicode="&#xb0;" horiz-adv-x="316" 
d="M266 649h1q50 0 79 -32t28 -84q-1 -55 -37 -87.5t-88 -32.5q-51 0 -82.5 29.5t-30.5 83.5q2 57 39 90t91 33zM261 619q-18 0 -31 -8.5t-19.5 -23t-9.5 -28t-3 -26.5q-2 -42 13 -64.5t40 -22.5q60 0 63 91q1 30 -10 55.5t-43 26.5z" />
    <glyph glyph-name="plusminus" unicode="&#xb1;" horiz-adv-x="519" 
d="M462 57v-52h-414v52h414zM283 95h-55v182h-180v51h180v170h55v-170h179v-51h-179v-182z" />
    <glyph glyph-name="two.superior" unicode="&#xb2;" horiz-adv-x="344" 
d="M369 545l19 -10q-46 -92 -53 -113q-3 0 -22.5 1t-62 1.5t-102.5 0.5q-54 0 -75 -1l-2 6l12.5 21.5t9.5 16.5q145 76 196 146q30 41 30 84q0 28 -13 43.5t-36 15.5t-38.5 -14t-21 -29.5t-10.5 -40.5q-4 -31 -31 -31q-33 0 -33 37q0 34 40 69t105 35q50 0 82 -25.5
t32 -72.5q0 -56 -69 -106q-24 -17 -158 -97q98 2 149 6q11 0 21 13q10 11 31 44z" />
    <glyph glyph-name="three.superior" unicode="&#xb3;" horiz-adv-x="344" 
d="M166 672l-18 30q9 28 50 54.5t93 26.5q49 0 76.5 -20t27.5 -56q0 -43 -48 -69q-27 -12 -69 -22v-4q55 -6 80 -29q20 -17 20 -51q0 -52 -55 -85q-49 -30 -115 -30q-52 0 -87 21.5t-35 55.5q0 16 10.5 27t27.5 11q23 0 26 -31q7 -58 62 -58q36 0 59.5 27t23.5 66
q0 60 -66 60q-11 0 -35 -4l-11 17l7 11q30 2 58 11q72 17 72 74q0 23 -13.5 36.5t-37.5 13.5q-30 0 -55 -21t-38 -61z" />
    <glyph glyph-name="acute" unicode="&#xb4;" horiz-adv-x="437" 
d="M278 486l-20 16q10 14 51 76.5l50 75.5q24 34 53 34q13 0 21 -9.5t7 -23.5q0 -26 -33 -57z" />
    <glyph glyph-name="mu" unicode="&#xb5;" horiz-adv-x="508" 
d="M485 129l14 -32q-22 -45 -64 -79t-92 -34q-27 0 -42 13q-15 14 -6 45l27 87q-41 -64 -91.5 -103t-92.5 -38q-28 0 -43 21q-27 -95 -59 -249l-8 -6q-29 1 -52 11.5t-28 18.5q101 285 104 295l56.5 183.5t51.5 167.5q43 0 99 10q-20 -31 -64 -161.5t-56 -194.5
q-9 -49 21 -49q50 0 104 65t87 147q29 77 58 183q34 0 96 11q-31 -69 -71 -191.5t-58 -199.5q-5 -24 7 -24q21 0 50 27.5t52 75.5z" />
    <glyph glyph-name="paragraph" unicode="&#xb6;" horiz-adv-x="512" 
d="M571 544l-9 -27l-60 -6q-10 -2 -15.5 -4.5t-10.5 -11.5t-10 -27l-91 -331l-41.5 -144t-31.5 -78.5t-47 -64.5q-41 -38 -99 -38q-47 0 -76.5 22.5t-29.5 70.5q0 29 19.5 51.5t45.5 22.5q31 0 43 -23q5 -12 -4 -14q-23 -1 -36 -14t-13 -31q0 -23 15 -38t46 -15q51 0 81 47
t69 197l11 43q-73 -19 -85 -19q-56 0 -95 48t-38 125q1 78 41 142t105 96q45 21 101 21q57 0 119 -2q26 -1 96 2z" />
    <glyph glyph-name="periodcentered" unicode="&#xb7;" horiz-adv-x="187" 
d="M97 160h-1q-22 0 -35 16t-12 42q2 29 21 50t45 21q25 0 38.5 -17t11.5 -45q-1 -30 -20.5 -48.5t-47.5 -18.5z" />
    <glyph glyph-name="cedilla" unicode="&#xb8;" horiz-adv-x="448" 
d="M202 7h32q-21 -23 -45 -56q23 -6 41 -23t18 -46q0 -45 -29 -67t-71 -22q-41 0 -64 20l12 28q20 -13 47 -13q43 0 43 36q0 18 -17 28.5t-44 10.5l-2 11z" />
    <glyph glyph-name="one.superior" unicode="&#xb9;" horiz-adv-x="344" 
d="M327 448l-9 -25q-20 0 -57 1t-50 1q-16 0 -50 -1t-52 -1l8 24l44 5q20 3 26 17q12 29 42 130q22 73 35 126q1 6 0 8.5t-6 1.5q-19 0 -65 -2l11 25q119 15 142 24l4 -3q-34 -109 -52 -177q-28 -107 -33 -134q-3 -14 11 -15z" />
    <glyph glyph-name="ordmasculine" unicode="&#xba;" horiz-adv-x="351" 
d="M274 560h1q51 0 82 -26.5t31 -76.5q0 -80 -55.5 -134t-134.5 -54q-44 0 -78.5 23t-34.5 77q0 77 56 134t133 57zM271 534h-1q-35 0 -65 -39q-20 -26 -33.5 -67.5t-13.5 -76.5q0 -29 13.5 -42.5t33.5 -13.5q34 0 61 31q24 27 38.5 71t14.5 81q0 56 -48 56z" />
    <glyph glyph-name="guillemotright" unicode="&#xbb;" horiz-adv-x="456" 
d="M215 16l-23 14q36 79 125 179q-34 79 -38 179l25 17q17 -72 50.5 -125.5t66.5 -64.5l-13 -23q-46 -17 -98 -63.5t-95 -112.5zM42 29l-19 17q38 81 119 167q-15 34 -26.5 85t-11.5 81l24 14q32 -131 108 -177l-14 -23q-95 -40 -180 -164z" />
    <glyph glyph-name="onequarter" unicode="&#xbc;" horiz-adv-x="762" 
d="M380 130l-2 20q161 150 237 215q49 9 70 16l5 -4q-8 -25 -62 -229q42 1 74 15l-4 -22q-24 -17 -78 -23q-13 -49 -22 -93q-45 0 -75 -10l-5 4q9 25 29 96q-119 0 -167 15zM557 146l53 182q-79 -67 -179 -169q39 -13 126 -13zM303 300l-9 -25q-20 0 -57 1t-50 1
q-16 0 -50.5 -1t-51.5 -1l8 24l43 5q22 4 27 17q17 44 42 130l35 126q1 6 0 8.5t-6 1.5q-18 0 -66 -2l12 25q114 14 142 24l4 -3q-22 -70 -52 -177q-28 -104 -34 -134q-2 -14 11 -15zM679 669l30 -23l-567 -677l-27 27z" />
    <glyph glyph-name="onehalf" unicode="&#xbd;" horiz-adv-x="762" 
d="M286 300l-9 -25q-19 0 -57 1t-51 1q-16 0 -50 -1t-51 -1l8 24l43 5q22 4 27 17q17 44 42 130l35 126q1 6 0 8.5t-6 1.5q-18 0 -66 -2l12 25q114 14 142 24l4 -3q-17 -54 -52 -177q-28 -104 -34 -134q-3 -14 11 -15zM662 669l31 -23l-567 -677l-27 27zM697 143l19 -10
q-39 -78 -53 -113q-3 0 -22.5 1t-62 1.5t-102.5 0.5q-54 0 -75 -1l-2 6q10 16 22 38q144 75 196 146q30 41 30 84q0 28 -13 43.5t-36 15.5q-56 0 -70 -84q-4 -31 -31 -31q-32 0 -32 37q0 34 39.5 69t104.5 35q50 0 82 -25.5t32 -72.5q0 -56 -68 -106q-23 -15 -159 -97
q116 2 149 5q11 1 21 14q16 18 31 44z" />
    <glyph glyph-name="threequarters" unicode="&#xbe;" horiz-adv-x="762" 
d="M396 130l-2 20l237 215q49 9 70 16l5 -4q-12 -40 -62 -229q42 1 74 15l-5 -22q-23 -17 -77 -23l-22 -93q-46 0 -74 -10l-6 4q9 25 29 96q-119 0 -167 15zM573 146l53 182q-93 -80 -178 -169q36 -13 125 -13zM153 524l-18 30q9 28 50 54.5t93 26.5q49 0 76.5 -20t27.5 -56
q0 -44 -49 -69q-24 -11 -68 -22v-4q56 -6 80 -29q20 -17 20 -51q0 -51 -54 -85q-49 -30 -116 -30q-51 0 -86.5 21.5t-35.5 55.5q0 16 10.5 27t27.5 11q23 0 26 -31q7 -58 62 -58q36 0 59.5 27t23.5 66q0 60 -65 60q-12 0 -36 -4l-11 17l7 11q31 2 57 11q73 17 73 74
q0 23 -13.5 36.5t-37.5 13.5q-66 0 -93 -83h-10zM700 668l30 -22l-566 -677l-27 27z" />
    <glyph glyph-name="questiondown" unicode="&#xbf;" horiz-adv-x="396" 
d="M221 222l23 9q32 -46 31 -85q-1 -44 -46 -81q-17 -14 -69.5 -54t-67.5 -53q-37 -30 -37 -74q-1 -35 20 -55t55 -20q39 0 63.5 21t24.5 59q0 12 -4 28q-5 17 8 30q12 14 36 14q18 0 30 -13t12 -34q0 -56 -53.5 -95.5t-123.5 -39.5q-65 0 -104 36t-38 101q1 76 86 131
q66 42 117 83q48 38 37 92zM282 436h1q21 0 34.5 -15t12.5 -41q-1 -29 -20 -49t-45 -20q-24 0 -37.5 16.5t-11.5 43.5q1 29 19.5 47t46.5 18z" />
    <glyph glyph-name="Agrave" unicode="&#xc0;" horiz-adv-x="585" 
d="M483 648l7 -4q-6 -112 -2 -357q3 -189 9 -232q1 -12 6.5 -17.5t17.5 -6.5l54 -6l-5 -28q-10 0 -54.5 1.5t-71.5 1.5q-19 0 -124 -3l8 28q45 4 56 10t12 29q2 74 2 192q-118 0 -191 -11q-73 -118 -98 -168q-13 -31 -0.5 -39.5t70.5 -12.5l-7 -28q-15 0 -54.5 1.5
t-56.5 1.5q-29 0 -66 -1.5t-46 -1.5l7 28q43 4 62 15t46 52q231 346 317 486q15 23 19 37l3 9q19 -1 43 6t37 18zM398 291q0 17 1 112.5t2 148.5l-169 -269q36 5 166 8zM486 702l-14 -21l-60 20.5l-57 20t-29 10.5q-13 5 -24.5 17t-13.5 24q-7 34 27 43q27 8 54 -12
q7 -5 30.5 -25.5l51.5 -45.5z" />
    <glyph glyph-name="Aacute" unicode="&#xc1;" horiz-adv-x="585" 
d="M483 648l7 -4q-6 -112 -2 -357q3 -189 9 -232q1 -12 6.5 -17.5t17.5 -6.5l54 -6l-5 -28q-10 0 -54.5 1.5t-71.5 1.5q-19 0 -124 -3l8 28q45 4 56 10t12 29q2 74 2 192q-118 0 -191 -11q-73 -118 -98 -168q-13 -31 -0.5 -39.5t70.5 -12.5l-7 -28q-15 0 -54.5 1.5
t-56.5 1.5q-29 0 -66 -1.5t-46 -1.5l7 28q43 4 62 15t46 52q231 346 317 486q15 23 19 37l3 9q19 -1 43 6t37 18zM398 291q0 17 1 112.5t2 148.5l-169 -269q36 5 166 8zM414 682l-14 22q14 10 71.5 55t66.5 51q28 20 55 12q31 -7 22 -42q-5 -26 -46 -44q-9 -3 -29.5 -10.5
t-58 -20t-67.5 -23.5z" />
    <glyph glyph-name="Acircumflex" unicode="&#xc2;" horiz-adv-x="585" 
d="M483 648l7 -4q-6 -112 -2 -357q3 -189 9 -232q1 -12 6.5 -17.5t17.5 -6.5l54 -6l-5 -28q-10 0 -54.5 1.5t-71.5 1.5q-19 0 -124 -3l8 28q45 4 56 10t12 29q2 74 2 192q-118 0 -191 -11q-73 -118 -98 -168q-13 -31 -0.5 -39.5t70.5 -12.5l-7 -28q-15 0 -54.5 1.5
t-56.5 1.5q-29 0 -66 -1.5t-46 -1.5l7 28q43 4 62 15t46 52q231 346 317 486q15 23 19 37l3 9q19 -1 43 6t37 18zM398 291q0 17 1 112.5t2 148.5l-169 -269q36 5 166 8zM467 817l24 3q9 -24 34.5 -58t63.5 -61l-19 -24q-51 19 -107 57q-63 -33 -136 -57l-9 24
q102 58 149 116z" />
    <glyph glyph-name="Atilde" unicode="&#xc3;" horiz-adv-x="585" 
d="M483 648l7 -4q-6 -112 -2 -357q3 -189 9 -232q1 -12 6.5 -17.5t17.5 -6.5l54 -6l-5 -28q-10 0 -54.5 1.5t-71.5 1.5q-19 0 -124 -3l8 28q45 4 56 10t12 29q2 74 2 192q-118 0 -191 -11q-73 -118 -98 -168q-13 -31 -0.5 -39.5t70.5 -12.5l-7 -28q-15 0 -54.5 1.5
t-56.5 1.5q-29 0 -66 -1.5t-46 -1.5l7 28q43 4 62 15t46 52q231 346 317 486q15 23 19 37l3 9q19 -1 43 6t37 18zM398 291q0 17 1 112.5t2 148.5l-169 -269q36 5 166 8zM354 682l-32 3q2 50 22.5 84.5t60.5 34.5q28 0 65 -31q33 -27 46 -27q27 0 33 62l31 -6
q-2 -52 -20.5 -85t-55.5 -33q-28 0 -71 36q-28 23 -43 23q-13 0 -23 -17t-13 -44z" />
    <glyph glyph-name="Adieresis" unicode="&#xc4;" horiz-adv-x="585" 
d="M483 648l7 -4q-6 -112 -2 -357q3 -189 9 -232q1 -12 6.5 -17.5t17.5 -6.5l54 -6l-5 -28q-10 0 -54.5 1.5t-71.5 1.5q-19 0 -124 -3l8 28q45 4 56 10t12 29q2 74 2 192q-118 0 -191 -11q-73 -118 -98 -168q-13 -31 -0.5 -39.5t70.5 -12.5l-7 -28q-15 0 -54.5 1.5
t-56.5 1.5q-29 0 -66 -1.5t-46 -1.5l7 28q43 4 62 15t46 52q231 346 317 486q15 23 19 37l3 9q19 -1 43 6t37 18zM398 291q0 17 1 112.5t2 148.5l-169 -269q36 5 166 8zM368 797h1q22 0 33.5 -14.5t9.5 -36.5q-3 -25 -21 -40.5t-38 -15.5t-33 13.5t-10 38.5q3 24 19.5 39.5
t38.5 15.5zM553 797h1q22 0 33.5 -14.5t9.5 -36.5q-3 -25 -21 -40.5t-38 -15.5t-33 13.5t-10 38.5q3 24 19.5 39.5t38.5 15.5z" />
    <glyph glyph-name="Aring" unicode="&#xc5;" horiz-adv-x="585" 
d="M483 648l7 -4q-6 -112 -2 -357q3 -189 9 -232q1 -12 6.5 -17.5t17.5 -6.5l54 -6l-5 -28q-10 0 -54.5 1.5t-71.5 1.5q-19 0 -124 -3l8 28q45 4 56 10t12 29q2 74 2 192q-118 0 -191 -11q-73 -118 -98 -168q-13 -31 -0.5 -39.5t70.5 -12.5l-7 -28q-15 0 -54.5 1.5
t-56.5 1.5q-29 0 -66 -1.5t-46 -1.5l7 28q43 4 62 15t46 52q231 346 317 486q15 23 19 37l3 9q19 -1 43 6t37 18zM398 291q0 17 1 112.5t2 148.5l-169 -269q36 5 166 8zM475 849h1q41 0 62.5 -23t15.5 -64q-5 -43 -36.5 -66t-73.5 -23q-40 0 -63 22.5t-18 61.5q6 44 37 68
t75 24zM468 822h-1q-22 0 -33.5 -19.5t-14.5 -42.5q-4 -28 5 -43.5t26 -15.5q40 0 49 65q3 21 -4 38.5t-27 17.5z" />
    <glyph glyph-name="AE" unicode="&#xc6;" horiz-adv-x="815" 
d="M527 631h178q98 0 146 6q-16 -37 -48 -171h-26q7 51 4 86q-2 29 -20 38.5t-80 9.5h-78q-15 0 -20 -16q-28 -90 -67 -258h68q56 -1 78 15t43 65h26q-31 -89 -59 -221l-24 1q5 36 4 60t-18 35.5t-58 11.5h-69q-45 -186 -54 -237q-2 -6 -1 -10.5t4 -7.5t12 -5t23 -2.5
t38 -0.5q74 0 107 7t55 27q40 35 81 111l24 -9q-56 -149 -67 -172q-21 2 -77 4q-74 2 -161 2h-95q-14 0 -40 -0.5t-38 -0.5q-46 -2 -60 -2l8 27l56 6q13 1 20 9t13 26q30 98 61 228q-82 0 -166 -3q-108 -151 -146 -215q-17 -27 -4.5 -37t70.5 -14l-8 -27q-18 0 -53 1.5
t-54 1.5t-58.5 -1.5t-57.5 -1.5l7 27q43 4 64 18t58 65l359 476q12 16 -6 17l-81 6l8 28q25 0 88.5 -1.5t90.5 -1.5zM425 326l69 274h-14q-68 -83 -203 -273q94 -2 148 -1z" />
    <glyph glyph-name="Ccedilla" unicode="&#xc7;" horiz-adv-x="579" 
d="M329 -14l-28 -34q60 -17 60 -71q0 -45 -29 -67t-72 -22q-38 0 -65 20l13 28q19 -13 47 -13q43 0 43 36q0 38 -61 40l-2 10q8 11 30 37l29 34h-5q-106 2 -161 63.5t-55 169.5q0 97 41 193t113 160q92 77 212 77q51 0 91 -17t58 -44l35 53l21 -10q-46 -118 -64 -208l-26 -1
q18 96 -10 142q-32 54 -100 54q-86 0 -150 -71q-57 -66 -87 -157t-30 -183q0 -88 35 -132q41 -52 110 -52q77 0 127.5 38t85.5 113h16q2 -28 2 -54q-32 -55 -92.5 -90.5t-131.5 -41.5z" />
    <glyph glyph-name="Egrave" unicode="&#xc8;" horiz-adv-x="546" 
d="M143 607l10 27q16 0 66.5 -1.5t76.5 -1.5h152q102 0 142 6q-18 -36 -52 -172l-24 -1q6 54 6 90q-1 29 -19.5 38t-85.5 9h-73q-14 0 -21 -17q-32 -91 -70 -239q9 -2 76 -2q50 0 70.5 15.5t44.5 64.5h25q-34 -89 -63 -220h-24q8 65 -2.5 86.5t-62.5 21.5q-63 0 -75 -2
q-51 -177 -67 -252q-1 -8 -1.5 -13.5t7.5 -8.5t23.5 -4t45.5 -1q77 0 110 6.5t56 26.5q37 31 83 111l25 -9l-37.5 -88.5t-35.5 -83.5q-12 2 -78 5q-76 2 -162 2h-97q-14 0 -40 -0.5t-38 -0.5q-48 -2 -60 -2l9 27l56 7q14 2 21.5 8.5t13.5 24.5q30 89 81 268q48 166 66 246
q3 12 -1 17.5t-19 6.5zM463 702l-14 -21l-60 20.5l-57 20t-29 10.5q-13 5 -24.5 17t-13.5 24q-7 34 27 43q27 8 54 -12q7 -5 30.5 -25.5l51.5 -45.5z" />
    <glyph glyph-name="Eacute" unicode="&#xc9;" horiz-adv-x="546" 
d="M143 607l10 27q16 0 66.5 -1.5t76.5 -1.5h152q102 0 142 6q-18 -36 -52 -172l-24 -1q6 54 6 90q-1 29 -19.5 38t-85.5 9h-73q-14 0 -21 -17q-32 -91 -70 -239q9 -2 76 -2q50 0 70.5 15.5t44.5 64.5h25q-34 -89 -63 -220h-24q8 65 -2.5 86.5t-62.5 21.5q-63 0 -75 -2
q-51 -177 -67 -252q-1 -8 -1.5 -13.5t7.5 -8.5t23.5 -4t45.5 -1q77 0 110 6.5t56 26.5q37 31 83 111l25 -9l-37.5 -88.5t-35.5 -83.5q-12 2 -78 5q-76 2 -162 2h-97q-14 0 -40 -0.5t-38 -0.5q-48 -2 -60 -2l9 27l56 7q14 2 21.5 8.5t13.5 24.5q30 89 81 268q48 166 66 246
q3 12 -1 17.5t-19 6.5zM356 682l-14 22q14 10 71.5 55t66.5 51q28 20 55 12q31 -7 22 -42q-5 -26 -46 -44q-9 -3 -29.5 -10.5t-58 -20t-67.5 -23.5z" />
    <glyph glyph-name="Ecircumflex" unicode="&#xca;" horiz-adv-x="546" 
d="M143 607l10 27q16 0 66.5 -1.5t76.5 -1.5h152q102 0 142 6q-18 -36 -52 -172l-24 -1q6 54 6 90q-1 29 -19.5 38t-85.5 9h-73q-14 0 -21 -17q-32 -91 -70 -239q9 -2 76 -2q50 0 70.5 15.5t44.5 64.5h25q-34 -89 -63 -220h-24q8 65 -2.5 86.5t-62.5 21.5q-63 0 -75 -2
q-51 -177 -67 -252q-1 -8 -1.5 -13.5t7.5 -8.5t23.5 -4t45.5 -1q77 0 110 6.5t56 26.5q37 31 83 111l25 -9l-37.5 -88.5t-35.5 -83.5q-12 2 -78 5q-76 2 -162 2h-97q-14 0 -40 -0.5t-38 -0.5q-48 -2 -60 -2l9 27l56 7q14 2 21.5 8.5t13.5 24.5q30 89 81 268q48 166 66 246
q3 12 -1 17.5t-19 6.5zM421 822l24 3q9 -24 34.5 -58t63.5 -61l-19 -24q-51 19 -107 57q-63 -33 -136 -57l-9 24q102 58 149 116z" />
    <glyph glyph-name="Edieresis" unicode="&#xcb;" horiz-adv-x="546" 
d="M143 607l10 27q16 0 66.5 -1.5t76.5 -1.5h152q102 0 142 6q-18 -36 -52 -172l-24 -1q6 54 6 90q-1 29 -19.5 38t-85.5 9h-73q-14 0 -21 -17q-32 -91 -70 -239q9 -2 76 -2q50 0 70.5 15.5t44.5 64.5h25q-34 -89 -63 -220h-24q8 65 -2.5 86.5t-62.5 21.5q-63 0 -75 -2
q-51 -177 -67 -252q-1 -8 -1.5 -13.5t7.5 -8.5t23.5 -4t45.5 -1q77 0 110 6.5t56 26.5q37 31 83 111l25 -9l-37.5 -88.5t-35.5 -83.5q-12 2 -78 5q-76 2 -162 2h-97q-14 0 -40 -0.5t-38 -0.5q-48 -2 -60 -2l9 27l56 7q14 2 21.5 8.5t13.5 24.5q30 89 81 268q48 166 66 246
q3 12 -1 17.5t-19 6.5zM327 798h1q22 0 33.5 -14.5t9.5 -36.5q-3 -25 -21 -40.5t-38 -15.5t-33 13.5t-10 38.5q3 24 19.5 39.5t38.5 15.5zM512 798h1q22 0 33.5 -14.5t9.5 -36.5q-3 -25 -21 -40.5t-38 -15.5t-33 13.5t-10 38.5q3 24 19.5 39.5t38.5 15.5z" />
    <glyph glyph-name="Igrave" unicode="&#xcc;" horiz-adv-x="310" 
d="M150 606l10 28q18 0 60 -1.5t63 -1.5q27 0 69.5 1.5t55.5 1.5l-9 -28l-44 -4q-15 -2 -22.5 -8t-13.5 -23q-18 -49 -76 -253q-59 -206 -69 -258q-4 -17 1 -23t19 -8l54 -5l-9 -27q-15 0 -64 1.5t-72 1.5q-29 0 -70.5 -1.5t-53.5 -1.5l10 27l43 5q18 2 26.5 8.5t15.5 26.5
q18 49 78 255l70 250q4 18 0 24.5t-21 8.5zM349 702l-14 -21l-60 20.5l-57 20t-29 10.5q-13 5 -24.5 17t-13.5 24q-7 34 27 43q27 8 54 -12q7 -5 30.5 -25.5l51.5 -45.5z" />
    <glyph glyph-name="Iacute" unicode="&#xcd;" horiz-adv-x="310" 
d="M150 606l10 28q18 0 60 -1.5t63 -1.5q27 0 69.5 1.5t55.5 1.5l-9 -28l-44 -4q-15 -2 -22.5 -8t-13.5 -23q-18 -49 -76 -253q-59 -206 -69 -258q-4 -17 1 -23t19 -8l54 -5l-9 -27q-15 0 -64 1.5t-72 1.5q-29 0 -70.5 -1.5t-53.5 -1.5l10 27l43 5q18 2 26.5 8.5t15.5 26.5
q18 49 78 255l70 250q4 18 0 24.5t-21 8.5zM249 680l-14 22q14 10 71.5 55t66.5 51q28 20 55 12q31 -7 22 -42q-5 -26 -46 -44q-9 -3 -29.5 -10.5t-58 -20t-67.5 -23.5z" />
    <glyph glyph-name="Icircumflex" unicode="&#xce;" horiz-adv-x="310" 
d="M150 606l10 28q18 0 60 -1.5t63 -1.5q27 0 69.5 1.5t55.5 1.5l-9 -28l-44 -4q-15 -2 -22.5 -8t-13.5 -23q-18 -49 -76 -253q-59 -206 -69 -258q-4 -17 1 -23t19 -8l54 -5l-9 -27q-15 0 -64 1.5t-72 1.5q-29 0 -70.5 -1.5t-53.5 -1.5l10 27l43 5q18 2 26.5 8.5t15.5 26.5
q18 49 78 255l70 250q4 18 0 24.5t-21 8.5zM311 820l24 3q9 -24 34.5 -58t63.5 -61l-19 -24q-51 19 -107 57q-63 -33 -136 -57l-9 24q102 58 149 116z" />
    <glyph glyph-name="Idieresis" unicode="&#xcf;" horiz-adv-x="310" 
d="M150 606l10 28q18 0 60 -1.5t63 -1.5q27 0 69.5 1.5t55.5 1.5l-9 -28l-44 -4q-15 -2 -22.5 -8t-13.5 -23q-18 -49 -76 -253q-59 -206 -69 -258q-4 -17 1 -23t19 -8l54 -5l-9 -27q-15 0 -64 1.5t-72 1.5q-29 0 -70.5 -1.5t-53.5 -1.5l10 27l43 5q18 2 26.5 8.5t15.5 26.5
q18 49 78 255l70 250q4 18 0 24.5t-21 8.5zM222 796h1q22 0 33.5 -14.5t9.5 -36.5q-3 -25 -21 -40.5t-38 -15.5t-33 13.5t-10 38.5q3 24 19.5 39.5t38.5 15.5zM407 796h1q22 0 33.5 -14.5t9.5 -36.5q-3 -25 -21 -40.5t-38 -15.5t-33 13.5t-10 38.5q3 24 19.5 39.5t38.5 15.5
z" />
    <glyph glyph-name="Eth" unicode="&#xd0;" horiz-adv-x="663" 
d="M58 313l15 36q9 0 97 -2q44 156 61 228q4 14 -1.5 19t-22.5 7l-59 6l11 27q7 0 46 -1.5t65 -1.5q27 0 77 1.5t77 1.5q120 0 177 -51q66 -55 66 -173q0 -128 -67 -234t-168 -152q-68 -28 -167 -28q-25 0 -77 2q-50 2 -77 2q-25 0 -70 -1.5t-53 -1.5l10 27l43 4
q18 2 27.5 9.5t16.5 26.5q27 79 75 250q-34 1 -102 -1zM417 350l-16 -39q-11 0 -63 1t-87 2q-57 -205 -68 -264q-1 -8 2 -12.5t16.5 -8t38.5 -3.5q92 0 142 26q79 41 131.5 152.5t52.5 232.5q0 75 -32 117q-40 50 -129 50q-41 0 -54 -3.5t-17 -12.5q-20 -49 -73 -242
q108 2 156 4z" />
    <glyph glyph-name="Ntilde" unicode="&#xd1;" horiz-adv-x="639" 
d="M497 123q103 382 112 446q2 17 -4 23.5t-27 8.5l-52 5l11 28q18 1 54.5 -1t47.5 -2q15 0 57 2t56 1l-10 -28q-26 -2 -48 -6q-22 -5 -33 -29q-21 -53 -72.5 -236t-85.5 -336q-30 0 -65 -11q-17 53 -50.5 149l-77.5 217l-65 183q-102 -387 -115 -457q-5 -26 -1 -35.5
t18 -11.5q35 -7 68 -9l-9 -27q-19 0 -62 1.5t-62 1.5q-58 0 -105 -3l10 27q8 0 50 7q24 6 40 42q28 67 142 489q9 33 -30 38l-57 6l10 28q8 0 43 -2t57 -2q39 0 66 4zM370 682l-32 3q2 50 22.5 84.5t60.5 34.5q28 0 65 -31q33 -27 46 -27q27 0 33 62l31 -6q-2 -52 -20.5 -85
t-55.5 -33q-28 0 -71 36q-28 23 -43 23q-13 0 -23 -17t-13 -44z" />
    <glyph glyph-name="Ograve" unicode="&#xd2;" horiz-adv-x="640" 
d="M433 647h1q103 0 158 -58.5t55 -164.5q0 -88 -35 -185t-93 -158q-93 -97 -231 -97q-101 0 -159.5 54.5t-58.5 164.5q0 105 49.5 215t129.5 169q80 60 184 60zM432 619h-1q-76 0 -137 -75q-54 -69 -88.5 -177t-34.5 -198q0 -78 32 -116t85 -38q81 0 140 71q53 69 86.5 179
t33.5 206q0 66 -28 107t-88 41zM508 704l-14 -21l-60 20.5l-57 20t-29 10.5q-13 5 -24.5 17t-13.5 24q-7 34 27 43q27 8 54 -12q7 -5 30.5 -25.5l51.5 -45.5z" />
    <glyph glyph-name="Oacute" unicode="&#xd3;" horiz-adv-x="640" 
d="M433 647h1q103 0 158 -58.5t55 -164.5q0 -88 -35 -185t-93 -158q-93 -97 -231 -97q-101 0 -159.5 54.5t-58.5 164.5q0 105 49.5 215t129.5 169q80 60 184 60zM432 619h-1q-76 0 -137 -75q-54 -69 -88.5 -177t-34.5 -198q0 -78 32 -116t85 -38q81 0 140 71q53 69 86.5 179
t33.5 206q0 66 -28 107t-88 41zM393 684l-14 22q14 10 71.5 55t66.5 51q28 20 55 12q31 -7 22 -42q-5 -26 -46 -44q-9 -3 -29.5 -10.5t-58 -20t-67.5 -23.5z" />
    <glyph glyph-name="Ocircumflex" unicode="&#xd4;" horiz-adv-x="640" 
d="M433 647h1q103 0 158 -58.5t55 -164.5q0 -88 -35 -185t-93 -158q-93 -97 -231 -97q-101 0 -159.5 54.5t-58.5 164.5q0 105 49.5 215t129.5 169q80 60 184 60zM432 619h-1q-76 0 -137 -75q-54 -69 -88.5 -177t-34.5 -198q0 -78 32 -116t85 -38q81 0 140 71q53 69 86.5 179
t33.5 206q0 66 -28 107t-88 41zM451 822l24 3q9 -24 34.5 -58t63.5 -61l-19 -24q-51 19 -107 57q-63 -33 -136 -57l-9 24q102 58 149 116z" />
    <glyph glyph-name="Otilde" unicode="&#xd5;" horiz-adv-x="640" 
d="M433 647h1q103 0 158 -58.5t55 -164.5q0 -88 -35 -185t-93 -158q-93 -97 -231 -97q-101 0 -159.5 54.5t-58.5 164.5q0 105 49.5 215t129.5 169q80 60 184 60zM432 619h-1q-76 0 -137 -75q-54 -69 -88.5 -177t-34.5 -198q0 -78 32 -116t85 -38q81 0 140 71q53 69 86.5 179
t33.5 206q0 66 -28 107t-88 41zM344 684l-32 3q2 50 22.5 84.5t60.5 34.5q28 0 65 -31q33 -27 46 -27q27 0 33 62l31 -6q-2 -52 -20.5 -85t-55.5 -33q-28 0 -71 36q-28 23 -43 23q-13 0 -23 -17t-13 -44z" />
    <glyph glyph-name="Odieresis" unicode="&#xd6;" horiz-adv-x="640" 
d="M433 647h1q103 0 158 -58.5t55 -164.5q0 -88 -35 -185t-93 -158q-93 -97 -231 -97q-101 0 -159.5 54.5t-58.5 164.5q0 105 49.5 215t129.5 169q80 60 184 60zM432 619h-1q-76 0 -137 -75q-54 -69 -88.5 -177t-34.5 -198q0 -78 32 -116t85 -38q81 0 140 71q53 69 86.5 179
t33.5 206q0 66 -28 107t-88 41zM360 798h1q22 0 33.5 -14.5t9.5 -36.5q-3 -25 -21 -40.5t-38 -15.5t-33 13.5t-10 38.5q3 24 19.5 39.5t38.5 15.5zM545 798h1q22 0 33.5 -14.5t9.5 -36.5q-3 -25 -21 -40.5t-38 -15.5t-33 13.5t-10 38.5q3 24 19.5 39.5t38.5 15.5z" />
    <glyph glyph-name="multiply" unicode="&#xd7;" horiz-adv-x="519" 
d="M456 399l-166 -168l166 -168l-37 -40l-164 171l-165 -171l-37 40l166 168l-166 167l37 39l165 -169l164 171z" />
    <glyph glyph-name="Oslash" unicode="&#xd8;" horiz-adv-x="640" 
d="M618 669l31 -21l-54 -63q51 -56 51 -156q0 -95 -34.5 -192t-93.5 -157q-94 -97 -232 -97q-87 0 -139 41l-57 -71l-32 20l63 75q-51 53 -51 154q1 108 49.5 217t128.5 168q84 60 187 60q84 0 134 -38zM433 619h-1q-78 0 -141 -74q-61 -76 -96.5 -204.5t-15.5 -225.5
l350 448q-26 56 -96 56zM283 14h2q83 0 144 71q62 73 96.5 203t15.5 236l-351 -450q28 -60 93 -60z" />
    <glyph glyph-name="Ugrave" unicode="&#xd9;" horiz-adv-x="624" 
d="M739 634l-7 -27q-47 -3 -60.5 -12t-24.5 -42q-16 -49 -53.5 -180.5l-48.5 -168.5q-22 -76 -48.5 -118.5t-73.5 -72.5q-50 -30 -143 -30q-52 0 -95.5 17t-63.5 46q-41 59 -15 158q11 44 55 196t50 178q5 21 -14 23l-54 6l10 27q20 0 62 -1.5t63 -1.5q24 0 62 1.5t54 1.5
l-7 -27l-47 -6q-21 -3 -29 -22q-22 -56 -58.5 -184.5t-54.5 -209.5q-17 -79 19 -122q33 -38 100 -38q75 0 118.5 41.5t75.5 151.5q60 200 89 342q4 24 -0.5 31.5t-24.5 9.5l-51 6l9 27q13 0 49.5 -1.5t51.5 -1.5q18 0 53 1.5t52 1.5zM512 702l-14 -21l-60 20.5l-57 20
t-29 10.5q-13 5 -24.5 17t-13.5 24q-7 34 27 43q27 8 54 -12q7 -5 30.5 -25.5l51.5 -45.5z" />
    <glyph glyph-name="Uacute" unicode="&#xda;" horiz-adv-x="624" 
d="M739 634l-7 -27q-47 -3 -60.5 -12t-24.5 -42q-16 -49 -53.5 -180.5l-48.5 -168.5q-22 -76 -48.5 -118.5t-73.5 -72.5q-50 -30 -143 -30q-52 0 -95.5 17t-63.5 46q-41 59 -15 158q11 44 55 196t50 178q5 21 -14 23l-54 6l10 27q20 0 62 -1.5t63 -1.5q24 0 62 1.5t54 1.5
l-7 -27l-47 -6q-21 -3 -29 -22q-22 -56 -58.5 -184.5t-54.5 -209.5q-17 -79 19 -122q33 -38 100 -38q75 0 118.5 41.5t75.5 151.5q60 200 89 342q4 24 -0.5 31.5t-24.5 9.5l-51 6l9 27q13 0 49.5 -1.5t51.5 -1.5q18 0 53 1.5t52 1.5zM409 682l-14 22q14 10 71.5 55t66.5 51
q28 20 55 12q31 -7 22 -42q-5 -26 -46 -44q-9 -3 -29.5 -10.5t-58 -20t-67.5 -23.5z" />
    <glyph glyph-name="Ucircumflex" unicode="&#xdb;" horiz-adv-x="624" 
d="M739 634l-7 -27q-47 -3 -60.5 -12t-24.5 -42q-16 -49 -53.5 -180.5l-48.5 -168.5q-22 -76 -48.5 -118.5t-73.5 -72.5q-50 -30 -143 -30q-52 0 -95.5 17t-63.5 46q-41 59 -15 158q11 44 55 196t50 178q5 21 -14 23l-54 6l10 27q20 0 62 -1.5t63 -1.5q24 0 62 1.5t54 1.5
l-7 -27l-47 -6q-21 -3 -29 -22q-22 -56 -58.5 -184.5t-54.5 -209.5q-17 -79 19 -122q33 -38 100 -38q75 0 118.5 41.5t75.5 151.5q60 200 89 342q4 24 -0.5 31.5t-24.5 9.5l-51 6l9 27q13 0 49.5 -1.5t51.5 -1.5q18 0 53 1.5t52 1.5zM473 819l24 3q9 -24 34.5 -58t63.5 -61
l-19 -24q-51 19 -107 57q-63 -33 -136 -57l-9 24q102 58 149 116z" />
    <glyph glyph-name="Udieresis" unicode="&#xdc;" horiz-adv-x="624" 
d="M739 634l-7 -27q-47 -3 -60.5 -12t-24.5 -42q-16 -49 -53.5 -180.5l-48.5 -168.5q-22 -76 -48.5 -118.5t-73.5 -72.5q-50 -30 -143 -30q-52 0 -95.5 17t-63.5 46q-41 59 -15 158q11 44 55 196t50 178q5 21 -14 23l-54 6l10 27q20 0 62 -1.5t63 -1.5q24 0 62 1.5t54 1.5
l-7 -27l-47 -6q-21 -3 -29 -22q-22 -56 -58.5 -184.5t-54.5 -209.5q-17 -79 19 -122q33 -38 100 -38q75 0 118.5 41.5t75.5 151.5q60 200 89 342q4 24 -0.5 31.5t-24.5 9.5l-51 6l9 27q13 0 49.5 -1.5t51.5 -1.5q18 0 53 1.5t52 1.5zM379 798h1q22 0 33.5 -14.5t9.5 -36.5
q-3 -25 -21 -40.5t-38 -15.5t-33 13.5t-10 38.5q3 24 19.5 39.5t38.5 15.5zM564 798h1q22 0 33.5 -14.5t9.5 -36.5q-3 -25 -21 -40.5t-38 -15.5t-33 13.5t-10 38.5q3 24 19.5 39.5t38.5 15.5z" />
    <glyph glyph-name="Yacute" unicode="&#xdd;" horiz-adv-x="513" 
d="M362 25l-9 -28q-84 3 -154 3q-61 0 -143 -3l9 28q8 1 30 3t32 4q19 2 27.5 9.5t16.5 28.5q25 66 60 199q5 18 1 44q-3 27 -25.5 117t-37.5 132q-10 28 -23.5 34.5t-64.5 10.5l8 27q78 -3 119 -3q66 0 123 3l-8 -28q-40 -3 -50 -8.5t-8 -18.5q6 -36 57 -246l73 95l68.5 90
t38.5 55q14 24 -7 27q-27 4 -53 6l9 28q13 0 46 -1.5t53 -1.5q13 0 49 1.5t59 1.5l-9 -28q-41 -3 -59.5 -11t-45.5 -36q-75 -79 -196 -243q-18 -24 -28 -58q-36 -122 -49 -199q-4 -23 18 -26q16 -3 73 -8zM358 682l-14 22q14 10 71.5 55t66.5 51q28 20 55 12q31 -7 22 -42
q-5 -26 -46 -44q-9 -3 -29.5 -10.5t-58 -20t-67.5 -23.5z" />
    <glyph glyph-name="Thorn" unicode="&#xde;" horiz-adv-x="541" 
d="M148 607l11 27q63 -3 117 -3q26 0 69 1.5t59 1.5l-7 -27q-46 -1 -59 -7t-20 -23q-12 -33 -22 -71q43 5 87 5q99 0 140 -52q28 -36 28 -96q0 -126 -95 -195q-63 -44 -158 -44q-66 0 -104 19q-19 -75 -21 -82q-4 -21 8 -26.5t73 -9.5l-8 -28q-111 3 -141 3q-32 0 -122 -3
l8 28q49 4 63 10t21 28q19 54 77 256q59 209 69 254q5 20 -7 25.5t-66 8.5zM454 376v1q0 40 -17 65q-26 38 -96 38q-52 0 -57 -18q-42 -134 -79 -283q25 -23 84 -23q56 0 94 32q34 32 52.5 83.5t18.5 104.5z" />
    <glyph glyph-name="germandbls" unicode="&#xdf;" horiz-adv-x="549" 
d="M75 424h73q39 129 114 196q67 60 157 60q75 0 111 -35t36 -90q0 -37 -14 -60q-72 -19 -110.5 -53.5t-38.5 -75.5q0 -29 19 -56q16 -26 41 -59q42 -53 42 -105q-1 -70 -53 -115t-128 -45q-67 0 -116 30q9 24 26 120l25 3q-6 -123 82 -123q36 0 59.5 25t23.5 63
q0 35 -23 71q-12 18 -40 56q-35 47 -35 91q0 55 42 100t114 72q14 24 14 65q0 39 -21 65t-64 26q-67 0 -108.5 -64.5t-76.5 -198.5q-88 -347 -118 -425q-25 -64 -56.5 -106t-80.5 -71q-41 -25 -90 -25q-29 0 -52 18t-23 41q0 15 10.5 28t24.5 19q19 8 33 -12q28 -47 61 -47
q27 0 44.5 23.5t34.5 78.5q52 163 124 479l-74 7z" />
    <glyph glyph-name="agrave" unicode="&#xe0;" horiz-adv-x="513" 
d="M490 130l19 -20q-23 -49 -63 -86.5t-91 -37.5q-38 0 -47 32t5 69q3 12 9 33h-2q-36 -55 -89 -94.5t-113 -39.5q-41 0 -61.5 28t-20.5 75q0 85 47.5 177t119.5 139q54 36 112 36q69 0 86 -46l10 34h82q-75 -214 -105 -358q-8 -36 10 -36q20 0 46.5 27.5t45.5 67.5zM126 93
v-1q0 -57 38 -57q73 0 147 125q21 36 45 97t24 88q0 32 -16 47.5t-40 15.5q-52 0 -98 -53q-44 -52 -72 -126t-28 -136zM381 500l-21 -14l-39 49.5l-38 47t-19 24.5q-21 27 -18 52q2 17 12 26t22 9q30 -2 45 -38z" />
    <glyph glyph-name="aacute" unicode="&#xe1;" horiz-adv-x="513" 
d="M490 130l19 -20q-23 -49 -63 -86.5t-91 -37.5q-38 0 -47 32t5 69q3 12 9 33h-2q-36 -55 -89 -94.5t-113 -39.5q-41 0 -61.5 28t-20.5 75q0 85 47.5 177t119.5 139q54 36 112 36q69 0 86 -46l10 34h82q-75 -214 -105 -358q-8 -36 10 -36q20 0 46.5 27.5t45.5 67.5zM126 93
v-1q0 -57 38 -57q73 0 147 125q21 36 45 97t24 88q0 32 -16 47.5t-40 15.5q-52 0 -98 -53q-44 -52 -72 -126t-28 -136zM320 487l-20 16q10 14 51 76.5l50 75.5q24 34 53 34q13 0 21 -9.5t7 -23.5q0 -26 -33 -57z" />
    <glyph glyph-name="acircumflex" unicode="&#xe2;" horiz-adv-x="513" 
d="M490 130l19 -20q-23 -49 -63 -86.5t-91 -37.5q-38 0 -47 32t5 69q3 12 9 33h-2q-36 -55 -89 -94.5t-113 -39.5q-41 0 -61.5 28t-20.5 75q0 85 47.5 177t119.5 139q54 36 112 36q69 0 86 -46l10 34h82q-75 -214 -105 -358q-8 -36 10 -36q20 0 46.5 27.5t45.5 67.5zM126 93
v-1q0 -57 38 -57q73 0 147 125q21 36 45 97t24 88q0 32 -16 47.5t-40 15.5q-52 0 -98 -53q-44 -52 -72 -126t-28 -136zM372 685l25 6q13 -88 61 -187l-23 -17q-39 45 -69 105q-40 -42 -120 -105l-17 20q86 90 143 178z" />
    <glyph glyph-name="atilde" unicode="&#xe3;" horiz-adv-x="513" 
d="M490 130l19 -20q-23 -49 -63 -86.5t-91 -37.5q-38 0 -47 32t5 69q3 12 9 33h-2q-36 -55 -89 -94.5t-113 -39.5q-41 0 -61.5 28t-20.5 75q0 85 47.5 177t119.5 139q54 36 112 36q69 0 86 -46l10 34h82q-75 -214 -105 -358q-8 -36 10 -36q20 0 46.5 27.5t45.5 67.5zM126 93
v-1q0 -57 38 -57q73 0 147 125q21 36 45 97t24 88q0 32 -16 47.5t-40 15.5q-52 0 -98 -53q-44 -52 -72 -126t-28 -136zM267 509l-30 4q1 49 20 83.5t58 34.5q29 0 62 -33q32 -28 44 -28q28 0 32 62l29 -5q-2 -118 -72 -118q-27 0 -67 37q-3 3 -9 8l-8.5 7t-7 4.5t-8 3.5
t-8.5 1q-30 0 -35 -61z" />
    <glyph glyph-name="adieresis" unicode="&#xe4;" horiz-adv-x="513" 
d="M490 130l19 -20q-23 -49 -63 -86.5t-91 -37.5q-38 0 -47 32t5 69q3 12 9 33h-2q-36 -55 -89 -94.5t-113 -39.5q-41 0 -61.5 28t-20.5 75q0 85 47.5 177t119.5 139q54 36 112 36q69 0 86 -46l10 34h82q-75 -214 -105 -358q-8 -36 10 -36q20 0 46.5 27.5t45.5 67.5zM126 93
v-1q0 -57 38 -57q73 0 147 125q21 36 45 97t24 88q0 32 -16 47.5t-40 15.5q-52 0 -98 -53q-44 -52 -72 -126t-28 -136zM278 634h1q44 0 41 -50q-1 -24 -18 -39t-38 -15q-19 0 -31 12.5t-11 35.5q1 25 18 40.5t38 15.5zM445 634h1q44 0 41 -50q-1 -24 -18 -39t-38 -15
q-19 0 -31 12.5t-11 35.5q1 25 18 40.5t38 15.5z" />
    <glyph glyph-name="aring" unicode="&#xe5;" horiz-adv-x="513" 
d="M490 130l19 -20q-23 -49 -63 -86.5t-91 -37.5q-38 0 -47 32t5 69q3 12 9 33h-2q-36 -55 -89 -94.5t-113 -39.5q-41 0 -61.5 28t-20.5 75q0 85 47.5 177t119.5 139q54 36 112 36q69 0 86 -46l10 34h82q-75 -214 -105 -358q-8 -36 10 -36q20 0 46.5 27.5t45.5 67.5zM126 93
v-1q0 -57 38 -57q73 0 147 125q21 36 45 97t24 88q0 32 -16 47.5t-40 15.5q-52 0 -98 -53q-44 -52 -72 -126t-28 -136zM375 671h1q38 0 59 -23t17 -64q-5 -43 -35.5 -67t-71.5 -24q-39 0 -61 22.5t-18 61.5q5 44 35.5 69t73.5 25zM369 646h-1q-21 0 -33 -21.5t-15 -47.5
q-7 -58 31 -58q40 0 49 71q4 23 -3 39.5t-28 16.5z" />
    <glyph glyph-name="ae" unicode="&#xe6;" horiz-adv-x="685" 
d="M122 80v-1q0 -19 8 -32t22 -13q35 0 78 40.5t77 107.5q6 11 16.5 37.5l14.5 36.5q29 79 89 131q-20 17 -62 17q-36 0 -76.5 -22.5t-73.5 -67.5q-93 -120 -93 -234zM648 154l2 -52q-87 -116 -220 -116q-61 0 -91 36.5t-30 92.5h-4q-38 -52 -90.5 -90.5t-107.5 -38.5
q-75 0 -75 92q0 81 46 164t118 134q76 59 165 59q64 0 98 -25q53 31 111 31q59 0 84 -30t25 -73q0 -39 -29 -64q-16 -14 -48 -28q-77 -34 -198 -48q-9 -31 -9 -72q0 -45 20.5 -71.5t56.5 -26.5q100 0 161 126h15zM553 411h-1q-34 0 -73.5 -41.5t-68.5 -139.5q74 9 137 36
q56 25 56 88q0 57 -50 57z" />
    <glyph glyph-name="ccedilla" unicode="&#xe7;" horiz-adv-x="420" 
d="M216 -12l-30 -37q23 -6 41.5 -23t18.5 -46q0 -45 -29.5 -67t-71.5 -22q-37 0 -64 20l12 28q20 -13 47 -13q43 0 43 36q0 37 -60 39l-3 11l62 72h-9q-130 5 -130 142q0 76 36 149t98 118q65 46 132 46q55 0 83.5 -25t28.5 -65q0 -29 -15.5 -45t-36.5 -16q-19 0 -27 12
q-10 10 -4 27q11 29 11 39q0 44 -48 44q-69 0 -122 -101q-46 -85 -46 -183q0 -49 21 -75.5t59 -26.5q100 0 156 125h12l3 -48q-23 -41 -67.5 -73.5t-100.5 -41.5z" />
    <glyph glyph-name="egrave" unicode="&#xe8;" horiz-adv-x="419" 
d="M381 154l4 -50q-37 -55 -94.5 -86.5t-120.5 -31.5t-96 36.5t-33 102.5q0 75 34.5 149t95.5 121q59 46 131 46q58 0 85 -29.5t27 -72.5q0 -57 -71 -89q-80 -37 -204 -52q-8 -38 -8 -69q0 -101 77 -101q105 0 158 126h15zM291 411h-1q-37 0 -77.5 -42.5t-67.5 -138.5
q82 9 137 34q56 29 56 89q0 27 -12.5 42.5t-34.5 15.5zM337 500l-21 -14l-39 49.5l-38 47t-19 24.5q-21 27 -18 52q2 17 12 26t22 9q30 -2 45 -38z" />
    <glyph glyph-name="eacute" unicode="&#xe9;" horiz-adv-x="419" 
d="M381 154l4 -50q-37 -55 -94.5 -86.5t-120.5 -31.5t-96 36.5t-33 102.5q0 75 34.5 149t95.5 121q59 46 131 46q58 0 85 -29.5t27 -72.5q0 -57 -71 -89q-80 -37 -204 -52q-8 -38 -8 -69q0 -101 77 -101q105 0 158 126h15zM291 411h-1q-37 0 -77.5 -42.5t-67.5 -138.5
q82 9 137 34q56 29 56 89q0 27 -12.5 42.5t-34.5 15.5zM282 486l-20 16q10 14 51 76.5l50 75.5q24 34 53 34q13 0 21 -9.5t7 -23.5q0 -26 -33 -57z" />
    <glyph glyph-name="ecircumflex" unicode="&#xea;" horiz-adv-x="419" 
d="M381 154l4 -50q-37 -55 -94.5 -86.5t-120.5 -31.5t-96 36.5t-33 102.5q0 75 34.5 149t95.5 121q59 46 131 46q58 0 85 -29.5t27 -72.5q0 -57 -71 -89q-80 -37 -204 -52q-8 -38 -8 -69q0 -101 77 -101q105 0 158 126h15zM291 411h-1q-37 0 -77.5 -42.5t-67.5 -138.5
q82 9 137 34q56 29 56 89q0 27 -12.5 42.5t-34.5 15.5zM333 685l25 6q13 -88 61 -187l-23 -17q-39 45 -69 105q-40 -42 -120 -105l-17 20q86 90 143 178z" />
    <glyph glyph-name="edieresis" unicode="&#xeb;" horiz-adv-x="419" 
d="M381 154l4 -50q-37 -55 -94.5 -86.5t-120.5 -31.5t-96 36.5t-33 102.5q0 75 34.5 149t95.5 121q59 46 131 46q58 0 85 -29.5t27 -72.5q0 -57 -71 -89q-80 -37 -204 -52q-8 -38 -8 -69q0 -101 77 -101q105 0 158 126h15zM291 411h-1q-37 0 -77.5 -42.5t-67.5 -138.5
q82 9 137 34q56 29 56 89q0 27 -12.5 42.5t-34.5 15.5zM244 633h1q44 0 41 -50q-1 -24 -18 -39t-38 -15q-19 0 -31 12.5t-11 35.5q1 25 18 40.5t38 15.5zM411 633h1q44 0 41 -50q-1 -24 -18 -39t-38 -15q-19 0 -31 12.5t-11 35.5q1 25 18 40.5t38 15.5z" />
    <glyph glyph-name="igrave" unicode="&#xec;" horiz-adv-x="267" 
d="M75 389l10 28q115 9 167 24l3 -4q-22 -50 -63.5 -178.5t-57.5 -194.5q-7 -30 7 -30q22 0 52 30t47 66l20 -21q-32 -59 -75 -91t-89 -32q-71 0 -36 112q4 13 39.5 121.5t47.5 153.5q3 10 1 13.5t-11 3.5q-40 0 -62 -1zM244 500l-21 -14l-39 49.5l-38 47t-19 24.5
q-21 27 -18 52q2 17 12 26t22 9q30 -2 45 -38z" />
    <glyph glyph-name="iacute" unicode="&#xed;" horiz-adv-x="267" 
d="M75 389l10 28q115 9 167 24l3 -4q-22 -50 -63.5 -178.5t-57.5 -194.5q-7 -30 7 -30q22 0 52 30t47 66l20 -21q-32 -59 -75 -91t-89 -32q-71 0 -36 112q4 13 39.5 121.5t47.5 153.5q3 10 1 13.5t-11 3.5q-40 0 -62 -1zM191 486l-20 16q10 14 51 76.5l50 75.5q24 34 53 34
q13 0 21 -9.5t7 -23.5q0 -26 -33 -57z" />
    <glyph glyph-name="icircumflex" unicode="&#xee;" horiz-adv-x="267" 
d="M75 389l10 28q115 9 167 24l3 -4q-22 -50 -63.5 -178.5t-57.5 -194.5q-7 -30 7 -30q22 0 52 30t47 66l20 -21q-32 -59 -75 -91t-89 -32q-71 0 -36 112q4 13 39.5 121.5t47.5 153.5q3 10 1 13.5t-11 3.5q-40 0 -62 -1zM239 685l25 6q13 -88 61 -187l-23 -17
q-39 45 -69 105q-40 -42 -120 -105l-17 20q86 90 143 178z" />
    <glyph glyph-name="idieresis" unicode="&#xef;" horiz-adv-x="267" 
d="M75 389l10 28q115 9 167 24l3 -4q-22 -50 -63.5 -178.5t-57.5 -194.5q-7 -30 7 -30q22 0 52 30t47 66l20 -21q-32 -59 -75 -91t-89 -32q-71 0 -36 112q4 13 39.5 121.5t47.5 153.5q3 10 1 13.5t-11 3.5q-40 0 -62 -1zM149 633h1q44 0 41 -50q-1 -24 -18 -39t-38 -15
q-19 0 -31 12.5t-11 35.5q1 25 18 40.5t38 15.5zM316 633h1q44 0 41 -50q-1 -24 -18 -39t-38 -15q-19 0 -31 12.5t-11 35.5q1 25 18 40.5t38 15.5z" />
    <glyph glyph-name="eth" unicode="&#xf0;" horiz-adv-x="472" 
d="M202 650l17 25q43 -2 87.5 -21.5t78.5 -53.5l109 55l4 -35l-92 -44q55 -78 54 -201q-2 -108 -42 -206t-106 -145q-58 -38 -128 -38q-57 0 -100 32.5t-43 111.5q0 75 37.5 152.5t96.5 119.5q59 39 126 39q53 0 78 -25q2 79 -31 134l-132 -64l-5 35l62.5 28l59.5 27
q-19 30 -55.5 50t-75.5 24zM303 413h-1q-50 0 -94 -57q-35 -45 -59 -117t-23 -132q0 -49 19 -70.5t47 -21.5q48 0 87 47q35 43 64 127.5t31 150.5q2 31 -17 52t-54 21z" />
    <glyph glyph-name="ntilde" unicode="&#xf1;" horiz-adv-x="526" 
d="M495 129l19 -20q-30 -59 -74 -91.5t-88 -32.5q-78 0 -34 122l83 228q10 23 4.5 40.5t-28.5 17.5q-60 0 -122 -82t-97 -175q-31 -82 -47 -138q-29 -1 -88 -8q34 89 69.5 208t46.5 175q4 18 -9 18l-61 -1l9 27q96 7 160 24l-49 -172q115 172 232 172q30 0 50 -16
q36 -32 4 -118q-85 -238 -86 -242q-10 -30 8 -30q21 0 49.5 28t48.5 66zM271 509l-30 4q1 49 20 83.5t58 34.5q29 0 62 -33q32 -28 44 -28q28 0 32 62l29 -5q-2 -118 -72 -118q-27 0 -67 37q-3 3 -9 8l-8.5 7t-7 4.5t-8 3.5t-8.5 1q-30 0 -35 -61z" />
    <glyph glyph-name="ograve" unicode="&#xf2;" horiz-adv-x="472" 
d="M305 441h1q70 0 107 -38.5t37 -110.5q0 -75 -35 -151t-93 -115q-60 -40 -135 -40q-38 0 -68 10.5t-53.5 44.5t-23.5 90q0 75 37 151.5t97 118.5q59 40 129 40zM303 413h-1q-53 0 -97 -61q-32 -45 -55.5 -118t-23.5 -128q0 -47 19.5 -69t48.5 -22q47 0 84 44q37 45 63 126
t26 142q0 86 -64 86zM361 500l-21 -14l-39 49.5l-38 47t-19 24.5q-21 27 -18 52q2 17 12 26t22 9q30 -2 45 -38z" />
    <glyph glyph-name="oacute" unicode="&#xf3;" horiz-adv-x="472" 
d="M305 441h1q70 0 107 -38.5t37 -110.5q0 -75 -35 -151t-93 -115q-60 -40 -135 -40q-38 0 -68 10.5t-53.5 44.5t-23.5 90q0 75 37 151.5t97 118.5q59 40 129 40zM303 413h-1q-53 0 -97 -61q-32 -45 -55.5 -118t-23.5 -128q0 -47 19.5 -69t48.5 -22q47 0 84 44q37 45 63 126
t26 142q0 86 -64 86zM300 486l-20 16q10 14 51 76.5l50 75.5q24 34 53 34q13 0 21 -9.5t7 -23.5q0 -26 -33 -57z" />
    <glyph glyph-name="ocircumflex" unicode="&#xf4;" horiz-adv-x="472" 
d="M305 441h1q70 0 107 -38.5t37 -110.5q0 -75 -35 -151t-93 -115q-60 -40 -135 -40q-38 0 -68 10.5t-53.5 44.5t-23.5 90q0 75 37 151.5t97 118.5q59 40 129 40zM303 413h-1q-53 0 -97 -61q-32 -45 -55.5 -118t-23.5 -128q0 -47 19.5 -69t48.5 -22q47 0 84 44q37 45 63 126
t26 142q0 86 -64 86zM351 685l25 6q13 -88 61 -187l-23 -17q-39 45 -69 105q-40 -42 -120 -105l-17 20q86 90 143 178z" />
    <glyph glyph-name="otilde" unicode="&#xf5;" horiz-adv-x="472" 
d="M305 441h1q70 0 107 -38.5t37 -110.5q0 -75 -35 -151t-93 -115q-60 -40 -135 -40q-38 0 -68 10.5t-53.5 44.5t-23.5 90q0 75 37 151.5t97 118.5q59 40 129 40zM303 413h-1q-53 0 -97 -61q-32 -45 -55.5 -118t-23.5 -128q0 -47 19.5 -69t48.5 -22q47 0 84 44q37 45 63 126
t26 142q0 86 -64 86zM242 509l-30 4q1 49 20 83.5t58 34.5q29 0 62 -33q32 -28 44 -28q28 0 32 62l29 -5q-2 -118 -72 -118q-27 0 -67 37q-3 3 -9 8l-8.5 7t-7 4.5t-8 3.5t-8.5 1q-30 0 -35 -61z" />
    <glyph glyph-name="odieresis" unicode="&#xf6;" horiz-adv-x="472" 
d="M305 441h1q70 0 107 -38.5t37 -110.5q0 -75 -35 -151t-93 -115q-60 -40 -135 -40q-38 0 -68 10.5t-53.5 44.5t-23.5 90q0 75 37 151.5t97 118.5q59 40 129 40zM303 413h-1q-53 0 -97 -61q-32 -45 -55.5 -118t-23.5 -128q0 -47 19.5 -69t48.5 -22q47 0 84 44q37 45 63 126
t26 142q0 86 -64 86zM258 633h1q44 0 41 -50q-1 -24 -18 -39t-38 -15q-19 0 -31 12.5t-11 35.5q1 25 18 40.5t38 15.5zM425 633h1q44 0 41 -50q-1 -24 -18 -39t-38 -15q-19 0 -31 12.5t-11 35.5q1 25 18 40.5t38 15.5z" />
    <glyph glyph-name="divide" unicode="&#xf7;" horiz-adv-x="519" 
d="M256 138h1q21 0 34.5 -14t13.5 -35q0 -19 -14 -34t-34 -15q-18 0 -32.5 15t-14.5 34t14.5 34t31.5 15zM256 338h-1q-16 0 -30.5 14.5t-14.5 34.5q0 19 15 33.5t33 14.5q19 0 33.5 -14.5t14.5 -33.5q0 -22 -14 -35.5t-36 -13.5zM48 264h414l-1 -52h-413v52z" />
    <glyph glyph-name="oslash" unicode="&#xf8;" horiz-adv-x="472" 
d="M429 451l38 -11l-46 -50q29 -35 29 -100q0 -76 -36.5 -152t-93.5 -114t-130 -38q-59 0 -95 26q-29 -33 -37 -44l-38 12l51 54q-29 34 -29 97q0 73 36.5 149.5t94.5 118.5q61 42 132 42q57 0 92 -27zM302 413h-1q-51 0 -97 -59q-35 -45 -58.5 -121t-16.5 -137l231 275
q-14 42 -58 42zM194 15h2q48 0 87 46q37 46 62.5 129t20.5 142l-230 -275q15 -42 58 -42z" />
    <glyph glyph-name="ugrave" unicode="&#xf9;" horiz-adv-x="519" 
d="M495 130l19 -21q-27 -53 -68 -88.5t-91 -35.5q-70 0 -38 105q2 5 11 35q-44 -64 -97.5 -101.5t-108.5 -37.5q-57 0 -70.5 35t7.5 91l47.5 146t37.5 116q4 16 -13 16l-58 -2l13 28q120 12 167 25q-19 -31 -60 -155.5t-57 -196.5q-6 -24 0.5 -39t24.5 -15q54 0 110.5 63.5
t88.5 145.5q32 86 43 130q5 15 -13 15l-56 -1l11 28q107 8 166 25q-30 -72 -68 -189t-54 -187q-7 -33 9 -33q20 0 48.5 29t48.5 69zM367 499l-21 -14l-39 49.5l-38 47t-19 24.5q-21 27 -18 52q2 17 12 26t22 9q30 -2 45 -38z" />
    <glyph glyph-name="uacute" unicode="&#xfa;" horiz-adv-x="519" 
d="M495 130l19 -21q-27 -53 -68 -88.5t-91 -35.5q-70 0 -38 105q2 5 11 35q-44 -64 -97.5 -101.5t-108.5 -37.5q-57 0 -70.5 35t7.5 91l47.5 146t37.5 116q4 16 -13 16l-58 -2l13 28q120 12 167 25q-19 -31 -60 -155.5t-57 -196.5q-6 -24 0.5 -39t24.5 -15q54 0 110.5 63.5
t88.5 145.5q32 86 43 130q5 15 -13 15l-56 -1l11 28q107 8 166 25q-30 -72 -68 -189t-54 -187q-7 -33 9 -33q20 0 48.5 29t48.5 69zM317 486l-20 16q10 14 51 76.5l50 75.5q24 34 53 34q13 0 21 -9.5t7 -23.5q0 -26 -33 -57z" />
    <glyph glyph-name="ucircumflex" unicode="&#xfb;" horiz-adv-x="519" 
d="M495 130l19 -21q-27 -53 -68 -88.5t-91 -35.5q-70 0 -38 105q2 5 11 35q-44 -64 -97.5 -101.5t-108.5 -37.5q-57 0 -70.5 35t7.5 91l47.5 146t37.5 116q4 16 -13 16l-58 -2l13 28q120 12 167 25q-19 -31 -60 -155.5t-57 -196.5q-6 -24 0.5 -39t24.5 -15q54 0 110.5 63.5
t88.5 145.5q32 86 43 130q5 15 -13 15l-56 -1l11 28q107 8 166 25q-30 -72 -68 -189t-54 -187q-7 -33 9 -33q20 0 48.5 29t48.5 69zM368 685l25 6q13 -88 61 -187l-23 -17q-39 45 -69 105q-40 -42 -120 -105l-17 20q86 90 143 178z" />
    <glyph glyph-name="udieresis" unicode="&#xfc;" horiz-adv-x="519" 
d="M495 130l19 -21q-27 -53 -68 -88.5t-91 -35.5q-70 0 -38 105q2 5 11 35q-44 -64 -97.5 -101.5t-108.5 -37.5q-57 0 -70.5 35t7.5 91l47.5 146t37.5 116q4 16 -13 16l-58 -2l13 28q120 12 167 25q-19 -31 -60 -155.5t-57 -196.5q-6 -24 0.5 -39t24.5 -15q54 0 110.5 63.5
t88.5 145.5q32 86 43 130q5 15 -13 15l-56 -1l11 28q107 8 166 25q-30 -72 -68 -189t-54 -187q-7 -33 9 -33q20 0 48.5 29t48.5 69zM273 634h1q44 0 41 -50q-1 -24 -18 -39t-38 -15q-19 0 -31 12.5t-11 35.5q1 25 18 40.5t38 15.5zM440 634h1q44 0 41 -50q-1 -24 -18 -39
t-38 -15q-19 0 -31 12.5t-11 35.5q1 25 18 40.5t38 15.5z" />
    <glyph glyph-name="yacute" unicode="&#xfd;" horiz-adv-x="431" 
d="M41 419q93 4 159 24q-2 -62 15 -357l109 206q42 74 82.5 113t95.5 40l3 -24q-56 -13 -146 -151q-84 -133 -182 -320q-57 -107 -99 -149.5t-92 -42.5q-35 0 -53 19.5t-18 45.5q0 23 14 37t31 14q23 0 31 -23q9 -33 31 -33q28 0 58.5 36.5t71.5 121.5q-11 13 -15 56
q-7 201 -25 338q-2 15 -16 19t-63 3zM285 486l-20 16q10 14 51 76.5l50 75.5q24 34 53 34q13 0 21 -9.5t7 -23.5q0 -26 -33 -57z" />
    <glyph glyph-name="thorn" unicode="&#xfe;" horiz-adv-x="490" 
d="M349 396h-1q-43 0 -93 -52t-77 -115q-38 -74 -49 -140q2 -34 20.5 -52.5t48.5 -18.5q53 0 101 61q35 47 62 118.5t27 138.5q0 60 -39 60zM119 632l11 27q120 2 173 17q-12 -29 -27.5 -76t-27 -85.5l-31.5 -105l-29 -96.5q103 128 202 128q44 0 66 -30t22 -77
q0 -93 -50.5 -186.5t-125.5 -135.5q-49 -26 -102 -26q-66 0 -94 43q-45 -157 -52 -194q-4 -17 -1 -23t14 -8l69 -6l-8 -27h-111q-78 0 -149 -7l9 27l44 7q29 5 40 28q23 55 121 391q92 311 112 396q4 17 -12 18z" />
    <glyph glyph-name="ydieresis" unicode="&#xff;" horiz-adv-x="431" 
d="M41 419q93 4 159 24q-2 -62 15 -357l109 206q42 74 82.5 113t95.5 40l3 -24q-56 -13 -146 -151q-84 -133 -182 -320q-57 -107 -99 -149.5t-92 -42.5q-35 0 -53 19.5t-18 45.5q0 23 14 37t31 14q23 0 31 -23q9 -33 31 -33q28 0 58.5 36.5t71.5 121.5q-11 13 -15 56
q-7 201 -25 338q-2 15 -16 19t-63 3zM243 634h1q44 0 41 -50q-1 -24 -18 -39t-38 -15q-19 0 -31 12.5t-11 35.5q1 25 18 40.5t38 15.5zM410 634h1q44 0 41 -50q-1 -24 -18 -39t-38 -15q-19 0 -31 12.5t-11 35.5q1 25 18 40.5t38 15.5z" />
    <glyph glyph-name="dotlessi" unicode="&#x131;" horiz-adv-x="267" 
d="M75 389l10 28q115 9 167 24l3 -4q-22 -50 -63.5 -178.5t-57.5 -194.5q-7 -30 7 -30q22 0 52 30t47 66l20 -21q-32 -59 -75 -91t-89 -32q-71 0 -36 112q4 13 39.5 121.5t47.5 153.5q3 10 1 13.5t-11 3.5q-40 0 -62 -1z" />
    <glyph glyph-name="Lslash" unicode="&#x141;" horiz-adv-x="525" 
d="M164 607l9 27q10 0 55.5 -1.5t66.5 -1.5q2 0 131 3l-7 -27l-52 -5q-30 -4 -37 -27q-18 -50 -66 -221l52 24q53 24 74 35l20 -29q-8 -4 -72 -32t-86 -39q-53 -194 -71 -269q-1 -6 2.5 -9t15.5 -4.5t37 -1.5q78 0 109 7t55 31q33 34 80 115l26 -3q-18 -43 -70 -184
q-39 5 -306 5q-55 0 -142 -3l8 27q6 0 54 6q26 4 34 26q23 65 66 217q-12 -6 -45 -20.5t-37 -16.5l-20 28q12 6 55 24.5t58 25.5q48 164 74 267q2 11 -2.5 16t-20.5 6z" />
    <glyph glyph-name="lslash" unicode="&#x142;" horiz-adv-x="265" 
d="M58 336q42 23 86 44q60 207 67 235q3 17 -12 17l-57 1l10 27q95 0 167 17q-28 -71 -83 -260l65 36l22 -26l-99 -51q-78 -264 -89 -314q-7 -28 10 -28q20 0 49.5 28.5t47.5 67.5l20 -21q-31 -60 -74.5 -92t-88.5 -32q-22 0 -34 9.5t-13.5 27t1 36.5t10.5 44l70 238
q-5 -3 -26.5 -14.5t-28.5 -15.5z" />
    <glyph glyph-name="OE" unicode="&#x152;" horiz-adv-x="936" 
d="M168 164v-1q0 -67 30 -107t91 -40q80 0 139 62q56 60 95.5 174.5t43.5 197.5q5 79 -26 122t-97 43q-69 0 -122 -52q-69 -67 -111.5 -181t-42.5 -218zM691 631h147q108 0 141 6q-15 -34 -52 -172h-25q6 47 5 87q-2 29 -20.5 38.5t-83.5 9.5h-73q-15 0 -22 -17
q-25 -65 -70 -237q9 -2 74 -2q55 0 74.5 14t44.5 65h26q-28 -72 -65 -219l-24 2q13 58 1 82t-68 24q-61 0 -73 -2q-58 -208 -68 -255q-2 -12 1 -16.5t19 -7t55 -2.5q75 0 107.5 7t55.5 27q41 36 84 109l24 -7q-67 -165 -71 -172q-21 2 -77 4q-111 3 -163 3h-80q-47 0 -66 -3
l22 74q-81 -88 -201 -88q-98 0 -150 55.5t-52 156.5q0 110 54.5 225.5t141.5 173.5q78 53 173 53q129 0 167 -96q12 43 22 83q24 -3 65 -3z" />
    <glyph glyph-name="oe" unicode="&#x153;" horiz-adv-x="709" 
d="M304 413h-1q-55 0 -98 -61q-32 -45 -55.5 -117.5t-23.5 -127.5q0 -92 70 -92q46 0 84 45q35 43 61 125t26 138q0 90 -63 90zM672 153l2 -50q-40 -55 -95.5 -86t-119.5 -31q-44 0 -72.5 21.5t-37.5 56.5q-65 -78 -166 -78q-24 0 -46 5.5t-45 20t-36.5 44.5t-13.5 74
q0 77 36.5 152.5t97.5 118.5q59 40 129 40q99 0 122 -89q72 89 167 89q57 0 83 -28.5t26 -72.5q0 -36 -24 -60q-16 -16 -45 -29q-37 -17 -98.5 -32.5t-106.5 -20.5q-8 -34 -8 -71q0 -43 18 -71t58 -28q105 0 159 125h16zM579 411h-1q-36 0 -75.5 -41.5t-67.5 -139.5
q70 6 136 35q56 27 56 87q0 26 -12 42.5t-36 16.5z" />
    <glyph glyph-name="Scaron" unicode="&#x160;" horiz-adv-x="466" 
d="M70 215l30 5q-14 -48 -14 -89q0 -59 34.5 -87.5t93.5 -28.5q57 0 94.5 35t37.5 92q0 47 -36 81q-12 12 -31 29.5l-44.5 40l-37.5 33.5q-66 56 -66 131q0 93 71 149q52 41 130 41q45 0 79 -15t49 -37l34 48l21 -13q-34 -73 -65 -190l-27 4q20 81 -7.5 127t-88.5 46
q-55 0 -84 -33t-29 -84q0 -58 48 -96q25 -25 112 -102q62 -51 62 -118q0 -78 -50 -131q-63 -69 -184 -69q-104 0 -185 59q28 67 53 172zM352 686l-24 -4q-8 24 -34 58t-64 62l19 24q65 -26 107 -58q64 35 136 58l10 -25q-96 -54 -150 -115z" />
    <glyph glyph-name="scaron" unicode="&#x161;" horiz-adv-x="374" 
d="M364 444l20 -11q-35 -78 -53 -156l-24 -1q12 64 -6.5 100t-66.5 36q-32 0 -51.5 -20.5t-19.5 -50.5q0 -35 30 -58q12 -10 48 -36.5t42 -31.5q48 -33 48 -89q0 -59 -49 -100q-48 -40 -128 -40q-82 0 -142 41q19 45 46 143l25 4q-9 -31 -9 -67q-1 -42 23.5 -66.5
t72.5 -24.5q35 0 59 18.5t25 52.5q0 31 -30 57l-79 63q-54 38 -54 96q0 64 49 105q40 33 104 33q31 0 57 -10t36 -24zM273 495l-25 -7q-13 89 -62 187l24 19q37 -45 70 -107q40 43 118 107l17 -20q-86 -91 -142 -179z" />
    <glyph glyph-name="Ydieresis" unicode="&#x178;" horiz-adv-x="513" 
d="M362 25l-9 -28q-84 3 -154 3q-61 0 -143 -3l9 28q8 1 30 3t32 4q19 2 27.5 9.5t16.5 28.5q25 66 60 199q5 18 1 44q-3 27 -25.5 117t-37.5 132q-10 28 -23.5 34.5t-64.5 10.5l8 27q78 -3 119 -3q66 0 123 3l-8 -28q-40 -3 -50 -8.5t-8 -18.5q6 -36 57 -246l73 95l68.5 90
t38.5 55q14 24 -7 27q-27 4 -53 6l9 28q13 0 46 -1.5t53 -1.5q13 0 49 1.5t59 1.5l-9 -28q-41 -3 -59.5 -11t-45.5 -36q-75 -79 -196 -243q-18 -24 -28 -58q-36 -122 -49 -199q-4 -23 18 -26q16 -3 73 -8zM318 798h1q22 0 33.5 -14.5t9.5 -36.5q-3 -25 -21 -40.5t-38 -15.5
t-33 13.5t-10 38.5q3 24 19.5 39.5t38.5 15.5zM503 798h1q22 0 33.5 -14.5t9.5 -36.5q-3 -25 -21 -40.5t-38 -15.5t-33 13.5t-10 38.5q3 24 19.5 39.5t38.5 15.5z" />
    <glyph glyph-name="Zcaron" unicode="&#x17d;" horiz-adv-x="581" 
d="M154 438l-24 8q41 103 51 196q15 -6 60 -10q24 -1 124 -1h154q21 0 59.5 1.5t51.5 1.5q-19 -41 -38 -64q-25 -32 -203 -236l-259 -303q140 -1 201 3t86 13.5t44 33.5q36 41 72 124l24 -12q-36 -103 -60 -199q-33 3 -82 5q-34 1 -110 1h-195q-81 0 -112 -3l-6 19
l262 293.5l248 291.5h-118q-65 0 -98 -6t-47 -17t-31 -36q-20 -32 -54 -104zM411 683l-24 -4q-8 24 -34 58t-64 62l19 24q65 -26 107 -58q64 35 136 58l10 -25q-96 -54 -150 -115z" />
    <glyph glyph-name="zcaron" unicode="&#x17e;" horiz-adv-x="416" 
d="M384 188h1q11 0 11 -22q0 -88 -95 -160q-35 -26 -74 -26q-32 0 -113 22q-39 12 -65 12q-23 0 -51 -18l-9 16q22 34 50 58q207 185 304 294q-154 -1 -186 -8q-18 -4 -34.5 -26t-40.5 -70l-20 12q60 136 68 170q12 -9 38 -11q26 -4 162 -4q77 0 97 10l7 -9q-21 -44 -61 -84
q-26 -28 -277 -270q14 2 70 -6q85 -16 104 -16q41 0 60 18.5t19 42.5q0 13 -3 27q-2 13 2 21q6 9 17.5 18t18.5 9zM289 495l-25 -7q-13 89 -62 187l24 19q37 -45 70 -107q40 43 118 107l17 -20q-86 -91 -142 -179z" />
    <glyph glyph-name="longs" unicode="&#x17f;" horiz-adv-x="229" 
d="M359 680h1q39 0 63 -19.5t24 -51.5q0 -24 -14.5 -37t-31.5 -13t-25 7t-6 20q4 18 4 28q0 36 -33 36q-46 0 -78 -88q-30 -81 -80 -287q-52 -207 -86 -307q-48 -128 -139 -183q-40 -25 -91 -25q-28 0 -51.5 17.5t-23.5 42.5q0 16 11.5 30t25.5 17q18 6 30 -14
q26 -46 61 -46q27 0 45.5 25.5t37.5 82.5q39 132 94 358q21 87 36 139.5t43.5 117t62.5 97.5q54 53 120 53z" />
    <glyph glyph-name="florin" unicode="&#x192;" horiz-adv-x="472" 
d="M105 318l18 35q15 -1 44 -1t43 -1q25 91 48 140.5t54 82.5q59 61 135 61q38 0 61.5 -19.5t23.5 -52.5q0 -22 -12.5 -36t-29.5 -14t-24.5 7.5t-5.5 20.5q4 14 4 26q0 39 -36 39q-41 0 -74 -84q-23 -60 -50 -171q22 1 62 1.5t63 0.5l-16 -36q-57 3 -116 3
q-70 -261 -86 -306q-39 -112 -119 -161q-45 -27 -91 -27q-32 0 -55.5 17t-23.5 43q0 22 13 33t29 11q20 0 29 -28q15 -40 43 -40q23 0 38 20.5t30 71.5q38 121 98 366q-9 0 -97 -2z" />
    <glyph glyph-name="circumflex" unicode="&#x2c6;" horiz-adv-x="437" 
d="M332 685l25 6q13 -88 61 -187l-23 -17q-39 45 -69 105q-40 -42 -120 -105l-17 20q86 90 143 178z" />
    <glyph glyph-name="caron" unicode="&#x2c7;" horiz-adv-x="437" 
d="M318 495l-25 -7q-13 89 -62 187l24 19q37 -45 70 -107q40 43 118 107l17 -20q-86 -91 -142 -179z" />
    <glyph glyph-name="uni02C9" unicode="&#x2c9;" horiz-adv-x="439" 
d="M206 534l21 60h208l-20 -60h-209z" />
    <glyph glyph-name="breve" unicode="&#x2d8;" horiz-adv-x="438" 
d="M306 504h-1q-108 0 -66 143h27q-8 -45 10 -64q13 -15 47 -15q31 0 54 16q24 17 40 63h28q-7 -31 -16 -53.5t-24.5 -44.5t-40 -33.5t-58.5 -11.5z" />
    <glyph glyph-name="dotaccent" unicode="&#x2d9;" horiz-adv-x="381" 
d="M306 635h1q21 0 32 -14t9 -37q-2 -25 -19 -40.5t-40 -15.5q-19 0 -31 13t-11 36q1 25 18.5 41.5t40.5 16.5z" />
    <glyph glyph-name="ring" unicode="&#x2da;" horiz-adv-x="437" 
d="M339 670h1q38 0 59 -23t17 -64q-5 -43 -35.5 -67t-71.5 -24q-39 0 -61 22.5t-18 61.5q5 44 35.5 69t73.5 25zM333 645h-1q-21 0 -33 -21.5t-15 -47.5q-7 -58 31 -58q40 0 49 71q4 23 -3 39.5t-28 16.5z" />
    <glyph glyph-name="ogonek" unicode="&#x2db;" horiz-adv-x="450" 
d="M245 11h30q-118 -86 -118 -151q0 -18 10 -27.5t26 -9.5q36 0 68 29l10 -23q-53 -66 -127 -66q-29 0 -48 17.5t-19 45.5q0 52 51.5 100t116.5 85z" />
    <glyph glyph-name="tilde" unicode="&#x2dc;" horiz-adv-x="437" 
d="M229 509l-30 4q1 49 20 83.5t58 34.5q29 0 62 -33q32 -28 44 -28q28 0 32 62l29 -5q-2 -118 -72 -118q-27 0 -67 37q-3 3 -9 8l-8.5 7t-7 4.5t-8 3.5t-8.5 1q-30 0 -35 -61z" />
    <glyph glyph-name="hungarumlaut" unicode="&#x2dd;" horiz-adv-x="467" 
d="M216 487l-20 13q53 120 66 142q19 35 47 33q12 0 18.5 -10t5.5 -24q-2 -24 -30 -57zM352 487l-20 13l22.5 49.5l25.5 55.5t18 37q19 34 47 34q12 -1 18.5 -11t5.5 -24q-2 -24 -30 -57z" />
    <glyph glyph-name="pi" unicode="&#x3c0;" horiz-adv-x="458" 
d="M329 378h-124q-10 -41 -77 -255q-44 -137 -109 -137q-17 0 -27.5 14.5t-9.5 35.5q1 13 6.5 19t12.5 4q10 -5 26 -5q21 0 37 17.5t33 67.5q41 129 70 239q-51 0 -109 -17q0 3 0.5 13t0.5 12q63 41 153 41h187q19 0 110 7l-26 -59q-69 3 -70 3l-96 -324q-6 -24 5 -24
q19 0 48.5 27t49.5 72l13 -36q-30 -55 -76 -81.5t-85 -26.5q-31 0 -45 14q-12 10 -4 36z" />
    <glyph glyph-name="figuredash" unicode="&#x2012;" horiz-adv-x="304" 
d="M70 288l22 60q101 -3 216 0l-22 -60q-111 3 -216 0z" />
    <glyph glyph-name="endash" unicode="&#x2013;" horiz-adv-x="493" 
d="M41 191l22 59q57 -2 199 -2t206 2l-22 -59q-61 1 -203.5 1t-201.5 -1z" />
    <glyph glyph-name="emdash" unicode="&#x2014;" horiz-adv-x="891" 
d="M43 191l22 59q57 -2 396 -2t403 2l-21 -59q-62 1 -401.5 1t-398.5 -1z" />
    <glyph glyph-name="quoteleft" unicode="&#x2018;" horiz-adv-x="183" 
d="M283 703l6 -25q-38 -7 -67 -31.5t-36 -56.5q14 9 31 9q16 0 26 -12.5t9 -31.5q-2 -28 -20 -46.5t-43 -18.5q-24 0 -37.5 19t-11.5 50q4 56 47.5 97t95.5 47z" />
    <glyph glyph-name="quoteright" unicode="&#x2019;" horiz-adv-x="182" 
d="M127 486l-5 24q38 8 67.5 32.5t36.5 55.5q-14 -8 -31 -8q-16 0 -26 12.5t-9 31.5q2 27 20 45.5t43 18.5q23 0 36.5 -18.5t11.5 -49.5q-4 -56 -47.5 -97t-96.5 -47z" />
    <glyph glyph-name="quotesinglbase" unicode="&#x201a;" horiz-adv-x="183" 
d="M-33 -103l-5 25q38 8 68.5 33t37.5 58q-13 -10 -33 -10q-16 0 -26.5 12.5t-9.5 32.5q2 27 20.5 46.5t44.5 19.5q25 0 38.5 -19t11.5 -51q-4 -58 -48.5 -99.5t-98.5 -47.5z" />
    <glyph glyph-name="quotedblleft" unicode="&#x201c;" horiz-adv-x="337" 
d="M286 703l6 -25q-39 -7 -68.5 -31.5t-36.5 -56.5q14 9 32 9q16 0 26 -12.5t9 -31.5q-2 -27 -20.5 -46t-43.5 -19q-23 0 -36.5 19.5t-11.5 50.5q4 56 47.5 96.5t96.5 46.5zM438 703l6 -25q-38 -7 -67.5 -31.5t-36.5 -56.5q14 9 32 9q15 0 25.5 -12.5t9.5 -31.5
q-2 -27 -20.5 -46t-43.5 -19q-24 0 -37 19t-11 50q4 56 47.5 97t95.5 47z" />
    <glyph glyph-name="quotedblright" unicode="&#x201d;" horiz-adv-x="337" 
d="M129 486l-6 24q39 8 68.5 32.5t36.5 56.5q-14 -9 -32 -9q-15 0 -25.5 12t-9.5 32q2 27 20 45.5t43 18.5q24 0 37 -19t11 -50q-4 -56 -47 -96.5t-96 -46.5zM281 486l-5 24q38 8 68 32.5t37 56.5q-12 -9 -32 -9q-16 0 -26.5 12t-9.5 32q2 26 20.5 45t43.5 19
q23 0 36.5 -18.5t11.5 -49.5q-4 -57 -47.5 -97.5t-96.5 -46.5z" />
    <glyph glyph-name="quotedblbase" unicode="&#x201e;" horiz-adv-x="342" 
d="M-33 -101l-5 24q38 8 68 32.5t37 56.5q-13 -9 -32 -9q-16 0 -26.5 12.5t-9.5 31.5q2 27 20.5 46.5t43.5 19.5q24 0 37.5 -19t11.5 -51q-3 -56 -47 -97t-98 -47zM124 -101l-6 24q39 8 69 32.5t37 56.5q-13 -9 -32 -9q-17 0 -27.5 12.5t-9.5 31.5q2 27 20.5 46.5t44.5 19.5
q24 0 37.5 -19t11.5 -51q-3 -56 -47 -97t-98 -47z" />
    <glyph glyph-name="dagger" unicode="&#x2020;" horiz-adv-x="475" 
d="M357 619q2 -12 12 -28t18 -23q9 -7 -2 -16q-49 -51 -85 -176q92 3 135 39q10 10 14 -1q13 -28 29 -43q6 -8 -4 -15q-33 -22 -52 -46q-8 -8 -14 0q-25 35 -115 38q-70 -258 -79 -405q0 -12 -10 -18q-18 -7 -42 -28q-6 -3 -8 1q-10 14 -30 28q-6 4 1 16q66 140 139 406
q-88 -3 -131 -38q-10 -8 -14 1q-11 25 -31 45q-8 6 3 15q34 21 52 43q9 10 15 1q20 -36 114 -39q32 126 10 176q-4 10 6 16q40 27 59 52q8 6 10 -1z" />
    <glyph glyph-name="daggerdbl" unicode="&#x2021;" horiz-adv-x="476" 
d="M361 619q8 -31 31 -49q6 -6 -4 -15q-48 -52 -76 -145q91 4 134 37q11 8 15 -1q6 -17 28 -41q7 -7 -5 -15q-32 -22 -50 -43q-8 -9 -15 0q-25 32 -114 35q-18 -74 4 -113q-45 -47 -66 -111q92 4 133 37q11 8 15 -1q9 -20 28 -41q8 -9 -5 -15q-28 -19 -50 -43q-7 -9 -15 -1
q-26 33 -114 36q-30 -117 -12 -179q3 -10 -5 -14q-24 -13 -57 -44q-7 -7 -10 2q-13 28 -31 43q-7 5 0 13q55 72 87 179q-90 -3 -130 -37q-11 -7 -15 2q-10 23 -30 43q-7 6 4 15q30 19 49 40q10 11 16 3q18 -34 115 -38q13 65 -5 111q43 39 66 113q-89 -3 -130 -36
q-11 -7 -15 1q-10 23 -31 43q-6 8 4 15q22 15 50 40q9 11 15 2q21 -33 115 -37q25 98 3 145q-3 10 5 15q34 21 58 49q7 8 10 0z" />
    <glyph glyph-name="bullet" unicode="&#x2022;" horiz-adv-x="311" 
d="M156 136h-1q-30 0 -48.5 21t-17.5 55q2 40 28 67.5t62 27.5q33 0 51 -22t16 -58q-2 -40 -28 -65.5t-62 -25.5z" />
    <glyph glyph-name="onedotenleader" unicode="&#x2024;" horiz-adv-x="375" 
d="M139 -14h-1q-21 0 -34.5 16t-12.5 42q2 29 21 50t46 21q24 0 37.5 -17t11.5 -44q-2 -30 -20.5 -49t-47.5 -19z" />
    <glyph glyph-name="twodotenleader" unicode="&#x2025;" horiz-adv-x="512" 
d="M85 -14h-1q-22 0 -35.5 16t-12.5 42q2 29 21 50t45 21q24 0 38 -17t12 -44q-2 -30 -20 -49t-47 -19zM341 -14h-1q-22 0 -35.5 16t-12.5 42q2 29 21 50t45 21q24 0 38 -17t12 -44q-2 -30 -20.5 -49t-46.5 -19z" />
    <glyph glyph-name="ellipsis" unicode="&#x2026;" horiz-adv-x="739" 
d="M80 -14h-1q-21 0 -34 15.5t-12 41.5q2 29 20.5 49.5t44.5 20.5q24 0 37.5 -17t11.5 -44q-1 -30 -19.5 -48t-47.5 -18zM327 -14h-1q-22 0 -35 15.5t-12 41.5q1 29 20 49.5t45 20.5q24 0 38 -17t12 -44q-1 -30 -20 -48t-47 -18zM573 -14h-1q-21 0 -34 15.5t-12 41.5
q2 29 20.5 49.5t44.5 20.5q24 0 37.5 -17t11.5 -44q-1 -30 -19.5 -48t-47.5 -18z" />
    <glyph glyph-name="perthousand" unicode="&#x2030;" horiz-adv-x="1046" 
d="M147 -18l-29 26l476 560q-56 -29 -124 -29q-46 0 -75 13q5 -13 5 -41q0 -88 -54.5 -161.5t-137.5 -73.5q-48 0 -77 28.5t-29 83.5q0 87 58.5 162t142.5 75q30 0 59 -16l13 10q42 -48 110 -48q88 0 140 44q10 8 38 42l54 6zM302 594h-1q-25 0 -45 -19q-34 -30 -56.5 -90
t-22.5 -111q0 -66 49 -66q40 0 71 38.5t45.5 86t14.5 89.5q0 72 -55 72zM602 359h1q50 0 75 -30t25 -81q0 -89 -52.5 -164t-137.5 -75q-49 0 -78 28t-29 84q0 83 57.5 160.5t138.5 77.5zM607 328h-1q-26 0 -46 -19q-33 -29 -55.5 -89t-22.5 -113q0 -66 50 -66q38 0 69.5 39
t45.5 86t14 85q0 77 -54 77zM914 359h1q50 0 75 -30t25 -81q0 -88 -52.5 -163.5t-136.5 -75.5q-49 0 -78 28t-29 84q0 83 57 160.5t138 77.5zM919 328h-1q-24 0 -46 -19q-33 -29 -55 -89t-22 -113q0 -66 50 -66q38 0 69 38.5t45 86t14 85.5q0 77 -54 77z" />
    <glyph glyph-name="guilsinglleft" unicode="&#x2039;" horiz-adv-x="282" 
d="M264 405l24 -14q-38 -80 -129 -179q16 -34 28.5 -86t13.5 -94l-25 -16q-16 70 -51.5 124.5t-69.5 66.5l13 22q46 16 99.5 63t96.5 113z" />
    <glyph glyph-name="guilsinglright" unicode="&#x203a;" horiz-adv-x="282" 
d="M37 16l-24 14q40 86 129 179q-37 85 -42 180l25 16q16 -71 51.5 -124.5t69.5 -65.5l-13 -23q-47 -17 -100.5 -64t-95.5 -112z" />
    <glyph glyph-name="fraction" unicode="&#x2044;" horiz-adv-x="166" 
d="M384 684l31 -23l-575 -688l-27 27z" />
    <glyph glyph-name="zero.superior" unicode="&#x2070;" horiz-adv-x="344" 
d="M307 783h1q52 0 79.5 -32.5t27.5 -87.5q0 -65 -30.5 -128t-82.5 -94q-41 -24 -91 -24q-52 0 -83 29.5t-31 85.5q0 64 32.5 129t84.5 95q45 27 93 27zM297 757h-1q-28 0 -54 -32q-30 -36 -51 -102t-21 -116q0 -64 47 -64q32 0 57 31q29 34 49.5 102.5t20.5 117.5
q0 63 -47 63z" />
    <glyph glyph-name="four.superior" unicode="&#x2074;" horiz-adv-x="344" 
d="M262 549l53 182q-93 -80 -178 -169q32 -13 125 -13zM85 533l-2 20q152 142 237 214q46 8 70 16l5 -4q-9 -31 -19 -69.5l-22.5 -86.5l-19.5 -73q41 1 73 15l-5 -22q-25 -17 -77 -23q-3 -10 -22 -92q-43 -1 -74 -10l-5 4q27 87 29 96q-118 0 -168 15z" />
    <glyph glyph-name="five.superior" unicode="&#x2075;" horiz-adv-x="344" 
d="M146 566l-18 20q20 36 42.5 102.5t27.5 92.5q18 -7 44 -10q32 -5 63 -5q81 0 109 31l11 -13q-21 -44 -58 -63q-28 -15 -84 -15q-47 0 -75 6q-23 -66 -40 -100q18 13 48 23q30 8 57 8q47 0 76 -23t29 -67q0 -58 -48 -96q-50 -40 -123 -40q-51 0 -86 22t-35 56q0 15 11 26
t28 11q22 0 25 -30q7 -59 62 -59q38 0 60 30t23 76q1 29 -15 45.5t-45 16.5q-55 0 -89 -45z" />
    <glyph glyph-name="six.superior" unicode="&#x2076;" horiz-adv-x="344" 
d="M402 776l-2 -25q-13 3 -35 3q-62 0 -110.5 -39.5t-69.5 -101.5q27 23 55 35q31 13 58 13q42 0 67 -25t25 -67q0 -74 -64 -120q-48 -32 -105 -32q-58 0 -92 31t-34 89q0 59 30 113.5t81 88.5q67 43 153 43q25 0 43 -6zM263 627h-1q-48 0 -79 -51q-16 -25 -16 -67
q0 -30 15 -48t41 -18q32 0 56 27q34 39 34 98q0 27 -13 43t-37 16z" />
    <glyph glyph-name="seven.superior" unicode="&#x2077;" horiz-adv-x="344" 
d="M150 643l-22 5q15 29 31.5 73t19.5 58q9 -3 34 -4q19 -1 101 -1q110 0 124 1l3 -6q-15 -35 -42 -65q-78 -86 -123.5 -152.5t-62.5 -130.5l-5 -3q-28 0 -46 10q-10 8 -10 20q0 14 12 32q17 30 54.5 71l85.5 89.5t68 71.5q-20 2 -93 2q-55 0 -71.5 -4.5t-27.5 -19.5z" />
    <glyph glyph-name="eight.superior" unicode="&#x2078;" horiz-adv-x="344" 
d="M293 783h1q42 0 74 -21.5t32 -59.5q0 -35 -36 -58q-13 -9 -55 -29q38 -24 53.5 -43t15.5 -44q0 -50 -51 -82q-46 -29 -110 -29q-55 0 -91.5 24t-36.5 62q0 37 36 62q16 12 68 36q-43 32 -43 74q0 43 39 75q40 33 104 33zM283 758h-1q-28 0 -47 -15.5t-19 -42.5
q0 -21 16.5 -37t55.5 -36q58 30 58 74q0 25 -17.5 41t-45.5 16zM230 443h1q31 0 53.5 15.5t22.5 43.5q0 37 -94 85q-61 -32 -61 -76q0 -30 22.5 -49t55.5 -19z" />
    <glyph glyph-name="nine.superior" unicode="&#x2079;" horiz-adv-x="344" 
d="M107 425l4 25q14 -4 32 -4q68 0 114 37t67 102q-51 -42 -110 -42q-40 0 -66.5 24t-26.5 70q0 62 52 106q48 40 115 40q57 0 90.5 -34.5t33.5 -91.5q0 -64 -28.5 -117t-81.5 -86q-58 -36 -141 -36q-15 0 -54 7zM284 757h-1q-31 0 -55 -28q-32 -35 -32 -91q0 -29 15 -45
t39 -16q43 0 72 41q18 27 18 70q0 30 -14 49.5t-42 19.5z" />
    <glyph glyph-name="parenleft.superior" unicode="&#x207d;" horiz-adv-x="249" 
d="M234 336l-15 -20q-101 66 -96 209q3 87 42 170t106 135q45 35 100 52l5 -22q-63 -23 -113 -101q-72 -114 -78 -266q-5 -109 49 -157z" />
    <glyph glyph-name="parenright.superior" unicode="&#x207e;" horiz-adv-x="249" 
d="M187 861l16 20q101 -67 96 -210q-3 -87 -41.5 -169.5t-106.5 -134.5q-43 -34 -100 -52l-6 22q66 26 115 103q71 112 77 261q5 113 -50 160z" />
    <glyph glyph-name="n.superior" unicode="&#x207f;" horiz-adv-x="387" 
d="M108 526l7 23q79 3 128 12q-9 -24 -21 -59l-16 -46q78 104 165 104q65 0 35 -77l-31.5 -82t-29.5 -79q-7 -15 6 -15q11 0 30 15.5t36 45.5l15 -18q-48 -81 -123 -81q-53 0 -25 77q54 135 60 153q8 23 -14 23q-35 0 -72.5 -40t-63.5 -96q-25 -52 -43 -109
q-13 -1 -38.5 -2.5t-33.5 -1.5q61 151 79 239q3 14 -8 14h-42z" />
    <glyph glyph-name="zero.inferior" unicode="&#x2080;" horiz-adv-x="344" 
d="M257 231h1q52 0 79.5 -32.5t27.5 -87.5q0 -65 -30.5 -128t-82.5 -94q-41 -24 -91 -24q-52 0 -83 29.5t-31 85.5q0 64 32.5 129t84.5 95q45 27 93 27zM247 205h-1q-28 0 -54 -32q-30 -36 -51 -102t-21 -116q0 -64 47 -64q32 0 57 31q29 34 49.5 102.5t20.5 117.5
q0 63 -47 63z" />
    <glyph glyph-name="one.inferior" unicode="&#x2081;" horiz-adv-x="344" 
d="M277 -104l-9 -25q-20 0 -56.5 1t-50.5 1q-16 0 -50 -1t-52 -1l8 24l44 5q20 3 26 17q12 29 42 130q22 73 35 126q1 6 0 8.5t-6 1.5q-19 0 -65 -2l11 25q119 15 142 24l4 -3q-34 -109 -52 -177q-28 -107 -33 -134q-3 -14 11 -15z" />
    <glyph glyph-name="two.inferior" unicode="&#x2082;" horiz-adv-x="344" 
d="M319 -7l19 -10q-46 -92 -53 -113q-3 0 -22.5 1t-62 1.5t-102.5 0.5q-54 0 -75 -1l-2 6l12.5 21.5t9.5 16.5q145 76 196 146q30 41 30 84q0 28 -13 43.5t-36 15.5t-38.5 -14t-21 -29.5t-10.5 -40.5q-4 -31 -31 -31q-33 0 -33 37q0 34 40 69t105 35q50 0 82 -25.5t32 -72.5
q0 -56 -69 -106q-24 -17 -158 -97q98 2 149 6q11 0 21 13q10 11 31 44z" />
    <glyph glyph-name="three.inferior" unicode="&#x2083;" horiz-adv-x="344" 
d="M116 120l-18 30q9 28 50 54.5t93 26.5q49 0 76.5 -20t27.5 -56q0 -43 -48 -69q-27 -12 -69 -22v-4q55 -6 80 -29q20 -17 20 -51q0 -52 -55 -85q-49 -30 -115 -30q-52 0 -87 21.5t-35 55.5q0 16 10.5 27t27.5 11q23 0 26 -31q7 -58 62 -58q36 0 59.5 27t23.5 66
q0 60 -66 60q-11 0 -35 -4l-11 17l7 11q30 2 58 11q72 17 72 74q0 23 -13.5 36.5t-37.5 13.5q-30 0 -55 -21t-38 -61z" />
    <glyph glyph-name="four.inferior" unicode="&#x2084;" horiz-adv-x="344" 
d="M212 -3l53 182q-93 -80 -178 -169q33 -13 125 -13zM35 -19l-2 20q152 142 237 214q46 8 70 16l5 -4q-9 -31 -19 -69.5l-22.5 -86.5l-19.5 -73q41 1 73 15l-5 -22q-25 -17 -77 -23q-3 -10 -22 -92q-43 -1 -74 -10l-5 4q27 87 29 96q-118 0 -168 15z" />
    <glyph glyph-name="five.inferior" unicode="&#x2085;" horiz-adv-x="344" 
d="M96 14l-18 20q20 36 42.5 102.5t27.5 92.5q18 -7 44 -10q32 -5 63 -5q81 0 109 31l11 -13q-21 -44 -58 -63q-28 -15 -84 -15q-47 0 -75 6q-23 -66 -40 -100q44 31 105 31q47 0 76 -23t29 -67q0 -58 -48 -96q-50 -40 -123 -40q-51 0 -86 22t-35 56q0 15 11 26t28 11
q22 0 25 -30q7 -59 62 -59q38 0 60 30t23 76q1 29 -15 45.5t-45 16.5q-55 0 -89 -45z" />
    <glyph glyph-name="six.inferior" unicode="&#x2086;" horiz-adv-x="344" 
d="M352 224l-2 -25q-14 3 -35 3q-62 0 -110.5 -39.5t-69.5 -101.5q60 48 113 48q42 0 67 -25t25 -67q0 -74 -64 -120q-48 -32 -105 -32q-58 0 -92 31t-34 89q0 59 30 113.5t81 88.5q67 43 153 43q25 0 43 -6zM213 75h-1q-48 0 -79 -51q-16 -25 -16 -67q0 -30 15 -48t41 -18
q32 0 56 27q34 39 34 98q0 27 -13 43t-37 16z" />
    <glyph glyph-name="seven.inferior" unicode="&#x2087;" horiz-adv-x="344" 
d="M100 91l-22 5q15 29 31.5 73t19.5 58q9 -3 34 -4q19 -1 101 -1q110 0 124 1l3 -6q-15 -35 -42 -65q-78 -86 -123.5 -152.5t-62.5 -130.5l-5 -3q-28 0 -46 10q-10 8 -10 20q0 14 12 32q17 30 54.5 71l85.5 89.5t68 71.5q-20 2 -93 2q-55 0 -71.5 -4.5t-27.5 -19.5z" />
    <glyph glyph-name="eight.inferior" unicode="&#x2088;" horiz-adv-x="344" 
d="M243 231h1q42 0 74 -21.5t32 -59.5q0 -35 -36 -58q-13 -9 -55 -29q38 -24 53.5 -43t15.5 -44q0 -50 -51 -82q-46 -29 -110 -29q-55 0 -91.5 24t-36.5 62q0 37 36 62q16 12 68 36q-43 32 -43 74q0 43 39 75q40 33 104 33zM233 206h-1q-28 0 -47 -15.5t-19 -42.5
q0 -21 16.5 -37t55.5 -36q58 30 58 74q0 25 -17.5 41t-45.5 16zM180 -109h1q31 0 53.5 15.5t22.5 43.5q0 37 -94 85q-61 -32 -61 -76q0 -30 22.5 -49t55.5 -19z" />
    <glyph glyph-name="nine.inferior" unicode="&#x2089;" horiz-adv-x="344" 
d="M57 -127l4 25q14 -4 32 -4q68 0 114 37t67 102q-51 -42 -110 -42q-40 0 -66.5 24t-26.5 70q0 62 52 106q48 40 115 40q57 0 90.5 -34.5t33.5 -91.5q0 -64 -28.5 -117t-81.5 -86q-58 -36 -141 -36q-16 0 -54 7zM234 205h-1q-31 0 -55 -28q-32 -35 -32 -91q0 -29 15 -45
t39 -16q43 0 72 41q18 27 18 70q0 30 -14 49.5t-42 19.5z" />
    <glyph glyph-name="parenleft.inferior" unicode="&#x208d;" horiz-adv-x="249" 
d="M184 -216l-15 -20q-101 66 -96 209q3 87 42 170t106 135q45 35 100 52l5 -22q-63 -23 -113 -101q-72 -114 -78 -266q-5 -109 49 -157z" />
    <glyph glyph-name="parenright.inferior" unicode="&#x208e;" horiz-adv-x="249" 
d="M137 309l16 20q101 -67 96 -210q-3 -87 -41.5 -169.5t-106.5 -134.5q-43 -34 -100 -52l-6 22q66 26 115 103q71 112 77 261q5 113 -50 160z" />
    <glyph glyph-name="colonmonetary" unicode="&#x20a1;" horiz-adv-x="472" 
d="M426 579q-21 11 -48 8l-173 -542q28 -13 48 -10zM382 692l33 6l-27 -83q27 2 48 -6l25 83l34 6l-33 -97q20 -10 34 -24q5 -5 11 4l22 32l20 -9q-44 -116 -58 -180l-23 -1q10 47 7.5 83t-26.5 58l-166 -525q49 11 84.5 42.5t62.5 93.5h16q2 -22 2 -48q-57 -98 -175 -119
l-28 -91l-34 -8l31 95q-24 -3 -49 3l-29 -90l-35 -8l36 105q-107 37 -107 181q0 97 39.5 192t107.5 156q66 62 153 70zM145 178v-1q0 -85 36 -116l167 523q-48 -12 -87 -60q-54 -67 -85 -160t-31 -186z" />
    <glyph glyph-name="Euro" unicode="&#x20ac;" horiz-adv-x="470" 
d="M37 256l18 33h45q2 6 5.5 23.5t6.5 25.5h-37l17 33h30q16 45 38 85.5t55.5 80.5t81.5 64t103 24q70 0 96 -39l23 36l22 -6q-30 -84 -46 -166l-25 -3q11 68 -6 109t-64 41q-36 0 -68 -22t-55 -59t-38.5 -72t-27.5 -73h236l-17 -33h-228q-7 -26 -10 -49h209l-16 -33h-198
q-8 -42 -8 -79q0 -148 101 -148q88 0 150 104l19 -20q-40 -66 -85 -96t-117 -30q-86 0 -122.5 55.5t-36.5 137.5q0 34 7 76h-58z" />
    <glyph glyph-name="afii61289" unicode="&#x2113;" horiz-adv-x="391" 
d="M334 137l20 -15q-40 -76 -80.5 -103t-95.5 -27q-133 0 -89 168q0 1 3 11t5.5 19.5t2.5 11.5q-11 -7 -56 -28l-7 25q51 27 72 40l49 184q70 259 195 259q29 0 47.5 -19.5t17.5 -56.5q-1 -61 -40.5 -132t-86 -121.5t-101.5 -97.5l-22 -84q-17 -77 -4.5 -105t51.5 -28
q35 0 61 23t58 76zM257 510l-55 -205q65 65 115.5 146.5t51.5 154.5q0 48 -27 48q-47 0 -85 -144z" />
    <glyph glyph-name="trademark" unicode="&#x2122;" horiz-adv-x="392" 
d="M176 623h21q41 0 57 4q0 -1 -0.5 -8t-1 -19t-0.5 -25l-11 -3q-4 23 -9 30q-5 8 -31 7v-52q0 -10 0.5 -23.5t0.5 -15.5q2 -5 25 -6l-1 -14q-2 0 -18 0.5t-29 0.5q-7 0 -17.5 -0.5t-15.5 -0.5l-1 14q23 1 23 7q2 12 2 38v52q-27 0 -31 -8q-3 -7 -10 -30l-11 1q1 10 2 21.5
t2 21t1 12.5q20 -4 53 -4zM265 611l1 14q18 -1 32 -1q21 0 29 1q1 -6 7.5 -20.5l15.5 -33.5t12 -26q22 44 34 80q11 -1 27 -1q6 0 16 0.5t15 0.5l1 -13q-19 -1 -19 -7q-1 -4 -1 -25q0 -39 2 -59q1 -9 20 -9v-14q-1 0 -13.5 0.5t-21.5 0.5q-10 0 -23 -1h-13v14q18 0 18 9
q2 18 2 89h-1q-11 -25 -25.5 -63t-18.5 -46l-16 -3q-4 14 -22.5 56t-22.5 54h-1v-82q2 -12 12 -13l12 -1v-14q-3 0 -13.5 0.5t-17.5 0.5q-8 0 -19 -0.5t-14 -0.5v14q14 1 18 3.5t5 11.5q4 52 4 76l-1 3q-1 3 -6 3z" />
    <glyph glyph-name="Omega" unicode="&#x2126;" horiz-adv-x="674" 
d="M238 65l2 5q-58 25 -95.5 85t-33.5 144q8 149 101.5 249t237.5 100q105 0 165.5 -62t55.5 -163q-6 -134 -73 -215t-190 -138l-1 -5h79q56 0 79.5 15t55.5 72l25 -5q-8 -24 -35 -78t-40 -72q-9 0 -31 1.5t-52 1.5h-158l-3 6q28 51 35 69q94 51 148.5 151.5t60.5 224.5
q4 76 -31 122.5t-97 46.5q-53 0 -98.5 -34t-73 -87t-44 -112t-18.5 -115q-6 -137 73 -197q0 -6 -1 -34t-1 -35l-5 -6h-155q-15 0 -33 -0.5t-23 -0.5q-26 -2 -36 -2q-3 18 0 69t7 78l26 6q4 -60 20.5 -72.5t81.5 -12.5h75z" />
    <glyph glyph-name="estimated" unicode="&#x212e;" horiz-adv-x="829" 
d="M789 288h-559q-5 0 -5 -4v-169q0 -12 8 -20q86 -91 212 -91q134 0 222 103h49q-48 -56 -119.5 -88.5t-153.5 -32.5q-143 0 -244 90.5t-101 219.5t101 220t244 91t244.5 -91t101.5 -220v-8zM662 309v171q0 12 -9 21q-86 88 -208 88q-124 0 -211 -90q-9 -9 -9 -22v-168
q0 -4 5 -4h428q4 0 4 4z" />
    <glyph glyph-name="onethird" unicode="&#x2153;" horiz-adv-x="762" 
d="M292 300l-8 -25q-20 0 -57.5 1t-50.5 1q-16 0 -50 -1t-52 -1l9 24l43 5q22 4 27 17q13 33 42 129q34 124 35 127q1 6 -0.5 8.5t-6.5 1.5q-19 0 -65 -2l11 25q119 15 143 24l4 -3q-22 -65 -52 -178q-25 -88 -34 -133q-3 -14 11 -15zM668 669l30 -23l-567 -677l-27 27z
M493 270l-18 29q10 27 51 53.5t93 26.5q48 0 76 -19.5t28 -55.5q0 -43 -49 -68q-28 -13 -68 -22v-4q54 -4 80 -29q20 -17 20 -51q0 -51 -54 -86q-51 -30 -117 -30q-51 0 -86 22t-35 56q0 16 10.5 27t27.5 11q23 0 26 -32q7 -58 61 -58q36 0 60 27t24 67q0 60 -66 60
q-13 0 -35 -4l-11 17l7 10q39 5 58 11q72 17 72 73q0 23 -13.5 36.5t-37.5 13.5q-66 0 -93 -81h-11z" />
    <glyph glyph-name="twothirds" unicode="&#x2154;" horiz-adv-x="762" 
d="M346 396l19 -11q-43 -84 -52 -112q-3 0 -22.5 0.5t-62.5 1.5t-103 1q-54 0 -75 -1l-2 6l12.5 21.5t9.5 16.5q144 75 196 146q30 41 30 84q0 28 -13 44t-37 16q-33 0 -47.5 -22.5t-21.5 -61.5q-6 -32 -31 -32q-32 0 -32 37q0 35 39.5 70t104.5 35q50 0 82 -25.5t32 -73.5
q0 -56 -68 -106q-13 -9 -158 -97q128 3 148 6q12 1 21 13q19 21 31 44zM689 669l31 -23l-567 -677l-28 27zM507 268l-18 30q10 28 51 54.5t94 26.5q49 0 76.5 -20t27.5 -56q0 -43 -49 -67q-27 -12 -68 -22v-4q56 -4 80 -29q20 -17 20 -51q0 -51 -54 -86q-47 -30 -117 -30
q-51 0 -86.5 21.5t-35.5 56.5q0 16 11 27t28 11q23 0 25 -32q9 -58 62 -58q36 0 60 27t24 67q0 60 -66 60q-13 0 -35 -4l-12 17l7 10q39 5 58 11q72 17 72 73q0 23 -13.5 36.5t-37.5 13.5q-30 0 -55 -21t-38 -61z" />
    <glyph glyph-name="oneeighth" unicode="&#x215b;" horiz-adv-x="762" 
d="M615 381h1q43 0 74.5 -21.5t31.5 -59.5q0 -33 -36 -58q-8 -5 -54 -28q38 -25 53 -44t15 -44q0 -50 -51 -82q-44 -29 -110 -29q-56 0 -92 24t-36 63q0 38 36 61q24 18 67 36q-43 32 -43 74t39 74q41 34 105 34zM605 356h-1q-28 0 -47 -15.5t-19 -42.5q0 -21 16.5 -36.5
t55.5 -35.5q58 28 58 73q0 25 -18 41t-45 16zM551 41h1q32 0 54.5 15.5t22.5 43.5q0 19 -21 38.5t-73 47.5q-62 -32 -62 -77q0 -30 22.5 -49t55.5 -19zM290 300l-10 -25q-20 0 -57 1t-50 1q-16 0 -50.5 -1t-51.5 -1l8 24l43 5q22 4 27 17q17 44 42 130l35 126q1 6 0 8.5
t-6 1.5q-20 0 -66 -2l12 25q118 15 143 24l4 -3q-34 -109 -52 -177q-24 -85 -34 -134q-3 -14 11 -15zM665 668l30 -23l-567 -676l-28 28z" />
    <glyph glyph-name="threeeighths" unicode="&#x215c;" horiz-adv-x="762" 
d="M632 381h1q42 0 73.5 -21.5t31.5 -59.5q0 -33 -36 -58q-12 -8 -55 -28q38 -24 53.5 -43.5t15.5 -44.5q0 -50 -51 -82q-46 -29 -109 -29q-55 0 -91.5 24t-36.5 62q0 39 36 62q18 13 67 36q-43 32 -43 74q0 41 39 75q42 33 105 33zM621 356h-1q-27 0 -46 -15.5t-19 -42.5
q0 -21 16 -36.5t55 -35.5q58 28 58 73q0 25 -17.5 41t-45.5 16zM568 41h1q31 0 53.5 15.5t22.5 43.5q0 37 -93 85q-61 -30 -61 -76q0 -30 22 -49t55 -19zM150 524l-18 30q10 28 50.5 54.5t93.5 26.5q48 0 75.5 -20t27.5 -56q0 -43 -48 -69q-26 -12 -69 -22v-4q56 -6 80 -29
q20 -17 20 -51q0 -51 -54 -85q-49 -30 -116 -30q-51 0 -86.5 21.5t-35.5 55.5q0 16 10.5 27t27.5 11q23 0 26 -31q9 -58 62 -58q36 0 59.5 27t23.5 66q0 60 -65 60q-12 0 -36 -4l-11 17l7 11q35 2 58 11q72 17 72 74q0 23 -13.5 36.5t-37.5 13.5q-66 0 -93 -83h-10zM686 668
l31 -22l-566 -677l-28 28z" />
    <glyph glyph-name="fiveeighths" unicode="&#x215d;" horiz-adv-x="762" 
d="M629 381h1q43 0 74.5 -21.5t31.5 -59.5q0 -33 -36 -58q-12 -8 -55 -28q38 -24 53.5 -43.5t15.5 -44.5q0 -50 -51 -82q-46 -29 -110 -29q-56 0 -92 24t-36 62q0 39 36 62q18 13 67 36q-42 32 -42 74q0 44 39 75q40 33 104 33zM619 356h-1q-28 0 -47 -15.5t-19 -42.5
q0 -21 16.5 -36.5t55.5 -35.5q58 28 58 73q0 25 -18 41t-45 16zM565 41h1q32 0 54.5 15.5t22.5 43.5q0 37 -94 85q-62 -30 -62 -76q0 -30 22.5 -49t55.5 -19zM129 418l-17 19q20 36 42.5 103.5t27.5 92.5q18 -7 44 -10q32 -5 63 -5q81 0 109 31l11 -13q-21 -44 -58 -63
q-30 -15 -84 -15q-47 0 -75 6q-23 -66 -40 -100q44 31 105 31q47 0 76 -23t29 -67q0 -58 -49 -96q-49 -40 -123 -40q-50 0 -85 22t-35 55q0 16 10.5 27t27.5 11q23 0 26 -31q7 -58 62 -58q38 0 60 30t23 76q1 29 -15 45.5t-45 16.5q-53 0 -90 -45zM684 668l30 -23l-567 -676
l-28 28z" />
    <glyph glyph-name="seveneighths" unicode="&#x215e;" horiz-adv-x="762" 
d="M609 381h1q42 0 74 -21.5t32 -59.5q0 -35 -36 -58q-19 -12 -55 -29q38 -24 53.5 -43t15.5 -44q0 -50 -51 -82q-46 -29 -110 -29q-55 0 -91.5 23.5t-36.5 62.5q0 37 36 62q23 16 68 36q-43 32 -43 74t39 74q39 34 104 34zM599 356h-1q-28 0 -47 -15.5t-19 -42.5
q0 -21 17 -37t55 -35q58 28 58 73q0 25 -18 41t-45 16zM545 41h1q32 0 54.5 15.5t22.5 43.5q0 37 -94 85q-61 -30 -61 -76q0 -30 22 -49t55 -19zM138 495l-22 5q15 29 31.5 73t19.5 58q9 -3 34 -4q19 -1 101 -1q110 0 124 1l3 -6q-12 -32 -42 -65q-78 -86 -123.5 -152.5
t-62.5 -130.5l-4 -3q-31 0 -47 11q-10 7 -10 19q0 14 12 32q17 30 54.5 71l85.5 89.5t68 71.5q-20 2 -93 2q-55 0 -71.5 -4.5t-27.5 -19.5zM645 668l30 -23l-567 -676l-27 28z" />
    <glyph glyph-name="uni2190" unicode="&#x2190;" horiz-adv-x="666" 
d="M632 227h-485l237 -213l-37 -47l-315 288l315 288l37 -47l-237 -213h485v-56z" />
    <glyph glyph-name="uni2192" unicode="&#x2192;" horiz-adv-x="666" 
d="M32 283h486l-238 213l38 47l314 -288l-314 -288l-38 47l238 213h-486v56z" />
    <glyph glyph-name="partialdiff" unicode="&#x2202;" horiz-adv-x="464" 
d="M131 567q-1 11 9.5 34.5t20.5 32.5q31 26 111 26q84 0 136.5 -68.5t51.5 -187.5q-1 -64 -18 -133t-48.5 -134t-87.5 -106.5t-125 -41.5q-67 0 -100.5 36.5t-32.5 99.5q2 92 61 156.5t151 64.5q40 0 67 -15t37 -33h2q25 85 27 171q3 153 -115 153q-79 0 -140 -59zM194 15
h1q44 0 87.5 68.5t72.5 178.5q-7 17 -29 32.5t-51 15.5q-65 0 -103 -65t-39 -138q-1 -46 16.5 -69t44.5 -23z" />
    <glyph glyph-name="Delta" unicode="&#x2206;" horiz-adv-x="541" 
d="M462 -3q-1 0 -47 2q-8 0 -40.5 0.5t-59.5 0.5h-324l7 26l317 546q20 36 26 56q40 2 79 16q21 -403 48 -619zM340 560l-114 -203.5t-153 -278.5q-13 -26 7 -31q21 -7 130 -7t134 4q14 2 19.5 7t4.5 21q-2 41 -9 158l-12.5 208.5t-6.5 121.5z" />
    <glyph glyph-name="product" unicode="&#x220f;" horiz-adv-x="628" 
d="M89 105l101 352q36 124 36 125q5 20 -7.5 26t-59.5 7l10 29q10 0 49 -1.5t65 -1.5h317q24 0 68 2q12 0 30 0.5t22 0.5l-8 -29q-44 -1 -58 -7t-20 -26q-21 -62 -39 -121l-102 -356q-31 -106 -40 -147q-4 -19 8 -25t57 -8l-10 -28q-102 3 -120 3q-25 0 -115 -3l8 28
q43 1 56.5 7.5t20.5 26.5l42 135l140 481q5 19 2 24t-18 7q-17 2 -88 2q-69 0 -87 -2q-16 -2 -22.5 -7.5t-11.5 -24.5l-140 -481q-3 -9 -36 -134q-4 -21 6.5 -26.5t54.5 -7.5l-8 -28q-102 3 -123 3q-12 0 -114 -3l8 28q45 1 59 7.5t20 25.5q21 59 47 147z" />
    <glyph glyph-name="summation" unicode="&#x2211;" horiz-adv-x="503" 
d="M255 608q-11 0 -14.5 -3.5t-1.5 -10.5l75 -300l-234 -305q-9 -12 7 -14q25 -5 124 -5q85 0 111 4t45 17q27 20 65 96l25 -7q-6 -20 -38 -91.5t-45 -93.5q-67 5 -163 5h-75q-37 0 -96 -1.5t-71 -1.5l5 22q92 107 260 326l-97 376l5 22q8 0 28.5 -0.5t33.5 -0.5
q46 -2 73 -2h122q96 0 132 6q-19 -56 -38 -165l-27 -1q2 48 -2 84q-3 25 -22.5 34.5t-77.5 9.5h-109z" />
    <glyph glyph-name="minus" unicode="&#x2212;" horiz-adv-x="519" 
d="M48 262h414v-52h-414v52z" />
    <glyph glyph-name="uni2215" unicode="&#x2215;" horiz-adv-x="166" 
d="M384 684l31 -23l-575 -688l-27 27z" />
    <glyph glyph-name="uni2219" unicode="&#x2219;" horiz-adv-x="311" 
d="M156 136h-1q-30 0 -48.5 21t-17.5 55q2 40 28 67.5t62 27.5q33 0 51 -22t16 -58q-2 -40 -28 -65.5t-62 -25.5z" />
    <glyph glyph-name="radical" unicode="&#x221a;" horiz-adv-x="514" 
d="M593 776l-305 -924h-23l-116 432l-68 -27l-6 29l138 58l61 -251q16 -70 22 -115h2q6 26 35 115l219 683h41z" />
    <glyph glyph-name="infinity" unicode="&#x221e;" horiz-adv-x="691" 
d="M499 95h-1q-34 0 -64 16t-45.5 31.5t-46.5 51.5q-23 -26 -34.5 -37.5t-33.5 -29t-45 -25t-50 -7.5q-58 0 -95 37t-37 101q0 57 39.5 98.5t99.5 41.5q23 0 42 -4.5t37.5 -19t26 -21t28 -30t24.5 -27.5q29 33 46 50.5t49.5 34.5t67.5 17q55 0 91.5 -39.5t36.5 -99.5
q0 -56 -40.5 -97.5t-95.5 -41.5zM186 144h1q25 0 49.5 14.5t38 28.5t37.5 42l-18 22t-20 23.5t-19 18.5t-22 17.5t-22 10t-26 4.5q-40 0 -63.5 -26t-23.5 -66q0 -41 25 -65t63 -24zM498 144h1q39 0 61.5 25t22.5 65q0 42 -21.5 66.5t-60.5 24.5q-19 0 -36 -6.5t-37 -25
t-26.5 -25t-28.5 -32.5q3 -3 16.5 -19t17.5 -20l15.5 -16t18 -16l16.5 -10.5t20 -8.5t21 -2z" />
    <glyph glyph-name="integral" unicode="&#x222b;" horiz-adv-x="339" 
d="M342 735v-1q0 -36 -41 -36q-20 0 -32.5 19t-29.5 19t-27 -27.5t-8 -78.5q2 -54 14.5 -239.5t14.5 -266.5q3 -148 -32.5 -237t-113.5 -89q-27 0 -43 12t-16 32q0 18 12 29.5t33 11.5t35 -17.5t28 -17.5q38 0 33 133q-2 67 -12.5 225.5t-13.5 215.5q-16 357 142 357
q25 0 41 -12.5t16 -31.5z" />
    <glyph glyph-name="approxequal" unicode="&#x2248;" horiz-adv-x="522" 
d="M414 380l44 -18q-15 -53 -41.5 -77t-73.5 -24q-37 0 -109 38q-48 27 -72 27q-49 0 -73 -61l-41 19q30 94 117 94q40 0 104 -38q52 -26 77 -26q24 0 41 13.5t27 52.5zM414 214l44 -19q-15 -54 -42 -77.5t-73 -23.5q-36 0 -109 39q-48 25 -72 25q-49 0 -73 -61l-41 21
q31 93 117 93q37 0 105 -37q49 -27 76 -27q24 0 40.5 13.5t27.5 53.5z" />
    <glyph glyph-name="notequal" unicode="&#x2260;" horiz-adv-x="519" 
d="M48 352h236l47 101q15 -7 44 -22l-37 -79h124v-52h-148l-61 -129h209v-52h-233l-47 -101q-5 2 -14 6.5l-16.5 8.5l-13.5 7l37 79h-127v52h151l60 129h-211v52z" />
    <glyph glyph-name="lessequal" unicode="&#x2264;" horiz-adv-x="498" 
d="M67 264v58l355 175v-60l-301 -143v-2l301 -142v-61zM67 56h355v-52h-355v52z" />
    <glyph glyph-name="greaterequal" unicode="&#x2265;" horiz-adv-x="498" 
d="M421 322v-59l-354 -174v60l300 143v2l-300 142v61zM67 56h354v-52h-354v52z" />
    <glyph glyph-name="blacksquare" unicode="&#x25a0;" horiz-adv-x="416" 
d="M63 403h291v-298h-291v298z" />
    <glyph glyph-name="blackrightpointingtriangle" unicode="&#x25b6;" horiz-adv-x="621" 
d="M77 20v74.5t0.5 164.5t0.5 164.5v74.5h1l499 -236v-2l-499 -242z" />
    <glyph glyph-name="whiterightpointingtriangle" unicode="&#x25b7;" horiz-adv-x="621" 
d="M133 411l1 -304l320 155zM77 21v74.5t0.5 164.5t0.5 164.5v74.5h1l498 -236v-2l-498 -242z" />
    <glyph glyph-name="blackleftpointingtriangle" unicode="&#x25c0;" horiz-adv-x="621" 
d="M544 496q-2 -478 0 -478h-2l-499 236v2l499 242z" />
    <glyph glyph-name="whiteleftpointingtriangle" unicode="&#x25c1;" horiz-adv-x="621" 
d="M488 107v304l-320 -154zM544 497q-2 -478 0 -478h-2l-498 236v2l498 242z" />
    <glyph glyph-name="blackdiamond" unicode="&#x25c6;" horiz-adv-x="480" 
d="M36 257l202 204l206 -210l-201 -204z" />
    <glyph glyph-name="fisheye" unicode="&#x25c9;" horiz-adv-x="464" 
d="M232 457h1q78 0 132 -56t54 -136q0 -79 -54 -135t-133 -56t-133.5 55.5t-54.5 135.5t54.5 136t133.5 56zM232 405h-1q-55 0 -91 -41t-36 -99q0 -57 36.5 -98t91.5 -41t91 41t36 98q0 58 -36 99t-91 41zM232 341h-1q-30 0 -49.5 -22.5t-19.5 -53.5t20 -53.5t50 -22.5
t49.5 22.5t19.5 53.5t-19.5 53.5t-49.5 22.5z" />
    <glyph glyph-name="lozenge" unicode="&#x25ca;" horiz-adv-x="532" 
d="M492 300l-190 -343h-53l-180 338l179 348h59zM428 295l-150 298h-2l-144 -293l145 -289h1z" />
    <glyph glyph-name="uni2610" unicode="&#x2610;" horiz-adv-x="858" 
d="M137 657h626v-636l-57 -55h-623v640zM127 586v-575h560v575h-560z" />
    <glyph glyph-name="uni2611" unicode="&#x2611;" horiz-adv-x="858" 
d="M137 657h626v-636l-57 -55h-623v640zM127 586v-575h560v575h-560zM528 509q11 14 44.5 27t60.5 16l3 -4q-30 -32 -59.5 -74t-65 -105l-54 -96.5t-61 -116.5l-50.5 -99h-6q-21 18 -76 115t-55 118q5 11 27 30t34 22l1 1q6 -30 33 -100t45 -105q116 285 179 371z" />
    <glyph glyph-name="A.sc" unicode="&#xe000;" horiz-adv-x="496" 
d="M442 28l35 -3l-8 -28q-87 3 -109 3q-6 0 -108 -3l6 28q36 3 46 8.5t10 17.5q2 65 -1 129q-13 1 -60 1q-49 0 -96 -5q-33 -55 -60 -109q-12 -22 -2.5 -31t52.5 -11l-8 -28q-14 0 -43 1.5t-47 1.5q-11 0 -44 -1.5t-50 -1.5l9 28q35 2 50 11t41 45q21 29 67 103l99.5 163.5
l58.5 97.5q17 25 24 47q60 3 85 14q10 -308 20 -452q1 -13 8.5 -18.5t24.5 -7.5zM308 435l-129 -224q32 3 83 3q13 0 30 0.5t20 0.5q0 31 -0.5 72t-2 85.5t-1.5 62.5z" />
    <glyph glyph-name="A.swash" unicode="&#xe001;" horiz-adv-x="623" 
d="M547 633q42 9 73 22l10 -6q-17 -53 -51 -168q-64 -223 -102 -381q-14 -62 11 -62q19 0 47.5 25t56.5 76l19 -21q-76 -136 -179 -136q-43 0 -53.5 35t9.5 112l44 157q-57 -16 -159 -16q-85 -190 -126 -237q-43 -52 -103 -52q-31 0 -49 18t-17 44q1 30 17 46t39 16
q29 0 35 -28q5 -27 23 -27q27 0 60 54q42 68 112 232l30.5 70t31.5 66t39 67t42 49.5t52 39t57 11.5q11 0 31 -6zM526 604q-2 0 -8.5 0.5t-9.5 0.5q-31 0 -62.5 -25.5t-60 -73.5t-49.5 -91.5t-46 -103.5q101 0 150 5z" />
    <glyph glyph-name="AE.sc" unicode="&#xe002;" horiz-adv-x="710" 
d="M458 492h134q88 0 125 5q-16 -33 -39 -148l-27 -2q4 46 1 75q-3 23 -20 31t-73 8h-54q-12 0 -17 -16q-23 -80 -47 -187h53q39 0 56 11.5t35 54.5h26q-33 -105 -47 -181h-27q6 53 -2.5 68t-53.5 15h-48q-18 -69 -42 -174q-2 -13 9.5 -17t54.5 -4q66 0 94 6.5t46 26.5
q31 33 61 94l25 -7q-34 -102 -57 -155q-112 4 -194 4h-103q-9 0 -29.5 -0.5t-31.5 -0.5q-40 -2 -54 -2l9 28l49 5q22 3 30 30q18 58 44 166q-14 -1 -65.5 -1.5t-71.5 -0.5q-73 -95 -118 -163q-11 -15 -7 -22t25 -9l43 -5l-9 -28q-21 0 -52.5 1.5t-47.5 1.5q-14 0 -48.5 -1.5
t-53.5 -1.5l8 28q38 4 57.5 14.5t46.5 44.5l287 362q10 14 -5 16l-76 5l11 28q28 0 95.5 -1.5t94.5 -1.5zM352 258l54 204h-15q-27 -33 -87 -113t-69 -91h32.5h45h39.5z" />
    <glyph glyph-name="AE.swash" unicode="&#xe003;" horiz-adv-x="889" 
d="M547 638h1q12 0 32.5 -3.5t24.5 -3.5h179q104 0 146 6q-14 -26 -54 -178h-25q10 57 7 91q-2 30 -20.5 40t-85.5 10h-74q-15 0 -20 -16q-26 -73 -73 -254q159 1 226 15l4 -11l-40 -43q-186 6 -199 6q-47 -169 -65 -242q-1 -8 -1 -13t9 -7.5t24.5 -3.5t46.5 -1
q75 0 106.5 7t54.5 27q41 33 86 114l25 -6q-1 -2 -33.5 -82.5t-40.5 -96.5q-13 2 -79 5q-74 2 -160 2h-95q-35 0 -140 -3l9 27l57 6q14 2 21.5 9.5t13.5 25.5q21 62 69 232h-80t-100 -1l-21.5 -46.5l-24.5 -51.5l-23 -46t-28 -52t-29 -47q-55 -82 -130 -82q-32 0 -51 18
t-19 44q0 29 15 43t34 14q17 0 28 -17q15 -28 34 -28q30 0 63.5 45t100.5 187l55 115t45 86t52.5 81.5t48.5 46.5q44 32 93 32zM493 330l75 269q-38 5 -73 -14t-66.5 -62.5t-54.5 -85t-52 -104.5q115 -4 171 -3z" />
    <glyph glyph-name="Aacute.sc" unicode="&#xe004;" horiz-adv-x="496" 
d="M442 28l35 -3l-8 -28q-87 3 -109 3q-6 0 -108 -3l6 28q36 3 46 8.5t10 17.5q2 65 -1 129q-13 1 -60 1q-49 0 -96 -5q-33 -55 -60 -109q-12 -22 -2.5 -31t52.5 -11l-8 -28q-14 0 -43 1.5t-47 1.5q-11 0 -44 -1.5t-50 -1.5l9 28q35 2 50 11t41 45q21 29 67 103l99.5 163.5
l58.5 97.5q17 25 24 47q60 3 85 14q10 -308 20 -452q1 -13 8.5 -18.5t24.5 -7.5zM308 435l-129 -224q32 3 83 3q13 0 30 0.5t20 0.5q0 31 -0.5 72t-2 85.5t-1.5 62.5zM328 546l-17 20q13 14 60.5 73t55.5 68q27 30 54 28q13 -1 21.5 -10t7.5 -24q-2 -33 -41 -59
q-4 -3 -51.5 -34.5z" />
    <glyph glyph-name="Aacute.swash" unicode="&#xe005;" horiz-adv-x="623" 
d="M547 633q42 9 73 22l10 -6q-17 -53 -51 -168q-64 -223 -102 -381q-14 -62 11 -62q19 0 47.5 25t56.5 76l19 -21q-76 -136 -179 -136q-43 0 -53.5 35t9.5 112l44 157q-57 -16 -159 -16q-85 -190 -126 -237q-43 -52 -103 -52q-31 0 -49 18t-17 44q1 30 17 46t39 16
q29 0 35 -28q5 -27 23 -27q27 0 60 54q42 68 112 232l30.5 70t31.5 66t39 67t42 49.5t52 39t57 11.5q11 0 31 -6zM526 604q-2 0 -8.5 0.5t-9.5 0.5q-31 0 -62.5 -25.5t-60 -73.5t-49.5 -91.5t-46 -103.5q101 0 150 5zM484 683l-14 22q14 10 71.5 55t66.5 51q28 20 55 12
q31 -7 22 -42q-5 -26 -46 -44q-9 -3 -29.5 -10.5t-58 -20t-67.5 -23.5z" />
    <glyph glyph-name="Acircumflex.sc" unicode="&#xe006;" horiz-adv-x="496" 
d="M442 28l35 -3l-8 -28q-87 3 -109 3q-6 0 -108 -3l6 28q36 3 46 8.5t10 17.5q2 65 -1 129q-13 1 -60 1q-49 0 -96 -5q-33 -55 -60 -109q-12 -22 -2.5 -31t52.5 -11l-8 -28q-14 0 -43 1.5t-47 1.5q-11 0 -44 -1.5t-50 -1.5l9 28q35 2 50 11t41 45q21 29 67 103l99.5 163.5
l58.5 97.5q17 25 24 47q60 3 85 14q10 -308 20 -452q1 -13 8.5 -18.5t24.5 -7.5zM308 435l-129 -224q32 3 83 3q13 0 30 0.5t20 0.5q0 31 -0.5 72t-2 85.5t-1.5 62.5zM370 722l26 6q18 -74 71 -167l-23 -17q-45 45 -77 92q-56 -52 -123 -92l-16 18q98 93 142 160z" />
    <glyph glyph-name="Acircumflex.swash" unicode="&#xe007;" horiz-adv-x="623" 
d="M547 633q42 9 73 22l10 -6q-17 -53 -51 -168q-64 -223 -102 -381q-14 -62 11 -62q19 0 47.5 25t56.5 76l19 -21q-76 -136 -179 -136q-43 0 -53.5 35t9.5 112l44 157q-57 -16 -159 -16q-85 -190 -126 -237q-43 -52 -103 -52q-31 0 -49 18t-17 44q1 30 17 46t39 16
q29 0 35 -28q5 -27 23 -27q27 0 60 54q42 68 112 232l30.5 70t31.5 66t39 67t42 49.5t52 39t57 11.5q11 0 31 -6zM526 604q-2 0 -8.5 0.5t-9.5 0.5q-31 0 -62.5 -25.5t-60 -73.5t-49.5 -91.5t-46 -103.5q101 0 150 5zM547 824l24 3q9 -24 34.5 -58t63.5 -61l-19 -24
q-51 19 -107 57q-63 -33 -136 -57l-9 24q102 58 149 116z" />
    <glyph glyph-name="Adieresis.sc" unicode="&#xe008;" horiz-adv-x="496" 
d="M442 28l35 -3l-8 -28q-87 3 -109 3q-6 0 -108 -3l6 28q36 3 46 8.5t10 17.5q2 65 -1 129q-13 1 -60 1q-49 0 -96 -5q-33 -55 -60 -109q-12 -22 -2.5 -31t52.5 -11l-8 -28q-14 0 -43 1.5t-47 1.5q-11 0 -44 -1.5t-50 -1.5l9 28q35 2 50 11t41 45q21 29 67 103l99.5 163.5
l58.5 97.5q17 25 24 47q60 3 85 14q10 -308 20 -452q1 -13 8.5 -18.5t24.5 -7.5zM308 435l-129 -224q32 3 83 3q13 0 30 0.5t20 0.5q0 31 -0.5 72t-2 85.5t-1.5 62.5zM281 674h1q21 0 32 -15t8 -38q-4 -26 -21.5 -41t-38.5 -15q-20 0 -33 13.5t-9 39.5q4 24 20.5 40t40.5 16
zM458 674h1q21 0 32 -15t8 -38q-4 -26 -21.5 -41t-38.5 -15t-33.5 13.5t-8.5 39.5q3 24 20 40t41 16z" />
    <glyph glyph-name="Adieresis.swash" unicode="&#xe009;" horiz-adv-x="623" 
d="M547 633q42 9 73 22l10 -6q-17 -53 -51 -168q-64 -223 -102 -381q-14 -62 11 -62q19 0 47.5 25t56.5 76l19 -21q-76 -136 -179 -136q-43 0 -53.5 35t9.5 112l44 157q-57 -16 -159 -16q-85 -190 -126 -237q-43 -52 -103 -52q-31 0 -49 18t-17 44q1 30 17 46t39 16
q29 0 35 -28q5 -27 23 -27q27 0 60 54q42 68 112 232l30.5 70t31.5 66t39 67t42 49.5t52 39t57 11.5q11 0 31 -6zM526 604q-2 0 -8.5 0.5t-9.5 0.5q-31 0 -62.5 -25.5t-60 -73.5t-49.5 -91.5t-46 -103.5q101 0 150 5zM451 798h1q22 0 33.5 -14.5t9.5 -36.5q-3 -25 -21 -40.5
t-38 -15.5t-33 13.5t-10 38.5q3 24 19.5 39.5t38.5 15.5zM636 798h1q22 0 33.5 -14.5t9.5 -36.5q-3 -25 -21 -40.5t-38 -15.5t-33 13.5t-10 38.5q3 24 19.5 39.5t38.5 15.5z" />
    <glyph glyph-name="Agrave.sc" unicode="&#xe00a;" horiz-adv-x="496" 
d="M442 28l35 -3l-8 -28q-87 3 -109 3q-6 0 -108 -3l6 28q36 3 46 8.5t10 17.5q2 65 -1 129q-13 1 -60 1q-49 0 -96 -5q-33 -55 -60 -109q-12 -22 -2.5 -31t52.5 -11l-8 -28q-14 0 -43 1.5t-47 1.5q-11 0 -44 -1.5t-50 -1.5l9 28q35 2 50 11t41 45q21 29 67 103l99.5 163.5
l58.5 97.5q17 25 24 47q60 3 85 14q10 -308 20 -452q1 -13 8.5 -18.5t24.5 -7.5zM308 435l-129 -224q32 3 83 3q13 0 30 0.5t20 0.5q0 31 -0.5 72t-2 85.5t-1.5 62.5zM379 558l-21 -14l-93 108q-21 24 -19 51q1 17 12 26.5t25 9.5q29 0 43 -37q7 -17 53 -144z" />
    <glyph glyph-name="Agrave.swash" unicode="&#xe00b;" horiz-adv-x="623" 
d="M547 633q42 9 73 22l10 -6q-17 -53 -51 -168q-64 -223 -102 -381q-14 -62 11 -62q19 0 47.5 25t56.5 76l19 -21q-76 -136 -179 -136q-43 0 -53.5 35t9.5 112l44 157q-57 -16 -159 -16q-85 -190 -126 -237q-43 -52 -103 -52q-31 0 -49 18t-17 44q1 30 17 46t39 16
q29 0 35 -28q5 -27 23 -27q27 0 60 54q42 68 112 232l30.5 70t31.5 66t39 67t42 49.5t52 39t57 11.5q11 0 31 -6zM526 604q-2 0 -8.5 0.5t-9.5 0.5q-31 0 -62.5 -25.5t-60 -73.5t-49.5 -91.5t-46 -103.5q101 0 150 5zM591 708l-14 -21l-60 20.5l-57 20t-29 10.5
q-13 5 -24.5 17t-13.5 24q-7 34 27 43q27 8 54 -12q7 -5 30.5 -25.5l51.5 -45.5z" />
    <glyph glyph-name="Aring.sc" unicode="&#xe00c;" horiz-adv-x="496" 
d="M442 28l35 -3l-8 -28q-87 3 -109 3q-6 0 -108 -3l6 28q36 3 46 8.5t10 17.5q2 65 -1 129q-13 1 -60 1q-49 0 -96 -5q-33 -55 -60 -109q-12 -22 -2.5 -31t52.5 -11l-8 -28q-14 0 -43 1.5t-47 1.5q-11 0 -44 -1.5t-50 -1.5l9 28q35 2 50 11t41 45q21 29 67 103l99.5 163.5
l58.5 97.5q17 25 24 47q60 3 85 14q10 -308 20 -452q1 -13 8.5 -18.5t24.5 -7.5zM308 435l-129 -224q32 3 83 3q13 0 30 0.5t20 0.5q0 31 -0.5 72t-2 85.5t-1.5 62.5zM381 734h1q41 0 63.5 -25t16.5 -68q-6 -44 -37.5 -68t-74.5 -24q-41 0 -64.5 24.5t-17.5 67.5
q7 44 38 68.5t75 24.5zM376 707h-1q-23 0 -35.5 -20.5t-15.5 -43.5q-10 -66 32 -66q43 0 51 68q4 24 -2.5 43t-28.5 19z" />
    <glyph glyph-name="Aring.swash" unicode="&#xe00d;" horiz-adv-x="623" 
d="M547 633q42 9 73 22l10 -6q-17 -53 -51 -168q-64 -223 -102 -381q-14 -62 11 -62q19 0 47.5 25t56.5 76l19 -21q-76 -136 -179 -136q-43 0 -53.5 35t9.5 112l44 157q-57 -16 -159 -16q-85 -190 -126 -237q-43 -52 -103 -52q-31 0 -49 18t-17 44q1 30 17 46t39 16
q29 0 35 -28q5 -27 23 -27q27 0 60 54q42 68 112 232l30.5 70t31.5 66t39 67t42 49.5t52 39t57 11.5q11 0 31 -6zM526 604q-2 0 -8.5 0.5t-9.5 0.5q-31 0 -62.5 -25.5t-60 -73.5t-49.5 -91.5t-46 -103.5q101 0 150 5zM561 858h1q41 0 62.5 -23t15.5 -64q-5 -43 -36.5 -66
t-73.5 -23q-40 0 -63 22.5t-18 61.5q6 44 37 68t75 24zM554 831h-1q-22 0 -33.5 -19.5t-14.5 -42.5q-4 -28 5 -43.5t26 -15.5q40 0 49 65q3 21 -4 38.5t-27 17.5z" />
    <glyph glyph-name="Atilde.sc" unicode="&#xe00e;" horiz-adv-x="496" 
d="M442 28l35 -3l-8 -28q-87 3 -109 3q-6 0 -108 -3l6 28q36 3 46 8.5t10 17.5q2 65 -1 129q-13 1 -60 1q-49 0 -96 -5q-33 -55 -60 -109q-12 -22 -2.5 -31t52.5 -11l-8 -28q-14 0 -43 1.5t-47 1.5q-11 0 -44 -1.5t-50 -1.5l9 28q35 2 50 11t41 45q21 29 67 103l99.5 163.5
l58.5 97.5q17 25 24 47q60 3 85 14q10 -308 20 -452q1 -13 8.5 -18.5t24.5 -7.5zM308 435l-129 -224q32 3 83 3q13 0 30 0.5t20 0.5q0 31 -0.5 72t-2 85.5t-1.5 62.5zM266 560l-31 4q2 50 21 85t57 34q27 0 63 -32q33 -29 46 -29q28 0 32 64l29 -5q-4 -120 -74 -120
q-27 0 -67 37q-27 24 -40 24t-23 -16.5t-13 -45.5z" />
    <glyph glyph-name="Atilde.swash" unicode="&#xe00f;" horiz-adv-x="623" 
d="M547 633q42 9 73 22l10 -6q-17 -53 -51 -168q-64 -223 -102 -381q-14 -62 11 -62q19 0 47.5 25t56.5 76l19 -21q-76 -136 -179 -136q-43 0 -53.5 35t9.5 112l44 157q-57 -16 -159 -16q-85 -190 -126 -237q-43 -52 -103 -52q-31 0 -49 18t-17 44q1 30 17 46t39 16
q29 0 35 -28q5 -27 23 -27q27 0 60 54q42 68 112 232l30.5 70t31.5 66t39 67t42 49.5t52 39t57 11.5q11 0 31 -6zM526 604q-2 0 -8.5 0.5t-9.5 0.5q-31 0 -62.5 -25.5t-60 -73.5t-49.5 -91.5t-46 -103.5q101 0 150 5zM441 691l-32 3q2 50 22.5 84.5t60.5 34.5q28 0 65 -31
q33 -27 46 -27q27 0 33 62l31 -6q-2 -52 -20.5 -85t-55.5 -33q-28 0 -71 36q-28 23 -43 23q-13 0 -23 -17t-13 -44z" />
    <glyph glyph-name="B.sc" unicode="&#xe010;" horiz-adv-x="505" 
d="M103 469l10 28q87 -3 106 -3t62 1t67 1q81 0 111 -27t30 -75q0 -77 -82 -112q-31 -14 -79 -19l-1 -3q74 -10 105 -38q28 -25 28 -69q0 -46 -26 -79.5t-66 -52.5q-46 -24 -133 -24q-30 0 -77.5 1.5t-60.5 1.5q-70 0 -117 -3l8 28q44 4 56 8t17 15q15 42 58 189
q32 110 55 207q3 13 -8.5 17t-62.5 8zM395 395v1q0 29 -11 43q-17 27 -73 27q-38 0 -43 -14q-6 -17 -15 -49.5l-20 -72t-16 -55.5q4 -1 33 -1q65 0 105 32t40 89zM360 158v1q0 34 -15 53q-26 34 -103 34q-22 0 -34 -2q-44 -157 -54 -198q-1 -6 2 -9.5t16 -6t36 -2.5
q70 0 111 35t41 95z" />
    <glyph glyph-name="B.swash" unicode="&#xe011;" horiz-adv-x="721" 
d="M136 24q50 4 67 8.5t22 17.5q62 176 157 530q4 18 -7 19q-14 2 -47 2q-77 0 -112 -23.5t-35 -71.5q0 -22 22 -50q9 -10 9 -24q0 -17 -14.5 -28.5t-34.5 -11.5q-22 0 -39 21t-17 59q0 72 57.5 115.5t171.5 43.5h88q19 0 61.5 1t71.5 1q167 0 167 -120q0 -109 -107 -151
q-27 -11 -81 -20l-1 -5q82 -11 118 -47q33 -33 33 -86q0 -60 -32.5 -106.5t-87.5 -72.5q-59 -28 -158 -28q-30 0 -79 1.5t-72 1.5q-85 0 -130 -3zM630 518v1q0 33 -16 54q-25 30 -93 30q-36 0 -42 -14q-7 -21 -19.5 -64l-27.5 -96t-22 -75q7 -2 41 -2q78 0 128.5 46
t50.5 120zM584 221v1q0 36 -17 60q-30 43 -122 43q-24 0 -44 -2q-70 -255 -75 -279q-1 -6 3 -9.5t17 -5.5t38 -2q95 0 147.5 53t52.5 141z" />
    <glyph glyph-name="C.sc" unicode="&#xe012;" horiz-adv-x="509" 
d="M447 145h18v-15.5v-23v-15.5q-33 -52 -92.5 -79t-123.5 -27q-93 0 -142 52t-49 146q0 75 32.5 148t91.5 120q73 57 172 57q90 0 130 -48l30 45l24 -7q-34 -84 -55 -188l-26 -1q10 75 -11 119q-24 49 -87 49q-68 0 -115 -52q-41 -46 -63.5 -115t-22.5 -135q0 -73 30 -110
q34 -42 90 -42q115 0 169 122z" />
    <glyph glyph-name="C.swash" unicode="&#xe013;" horiz-adv-x="579" 
d="M552 177l2 -52q-43 -70 -114 -106t-150 -36q-103 0 -159.5 59.5t-56.5 175.5q0 100 43 197.5t121 160.5q86 71 205 71q81 0 127 -36.5t46 -95.5q0 -36 -17.5 -56t-41.5 -20q-22 0 -31 14.5t-1 34.5q12 34 12 49q1 37 -25 58.5t-73 21.5q-83 0 -146 -75q-56 -66 -85 -155
t-29 -182q0 -79 33 -125q41 -55 110 -55q76 0 125 35t89 117h16z" />
    <glyph glyph-name="Ccedilla.sc" unicode="&#xe014;" horiz-adv-x="507" 
d="M272 -14q-11 -12 -27 -34q59 -17 59 -70q0 -45 -29 -67t-71 -22q-38 0 -65 20l12 27q24 -13 47 -13q44 0 44 36q0 19 -17 29.5t-44 10.5l-3 11l61 71q-6 0 -9 1q-85 4 -128.5 56t-43.5 139q0 76 32.5 149t91.5 121q73 57 172 57q92 0 130 -48l29 45l24 -6
q-34 -91 -54 -189h-26q10 75 -12 118q-24 49 -87 49q-65 0 -113 -52q-41 -46 -64 -115t-23 -136q0 -71 31 -110q34 -41 88 -41q116 0 169 122h19v-54q-31 -48 -84 -74.5t-109 -30.5z" />
    <glyph glyph-name="Ccedilla.swash" unicode="&#xe015;" horiz-adv-x="579" 
d="M298 -137v1q0 37 -60 39l-3 11l59 69q-109 -1 -164.5 61t-55.5 174q0 100 43 197.5t121 160.5q86 71 205 71q81 0 127 -36.5t46 -95.5q0 -36 -17.5 -56t-41.5 -20q-22 0 -31 14.5t-1 34.5q12 34 12 49q1 37 -25 58.5t-73 21.5q-83 0 -147 -75q-56 -66 -84.5 -155
t-28.5 -182q0 -79 33 -125q40 -55 109 -55q76 0 125 35t89 117h16l2 -53q-77 -122 -225 -139q-20 -24 -26 -34q23 -6 41 -23t18 -47q0 -45 -29 -67t-72 -22q-37 0 -64 20l12 28q20 -13 47 -13q43 0 43 36z" />
    <glyph glyph-name="D.sc" unicode="&#xe016;" horiz-adv-x="560" 
d="M103 469l10 27q74 -4 102 -3q15 0 53 1t62 1q110 0 158 -44q53 -46 53 -143q-1 -92 -48.5 -172t-132.5 -115q-57 -24 -144 -24q-26 0 -69 1.5t-59 1.5q-18 0 -58.5 -1.5t-47.5 -1.5l9 28l39 4q15 2 21.5 6t11.5 16q15 44 58 192q45 164 53 197q3 20 -16 23zM321 464h-1
q-46 0 -52 -15q-14 -41 -58 -204q-49 -176 -53 -200q-1 -6 1.5 -9.5t13 -6t30.5 -2.5q79 0 129 34q49 34 80.5 111.5t32.5 155.5q0 60 -22 92q-31 44 -101 44z" />
    <glyph glyph-name="D.swash" unicode="&#xe017;" horiz-adv-x="804" 
d="M131 24l57 5q17 2 25.5 8t15.5 26q85 252 152 513q5 19 -7 22q-7 2 -40 2q-156 0 -156 -100q0 -25 20 -50q9 -13 9 -27q-1 -18 -14 -29.5t-33 -11.5q-22 0 -39.5 21t-17.5 60q0 76 63 121.5t183 46.5h78q16 0 59.5 1t74.5 1q121 0 182 -53q64 -53 64 -174
q0 -126 -61.5 -231.5t-171.5 -151.5q-69 -28 -173 -28q-35 0 -73 3q-48 2 -73 2q-46 0 -134 -4zM540 603h-1q-32 0 -43.5 -3.5t-15.5 -13.5q-26 -80 -79.5 -268t-71.5 -269q-2 -8 1.5 -13t17.5 -8t41 -3q86 0 137 27q81 44 130.5 155t49.5 220q0 78 -32 122q-41 54 -134 54z
" />
    <glyph glyph-name="E.sc" unicode="&#xe018;" horiz-adv-x="484" 
d="M103 468l10 29q92 -4 118 -4h140q95 0 126 6q-17 -36 -42 -148l-28 -2q5 40 2 73q-2 24 -18.5 32t-75.5 8h-51q-10 0 -16 -14q-20 -56 -51 -176q8 -2 51 -2t59.5 11.5t36.5 54.5h27q-26 -71 -52 -182h-27q7 51 -1.5 67t-52.5 16t-51 -1q-37 -128 -50 -185q-2 -13 10 -17
t55 -4q67 0 94.5 7.5t46.5 28.5q33 34 62 89l26 -4q-34 -94 -60 -156q-140 5 -199 5h-101q-9 0 -30 -0.5t-32 -0.5q-44 -2 -53 -2l9 27l48 6q23 3 33 31q20 57 55 184q35 122 53 196q3 12 -1 17t-18 6z" />
    <glyph glyph-name="E.swash" unicode="&#xe019;" horiz-adv-x="544" 
d="M423 364l-37 -33q-18 5 -52 5q-81 0 -122 -44.5t-41 -117.5q0 -69 39 -107t102 -38q77 0 117.5 36.5t67.5 102.5h20v-53q-35 -59 -99 -95.5t-154 -36.5q-89 0 -144.5 47t-55.5 130q0 85 60.5 136t151.5 61l1 5q-39 9 -61.5 38t-22.5 76q0 75 62 126q56 45 144 45
q82 0 119 -35.5t37 -81.5q0 -62 -51 -85l-14 10q15 32 15 70q0 39 -23.5 66t-70.5 27q-60 0 -92 -46t-32 -107q0 -75 53 -93q20 0 80 3z" />
    <glyph glyph-name="Eacute.sc" unicode="&#xe01a;" horiz-adv-x="484" 
d="M103 468l10 29q92 -4 118 -4h140q95 0 126 6q-17 -36 -42 -148l-28 -2q5 40 2 73q-2 24 -18.5 32t-75.5 8h-51q-10 0 -16 -14q-20 -56 -51 -176q8 -2 51 -2t59.5 11.5t36.5 54.5h27q-26 -71 -52 -182h-27q7 51 -1.5 67t-52.5 16t-51 -1q-37 -128 -50 -185q-2 -13 10 -17
t55 -4q67 0 94.5 7.5t46.5 28.5q33 34 62 89l26 -4q-34 -94 -60 -156q-140 5 -199 5h-101q-9 0 -30 -0.5t-32 -0.5q-44 -2 -53 -2l9 27l48 6q23 3 33 31q20 57 55 184q35 122 53 196q3 12 -1 17t-18 6zM315 546l-17 20q13 14 60.5 73t55.5 68q27 30 54 28q13 -1 21.5 -10
t7.5 -24q-2 -33 -41 -59q-5 -3 -52 -34.5z" />
    <glyph glyph-name="Eacute.swash" unicode="&#xe01b;" horiz-adv-x="544" 
d="M423 364l-37 -33q-18 5 -52 5q-81 0 -122 -44.5t-41 -117.5q0 -69 39 -107t102 -38q77 0 117.5 36.5t67.5 102.5h20v-53q-35 -59 -99 -95.5t-154 -36.5q-89 0 -144.5 47t-55.5 130q0 85 60.5 136t151.5 61l1 5q-39 9 -61.5 38t-22.5 76q0 75 62 126q56 45 144 45
q82 0 119 -35.5t37 -81.5q0 -62 -51 -85l-14 10q15 32 15 70q0 39 -23.5 66t-70.5 27q-60 0 -92 -46t-32 -107q0 -75 53 -93q20 0 80 3zM357 683l-14 22q14 10 71.5 55t66.5 51q28 20 55 12q31 -7 22 -42q-5 -26 -46 -44q-9 -3 -29.5 -10.5t-58 -20t-67.5 -23.5z" />
    <glyph glyph-name="Ecircumflex.sc" unicode="&#xe01c;" horiz-adv-x="484" 
d="M103 468l10 29q92 -4 118 -4h140q95 0 126 6q-17 -36 -42 -148l-28 -2q5 40 2 73q-2 24 -18.5 32t-75.5 8h-51q-10 0 -16 -14q-20 -56 -51 -176q8 -2 51 -2t59.5 11.5t36.5 54.5h27q-26 -71 -52 -182h-27q7 51 -1.5 67t-52.5 16t-51 -1q-37 -128 -50 -185q-2 -13 10 -17
t55 -4q67 0 94.5 7.5t46.5 28.5q33 34 62 89l26 -4q-34 -94 -60 -156q-140 5 -199 5h-101q-9 0 -30 -0.5t-32 -0.5q-44 -2 -53 -2l9 27l48 6q23 3 33 31q20 57 55 184q35 122 53 196q3 12 -1 17t-18 6zM360 722l26 6q18 -74 71 -167l-23 -17q-45 45 -77 92q-56 -52 -123 -92
l-16 18q98 93 142 160z" />
    <glyph glyph-name="Ecircumflex.swash" unicode="&#xe01d;" horiz-adv-x="544" 
d="M423 364l-37 -33q-18 5 -52 5q-81 0 -122 -44.5t-41 -117.5q0 -69 39 -107t102 -38q77 0 117.5 36.5t67.5 102.5h20v-53q-35 -59 -99 -95.5t-154 -36.5q-89 0 -144.5 47t-55.5 130q0 85 60.5 136t151.5 61l1 5q-39 9 -61.5 38t-22.5 76q0 75 62 126q56 45 144 45
q82 0 119 -35.5t37 -81.5q0 -62 -51 -85l-14 10q15 32 15 70q0 39 -23.5 66t-70.5 27q-60 0 -92 -46t-32 -107q0 -75 53 -93q20 0 80 3zM428 822l24 3q9 -24 34.5 -58t63.5 -61l-19 -24q-51 19 -107 57q-63 -33 -136 -57l-9 24q102 58 149 116z" />
    <glyph glyph-name="Edieresis.sc" unicode="&#xe01e;" horiz-adv-x="484" 
d="M103 468l10 29q92 -4 118 -4h140q95 0 126 6q-17 -36 -42 -148l-28 -2q5 40 2 73q-2 24 -18.5 32t-75.5 8h-51q-10 0 -16 -14q-20 -56 -51 -176q8 -2 51 -2t59.5 11.5t36.5 54.5h27q-26 -71 -52 -182h-27q7 51 -1.5 67t-52.5 16t-51 -1q-37 -128 -50 -185q-2 -13 10 -17
t55 -4q67 0 94.5 7.5t46.5 28.5q33 34 62 89l26 -4q-34 -94 -60 -156q-140 5 -199 5h-101q-9 0 -30 -0.5t-32 -0.5q-44 -2 -53 -2l9 27l48 6q23 3 33 31q20 57 55 184q35 122 53 196q3 12 -1 17t-18 6zM269 674h1q21 0 32 -15t8 -38q-4 -26 -21.5 -41t-38.5 -15
q-20 0 -33 13.5t-9 39.5q4 24 20.5 40t40.5 16zM446 674h1q21 0 32 -15t8 -38q-4 -26 -21.5 -41t-38.5 -15t-33.5 13.5t-8.5 39.5q3 24 20 40t41 16z" />
    <glyph glyph-name="Edieresis.swash" unicode="&#xe01f;" horiz-adv-x="544" 
d="M423 364l-37 -33q-18 5 -52 5q-81 0 -122 -44.5t-41 -117.5q0 -69 39 -107t102 -38q77 0 117.5 36.5t67.5 102.5h20v-53q-35 -59 -99 -95.5t-154 -36.5q-89 0 -144.5 47t-55.5 130q0 85 60.5 136t151.5 61l1 5q-39 9 -61.5 38t-22.5 76q0 75 62 126q56 45 144 45
q82 0 119 -35.5t37 -81.5q0 -62 -51 -85l-14 10q15 32 15 70q0 39 -23.5 66t-70.5 27q-60 0 -92 -46t-32 -107q0 -75 53 -93q20 0 80 3zM339 798h1q22 0 33.5 -14.5t9.5 -36.5q-3 -25 -21 -40.5t-38 -15.5t-33 13.5t-10 38.5q3 24 19.5 39.5t38.5 15.5zM524 798h1
q22 0 33.5 -14.5t9.5 -36.5q-3 -25 -21 -40.5t-38 -15.5t-33 13.5t-10 38.5q3 24 19.5 39.5t38.5 15.5z" />
    <glyph glyph-name="Egrave.sc" unicode="&#xe020;" horiz-adv-x="484" 
d="M103 468l10 29q92 -4 118 -4h140q95 0 126 6q-17 -36 -42 -148l-28 -2q5 40 2 73q-2 24 -18.5 32t-75.5 8h-51q-10 0 -16 -14q-20 -56 -51 -176q8 -2 51 -2t59.5 11.5t36.5 54.5h27q-26 -71 -52 -182h-27q7 51 -1.5 67t-52.5 16t-51 -1q-37 -128 -50 -185q-2 -13 10 -17
t55 -4q67 0 94.5 7.5t46.5 28.5q33 34 62 89l26 -4q-34 -94 -60 -156q-140 5 -199 5h-101q-9 0 -30 -0.5t-32 -0.5q-44 -2 -53 -2l9 27l48 6q23 3 33 31q20 57 55 184q35 122 53 196q3 12 -1 17t-18 6zM364 558l-21 -14l-93 108q-21 24 -19 51q1 17 12 26.5t25 9.5
q29 0 43 -37q7 -17 53 -144z" />
    <glyph glyph-name="Egrave.swash" unicode="&#xe021;" horiz-adv-x="544" 
d="M423 364l-37 -33q-18 5 -52 5q-81 0 -122 -44.5t-41 -117.5q0 -69 39 -107t102 -38q77 0 117.5 36.5t67.5 102.5h20v-53q-35 -59 -99 -95.5t-154 -36.5q-89 0 -144.5 47t-55.5 130q0 85 60.5 136t151.5 61l1 5q-39 9 -61.5 38t-22.5 76q0 75 62 126q56 45 144 45
q82 0 119 -35.5t37 -81.5q0 -62 -51 -85l-14 10q15 32 15 70q0 39 -23.5 66t-70.5 27q-60 0 -92 -46t-32 -107q0 -75 53 -93q20 0 80 3zM466 704l-14 -21l-60 20.5l-57 20t-29 10.5q-13 5 -24.5 17t-13.5 24q-7 34 27 43q27 8 54 -12q7 -5 30.5 -25.5l51.5 -45.5z" />
    <glyph glyph-name="Eth.sc" unicode="&#xe022;" horiz-adv-x="569" 
d="M44 239l16 38q9 0 35.5 -1t43.5 -1q34 116 45 165q2 11 -1.5 15.5t-15.5 6.5l-55 6l10 28q7 0 45.5 -2t55.5 -1q17 0 56 1t64 1q107 0 157 -45q51 -45 51 -142q0 -93 -49 -173.5t-132 -114.5q-60 -23 -146 -23q-24 0 -64 1.5t-58 1.5q-22 0 -62.5 -1.5t-47.5 -1.5l9 28
l36 4q29 3 36 22q20 60 58 190q-60 0 -87 -2zM348 277l-16 -38q-11 1 -53.5 1.5t-60.5 0.5q-36 -133 -51 -195q-2 -9 7 -14t36 -5q81 0 126 33q51 34 84.5 111.5t33.5 155.5q0 61 -20 92q-31 45 -106 45q-44 0 -50 -16l-51 -173q57 0 121 2z" />
    <glyph glyph-name="Eth.swash" unicode="&#xe023;" horiz-adv-x="805" 
d="M409 347q141 2 150 3l-15 -40q-3 0 -55 1t-90 1q-52 -177 -70 -263q-2 -8 1 -13t17 -8t41 -3q87 0 138 27q81 44 130.5 155.5t49.5 220.5q0 77 -32 121q-41 54 -134 54q-33 0 -44.5 -3.5t-15.5 -13.5q-28 -85 -71 -239zM207 311l14 38q17 0 97 -2q45 159 63 229
q5 19 -7 22q-7 2 -40 2q-156 0 -156 -100q0 -25 20 -50q9 -12 9 -27q-1 -18 -14 -29t-33 -11q-21 0 -39 20t-18 60q0 76 63.5 122t181.5 46h80q14 0 57.5 1t74.5 1q124 0 183 -53q64 -53 64 -174q0 -126 -61.5 -231.5t-171.5 -151.5q-69 -28 -174 -28q-36 0 -72 3
q-48 2 -73 2q-46 0 -134 -4l10 28l58 5q17 2 25 8.5t15 25.5q30 90 78 250q-58 0 -100 -2z" />
    <glyph glyph-name="Euro.fitted" unicode="&#xe024;" horiz-adv-x="467" 
d="M38 256l18 32h44q2 7 6 25t6 25h-37l17 32h30q16 45 38 86t55.5 81t81 64t102.5 24q70 0 95 -40l23 37l22 -6q-30 -82 -46 -165l-25 -3q11 68 -6 108.5t-65 40.5q-36 0 -68 -22t-55 -59.5t-38.5 -72t-27.5 -73.5h237l-17 -32h-229q-4 -15 -11 -50h212l-17 -32h-200
q-7 -46 -7 -79q0 -149 101 -149q89 0 151 104l18 -20q-39 -65 -84 -95t-116 -30q-85 0 -121.5 55t-36.5 137q0 35 7 77h-57z" />
    <glyph glyph-name="Euro.oldstyle" unicode="&#xe025;" horiz-adv-x="473" 
d="M204 331q38 -1 125 0t97 1l-19 -32q-26 0 -106 0.5t-105 0.5q-3 -11 -11 -53q24 0 98 0.5t99 0.5l-18 -32q-22 0 -88.5 0.5t-94.5 0.5q-4 -19 -4 -56q0 -131 97 -131q90 0 149 108l21 -18q-36 -71 -84.5 -102.5t-119.5 -31.5q-84 0 -121 51t-37 125q0 23 4 55h-56l17 30
h43q5 29 12 53h-35l17 30h28q15 40 36.5 75.5t53.5 68.5t77 52.5t98 19.5q62 0 93.5 -27t31.5 -63q0 -28 -13 -43.5t-34 -15.5q-19 0 -26 11q-7 9 -2 27q6 20 6 33q0 51 -61 51q-41 0 -77 -32t-56 -70.5t-35 -86.5z" />
    <glyph glyph-name="F.sc" unicode="&#xe026;" horiz-adv-x="456" 
d="M103 469l11 28q128 -4 133 -4h113q118 0 150 6q-20 -51 -49 -161h-27q8 44 6 83q-1 24 -18 32.5t-75 8.5h-62q-12 0 -17 -12q-9 -24 -55 -190q8 -1 59 -1q44 0 62 12.5t36 54.5l27 -1q-14 -36 -31 -100.5t-21 -87.5h-28q10 49 0.5 69t-56.5 20q-11 0 -24.5 -0.5t-22 -0.5
h-11.5q-31 -111 -45 -172q-4 -19 14 -22q48 -6 68 -7l-11 -27q-16 0 -63 1.5t-65 1.5q-17 0 -62 -1.5t-59 -1.5l8 27l46 6q20 1 28 18q16 43 61 203q42 152 51 195q3 15 -14 18z" />
    <glyph glyph-name="F.swash" unicode="&#xe027;" horiz-adv-x="670" 
d="M142 25l62 6q26 3 35 26q77 225 156 527q5 15 -9 17q-18 3 -63 3q-78 0 -109.5 -22.5t-31.5 -67.5q0 -28 20 -51q10 -13 9 -29t-13.5 -27t-31.5 -11q-21 0 -39.5 21t-18.5 61q0 72 54 115t161 42q59 1 142 -2q100 -2 154 -2q103 0 143 14q-27 -59 -62 -189l-26 2
q15 67 6 103q-5 22 -27.5 30.5t-75.5 8.5h-65q-15 0 -20 -14q-15 -38 -76 -256q168 0 226 14l3 -12l-45 -46q-170 9 -194 10q-44 -151 -63 -239q-5 -23 16 -24q47 -7 88 -8l-9 -28q-25 0 -81.5 1.5t-77.5 1.5q-23 0 -75.5 -1.5t-71.5 -1.5z" />
    <glyph glyph-name="G.sc" unicode="&#xe028;" horiz-adv-x="552" 
d="M494 309l-27 -2q14 84 -14 127t-89 43q-64 0 -108 -43q-48 -45 -73.5 -118t-25.5 -147q0 -68 25 -105q30 -48 95 -48q64 0 82 46q12 30 29 103q5 23 0 31t-24 10l-55 5l10 28q78 -3 110 -3q61 0 114 3l-7 -27q-29 -4 -39 -9t-15 -17q-15 -45 -27 -95q-12 -44 -12 -71
q-13 -3 -41.5 -11t-40.5 -11q-61 -13 -103 -13q-96 0 -148 52t-52 146q0 93 45.5 175t125.5 122q59 28 133 28q52 0 87 -15.5t49 -33.5l31 48l25 -10q-33 -69 -60 -188z" />
    <glyph glyph-name="G.swash" unicode="&#xe029;" horiz-adv-x="615" 
d="M578 339h1q21 0 21 -26q-3 -56 -55 -121q-7 -26 -25 -100t-27 -102q-29 -96 -69.5 -150t-99.5 -87q-52 -29 -116 -29q-59 0 -85.5 41t-21.5 94l19 10q9 -42 45.5 -72.5t78.5 -30.5q46 0 79.5 23t59.5 97q29 82 54 224q-83 -92 -200 -92q-72 0 -118 51t-46 147
q0 111 53.5 214t147.5 164q80 53 179 53q91 0 130.5 -40t39.5 -90q0 -37 -18 -58.5t-43 -21.5t-34 17t1 37q11 24 11 45q0 80 -94 80q-84 0 -154 -79q-55 -62 -84.5 -147.5t-29.5 -171.5q0 -68 30 -108.5t80 -40.5q94 0 155 98q5 16 17 44q19 57 52 92.5t66 35.5z" />
    <glyph glyph-name="H.sc" unicode="&#xe02a;" horiz-adv-x="581" 
d="M109 469l11 28q100 -4 107 -4q16 0 54.5 2t61.5 2l-9 -28q-37 -1 -50 -6.5t-19 -21.5q-8 -21 -46 -164q15 -1 103 -1q87 0 101 1q39 146 44 169q2 12 -9 17t-47 6l10 28q12 0 50 -2t56 -2q21 0 61.5 2t47.5 2l-8 -28q-38 -1 -51.5 -7t-19.5 -23q-17 -54 -54 -192
q-42 -154 -48 -194q-3 -15 8.5 -20t58.5 -8l-9 -28q-93 3 -117 3q-6 0 -111 -3l9 28q40 4 51.5 10.5t18.5 28.5t50 178q-32 2 -101 2q-72 0 -104 -2q-45 -161 -51 -190q-3 -15 7.5 -19.5t50.5 -7.5l-9 -28q-96 3 -122 3q-38 0 -101 -3l9 28q37 2 51.5 7.5t19.5 18.5
q13 37 58 193q47 171 53 198q3 15 -9.5 20t-56.5 7z" />
    <glyph glyph-name="H.swash" unicode="&#xe02b;" horiz-adv-x="666" 
d="M-11 25q45 2 61 9t23 27q21 57 81 265q59 209 66 243q5 22 -7.5 28.5t-64.5 9.5l10 27q78 -3 121 -3q18 0 61.5 1.5t64.5 1.5l-8 -28q-42 -2 -57 -8t-22 -28q-22 -58 -67 -224q38 -2 122 -2q77 0 141 2l40 136q25 81 62.5 131t73 66.5t75.5 16.5q5 1 20 -2l3 -26
q-4 2 -17 2q-26 0 -47 -15.5t-37 -48t-25.5 -59.5t-22.5 -73q-77 -274 -106 -410q-5 -23 8 -29.5t69 -9.5l-10 -28q-99 3 -134 3q-16 0 -124 -3l9 28q46 3 61 11t24 35q15 49 68 240q-54 2 -137 2q-82 0 -126 -2q-41 -140 -67 -251q-4 -20 8 -26.5t61 -8.5l-7 -28
q-117 3 -134 3q-19 0 -121 -3z" />
    <glyph glyph-name="I.sc" unicode="&#xe02c;" horiz-adv-x="288" 
d="M112 469l9 28q92 -4 107 -4q23 0 60.5 2t55.5 2l-9 -28q-39 -1 -51 -6.5t-18 -20.5q-20 -53 -58 -197q-45 -167 -49 -192q-3 -16 8 -20.5t57 -7.5l-10 -28q-108 3 -123 3q-19 0 -55.5 -1.5t-50.5 -1.5l8 28q39 2 52 7.5t18 19.5q14 34 58 194q42 147 52 194q4 16 -6.5 21
t-54.5 8z" />
    <glyph glyph-name="I.swash" unicode="&#xe02d;" horiz-adv-x="311" 
d="M150 606l9 28q19 0 61 -1.5t63 -1.5q27 0 69.5 1.5t55.5 1.5l-9 -28l-44 -4q-15 -2 -22 -8t-14 -23q-22 -62 -76 -253q-63 -225 -69 -258q-4 -17 1 -23t19 -8l54 -5l-9 -27q-15 0 -64.5 1.5t-71.5 1.5q-29 0 -70.5 -1.5t-53.5 -1.5l10 27l43 5q18 2 26.5 8.5t15.5 26.5
q18 49 78 255q49 168 69 250q5 18 0.5 25t-20.5 8z" />
    <glyph glyph-name="Iacute.sc" unicode="&#xe02e;" horiz-adv-x="288" 
d="M112 469l9 28q92 -4 107 -4q23 0 60.5 2t55.5 2l-9 -28q-39 -1 -51 -6.5t-18 -20.5q-20 -53 -58 -197q-45 -167 -49 -192q-3 -16 8 -20.5t57 -7.5l-10 -28q-108 3 -123 3q-19 0 -55.5 -1.5t-50.5 -1.5l8 28q39 2 52 7.5t18 19.5q14 34 58 194q42 147 52 194q4 16 -6.5 21
t-54.5 8zM225 546l-17 20q13 14 60.5 73t55.5 68q27 30 54 28q13 -1 21.5 -10t7.5 -24q-2 -33 -41 -59q-4 -3 -51.5 -34.5z" />
    <glyph glyph-name="Iacute.swash" unicode="&#xe02f;" horiz-adv-x="311" 
d="M150 606l9 28q19 0 61 -1.5t63 -1.5q27 0 69.5 1.5t55.5 1.5l-9 -28l-44 -4q-15 -2 -22 -8t-14 -23q-22 -62 -76 -253q-63 -225 -69 -258q-4 -17 1 -23t19 -8l54 -5l-9 -27q-15 0 -64.5 1.5t-71.5 1.5q-29 0 -70.5 -1.5t-53.5 -1.5l10 27l43 5q18 2 26.5 8.5t15.5 26.5
q18 49 78 255q49 168 69 250q5 18 0.5 25t-20.5 8zM254 678l-14 22q14 10 71.5 55t66.5 51q28 20 55 12q31 -7 22 -42q-5 -26 -46 -44q-9 -3 -29.5 -10.5t-58 -20t-67.5 -23.5z" />
    <glyph glyph-name="Icircumflex.sc" unicode="&#xe030;" horiz-adv-x="288" 
d="M112 469l9 28q92 -4 107 -4q23 0 60.5 2t55.5 2l-9 -28q-39 -1 -51 -6.5t-18 -20.5q-20 -53 -58 -197q-45 -167 -49 -192q-3 -16 8 -20.5t57 -7.5l-10 -28q-108 3 -123 3q-19 0 -55.5 -1.5t-50.5 -1.5l8 28q39 2 52 7.5t18 19.5q14 34 58 194q42 147 52 194q4 16 -6.5 21
t-54.5 8zM265 722l26 6q18 -74 71 -167l-23 -17q-45 45 -77 92q-56 -52 -123 -92l-16 18q98 93 142 160z" />
    <glyph glyph-name="Icircumflex.swash" unicode="&#xe031;" horiz-adv-x="311" 
d="M150 606l9 28q19 0 61 -1.5t63 -1.5q27 0 69.5 1.5t55.5 1.5l-9 -28l-44 -4q-15 -2 -22 -8t-14 -23q-22 -62 -76 -253q-63 -225 -69 -258q-4 -17 1 -23t19 -8l54 -5l-9 -27q-15 0 -64.5 1.5t-71.5 1.5q-29 0 -70.5 -1.5t-53.5 -1.5l10 27l43 5q18 2 26.5 8.5t15.5 26.5
q18 49 78 255q49 168 69 250q5 18 0.5 25t-20.5 8zM316 815l24 3q9 -24 34.5 -58t63.5 -61l-19 -24q-51 19 -107 57q-63 -33 -136 -57l-9 24q102 58 149 116z" />
    <glyph glyph-name="Idieresis.sc" unicode="&#xe032;" horiz-adv-x="288" 
d="M112 469l9 28q92 -4 107 -4q23 0 60.5 2t55.5 2l-9 -28q-39 -1 -51 -6.5t-18 -20.5q-20 -53 -58 -197q-45 -167 -49 -192q-3 -16 8 -20.5t57 -7.5l-10 -28q-108 3 -123 3q-19 0 -55.5 -1.5t-50.5 -1.5l8 28q39 2 52 7.5t18 19.5q14 34 58 194q42 147 52 194q4 16 -6.5 21
t-54.5 8zM177 674h1q21 0 32 -15t8 -38q-4 -26 -21.5 -41t-38.5 -15q-20 0 -33 13.5t-9 39.5q4 24 20.5 40t40.5 16zM354 674h1q21 0 32 -15t8 -38q-4 -26 -21.5 -41t-38.5 -15t-33.5 13.5t-8.5 39.5q3 24 20 40t41 16z" />
    <glyph glyph-name="Idieresis.swash" unicode="&#xe033;" horiz-adv-x="311" 
d="M150 606l9 28q19 0 61 -1.5t63 -1.5q27 0 69.5 1.5t55.5 1.5l-9 -28l-44 -4q-15 -2 -22 -8t-14 -23q-22 -62 -76 -253q-63 -225 -69 -258q-4 -17 1 -23t19 -8l54 -5l-9 -27q-15 0 -64.5 1.5t-71.5 1.5q-29 0 -70.5 -1.5t-53.5 -1.5l10 27l43 5q18 2 26.5 8.5t15.5 26.5
q18 49 78 255q49 168 69 250q5 18 0.5 25t-20.5 8zM224 794h1q22 0 33.5 -14.5t9.5 -36.5q-3 -25 -21 -40.5t-38 -15.5t-33 13.5t-10 38.5q3 24 19.5 39.5t38.5 15.5zM409 794h1q22 0 33.5 -14.5t9.5 -36.5q-3 -25 -21 -40.5t-38 -15.5t-33 13.5t-10 38.5q3 24 19.5 39.5
t38.5 15.5z" />
    <glyph glyph-name="Igrave.sc" unicode="&#xe034;" horiz-adv-x="288" 
d="M112 469l9 28q92 -4 107 -4q23 0 60.5 2t55.5 2l-9 -28q-39 -1 -51 -6.5t-18 -20.5q-20 -53 -58 -197q-45 -167 -49 -192q-3 -16 8 -20.5t57 -7.5l-10 -28q-108 3 -123 3q-19 0 -55.5 -1.5t-50.5 -1.5l8 28q39 2 52 7.5t18 19.5q14 34 58 194q42 147 52 194q4 16 -6.5 21
t-54.5 8zM277 558l-21 -14l-93 108q-21 24 -19 51q1 17 12 26.5t25 9.5q29 0 43 -37q7 -17 53 -144z" />
    <glyph glyph-name="Igrave.swash" unicode="&#xe035;" horiz-adv-x="311" 
d="M150 606l9 28q19 0 61 -1.5t63 -1.5q27 0 69.5 1.5t55.5 1.5l-9 -28l-44 -4q-15 -2 -22 -8t-14 -23q-22 -62 -76 -253q-63 -225 -69 -258q-4 -17 1 -23t19 -8l54 -5l-9 -27q-15 0 -64.5 1.5t-71.5 1.5q-29 0 -70.5 -1.5t-53.5 -1.5l10 27l43 5q18 2 26.5 8.5t15.5 26.5
q18 49 78 255q49 168 69 250q5 18 0.5 25t-20.5 8zM365 698l-14 -21l-60 20.5l-57 20t-29 10.5q-13 5 -24.5 17t-13.5 24q-7 34 27 43q27 8 54 -12q7 -5 30.5 -25.5l51.5 -45.5z" />
    <glyph glyph-name="J.sc" unicode="&#xe036;" horiz-adv-x="275" 
d="M106 469l12 28q96 -4 106 -4q3 0 115 4l-9 -28l-30 -2q-16 -2 -23 -6.5t-11 -15.5q-10 -27 -74 -267q-12 -49 -39 -139q-23 -74 -66 -117q-49 -49 -122 -49q-28 0 -44 9l-10 34l7 8q24 -15 53 -15q37 0 58 42q26 55 69 211q67 248 74 280q4 19 -13 22q-25 3 -53 5z" />
    <glyph glyph-name="J.swash" unicode="&#xe037;" horiz-adv-x="430" 
d="M312 595h-1q-64 0 -100 -24.5t-36 -68.5q0 -31 22 -48q14 -11 12 -31q-5 -38 -48 -38q-19 0 -37.5 18t-18.5 59q0 73 70.5 122t176.5 49h59q15 0 21 6q49 44 86 44q23 0 23 -19q1 -15 -20 -33.5t-42 -27.5q-14 -5 -23 -17q-21 -36 -36 -93q-112 -444 -127 -493
q-20 -69 -67 -123.5t-98 -79.5q-54 -27 -105 -27q-49 0 -76.5 28.5t-27.5 78.5q0 14 1 21l15 14q20 -52 57 -76.5t70 -24.5q41 0 67.5 30t50.5 110q13 42 30.5 105l41 152l39.5 145q46 160 95 222q12 15 -1 15q-55 5 -73 5z" />
    <glyph glyph-name="K.sc" unicode="&#xe038;" horiz-adv-x="533" 
d="M111 469l11 28q87 -3 107 -3q26 0 63 1.5t47 1.5l-8 -28q-39 -2 -49.5 -6t-15.5 -18q-15 -43 -53 -181q44 14 121 78t111 101q14 17 -3 19l-48 6l10 28q12 0 46.5 -1.5t47.5 -1.5q60 0 107 3l-9 -28q-62 -5 -91 -25q-25 -17 -100.5 -80t-95.5 -78q78 -173 118 -235
q9 -13 25 -17.5t59 -6.5l-13 -28q-87 4 -151 -6q-5 12 -49 104t-55 120q-15 30 -37 22q-37 -134 -49 -189q-2 -12 9 -16t56 -8l-10 -28q-16 0 -56 1.5t-64 1.5q-25 0 -62 -1.5t-47 -1.5l9 28q41 4 53.5 8.5t16.5 16.5q19 49 59 192q50 188 53 202q4 15 -7 19t-56 6z" />
    <glyph glyph-name="K.swash" unicode="&#xe039;" horiz-adv-x="763" 
d="M132 26l44 4q21 2 30.5 9.5t15.5 25.5q79 241 153 509q5 23 -8 24q-10 3 -40 3q-148 0 -148 -99q0 -24 18 -46q12 -15 12 -29q0 -18 -13.5 -29.5t-33.5 -11.5t-38.5 20.5t-18.5 58.5q0 75 58.5 120.5t172.5 45.5h72q53 0 80 11l3 -5q-10 -25 -23.5 -65.5t-23 -72
l-25 -84.5l-21.5 -74q48 5 97 55q34 36 88.5 101.5t66.5 78.5q69 72 119 72q24 0 36 -12t12 -30t-10 -29.5t-22 -15.5q-11 -5 -20 3q-15 15 -30 15q-44 0 -140 -117q-67 -81 -106 -111q62 -26 86 -125q10 -35 27 -116q9 -38 19.5 -53.5t26.5 -15.5q20 0 43.5 25.5t45.5 70.5
l21 -19q-61 -135 -161 -135q-39 0 -62.5 27t-35.5 108q-3 18 -23 128q-13 75 -51 75q-27 0 -42 -32q-36 -123 -61 -231q-6 -26 24 -28l53 -4l-10 -29q-114 3 -143 3q-18 0 -123 -3z" />
    <glyph glyph-name="L.sc" unicode="&#xe03a;" horiz-adv-x="459" 
d="M408 171l26 -7q-1 -3 -64 -169q-42 5 -272 5q-8 0 -31 -0.5t-35 -0.5q-44 -2 -55 -2l8 27l49 6q21 1 29 19q14 37 61 207q40 142 50 189q4 17 -17 20l-48 4l10 28q11 0 49 -2t62 -2q20 0 60 2t62 2l-7 -28l-52 -5q-20 -1 -26 -19q-20 -59 -53 -183q-54 -194 -57 -218
q-1 -5 1.5 -7.5t15 -4.5t36.5 -2q63 0 89 8t46 33q31 37 63 100z" />
    <glyph glyph-name="L.swash" unicode="&#xe03b;" horiz-adv-x="545" 
d="M105 67q36 4 110 2q20 -1 78.5 -5t76.5 -4q106 0 106 78q0 10 -5 32q-2 12 4 20q7 10 19.5 20t20.5 10q13 0 13 -26q-1 -53 -34.5 -104.5t-75.5 -81.5q-40 -29 -89 -29q-51 0 -137.5 12t-118.5 12q-49 0 -69 -12l-8 11l39 52q38 13 61 46.5t40 115.5q8 33 19 94t17 90
q22 113 83.5 180t156.5 67q64 0 90.5 -30.5t26.5 -69.5q0 -34 -18 -60t-45 -36l-12 11q23 39 23 81q0 34 -17.5 54t-51.5 20q-22 0 -39.5 -8t-32 -26.5t-25.5 -41t-21.5 -59.5t-18.5 -72.5t-19 -89.5q-21 -105 -53.5 -163t-93.5 -90z" />
    <glyph glyph-name="Lslash.sc" unicode="&#xe03c;" horiz-adv-x="468" 
d="M118 468l9 28q13 0 52.5 -1.5t59.5 -1.5q19 0 59.5 1.5t62.5 1.5l-7 -28l-51 -5q-20 -1 -27 -20q-16 -49 -47 -163q89 42 99 48l17 -30l-127 -57q-45 -165 -51 -196q-1 -5 1.5 -7.5t15 -4.5t36.5 -2q62 0 87.5 8t46.5 34q32 38 62 99l25 -5l-64 -172q-41 5 -266 5
q-9 0 -32.5 -0.5t-35.5 -0.5q-48 -2 -58 -2l9 28l49 5q23 1 29 17q15 38 48 159l-67 -32l-16 30l94 41q41 144 54 200q4 18 -18 19z" />
    <glyph glyph-name="Lslash.swash" unicode="&#xe03d;" horiz-adv-x="555" 
d="M70 242l-16 32l110 35q7 40 18 95q22 111 85 177t155 66q64 0 90.5 -30.5t26.5 -69.5q0 -34 -18.5 -60t-45.5 -36l-12 11q24 41 24 81q0 33 -18 53.5t-51 20.5q-27 0 -47.5 -13t-34.5 -33t-27 -58.5t-21.5 -74.5t-20.5 -96q93 31 135 48l18 -31l-161 -53
q-19 -97 -50 -152t-94 -86q36 3 111 1q22 -1 56 -3.5t59.5 -4t39.5 -1.5q105 0 105 78q0 7 -2 19t-2 13q-2 12 4 20q6 9 18 19.5t20 10.5q13 0 13 -26q0 -53 -33 -104.5t-76 -81.5q-41 -29 -88 -29q-48 0 -136 12t-120 12q-50 0 -70 -12l-8 11l40 53q18 6 32 16t25 27.5
l18 28t13.5 37.5t8.5 34t8 39.5t6 34.5q-30 -11 -87 -30z" />
    <glyph glyph-name="M.sc" unicode="&#xe03e;" horiz-adv-x="697" 
d="M307 3l-47 -8q-2 42 -8 125t-14.5 186t-11.5 143h-3q-77 -249 -107 -363q-9 -31 -4.5 -42.5t27.5 -14.5l43 -4l-9 -28q-14 0 -50.5 1.5t-58.5 1.5q-23 0 -54.5 -1.5t-39.5 -1.5l8 28q25 2 43 6q16 3 25.5 13.5t21.5 38.5q35 89 121 362q4 17 -14 18l-60 6l11 28
q16 0 55.5 -2t57.5 -2q36 0 64 4q4 -70 40 -363q145 225 224 363q40 -4 65 -4q16 0 55.5 2t53.5 2l-9 -28q-12 -1 -30 -3.5t-25 -2.5q-15 -1 -18 -17q-7 -19 -22 -88q-59 -265 -64 -303q-2 -13 1 -18t14 -6l53 -6l-10 -28q-72 3 -118 3q-13 0 -115 -3l10 28q41 5 53 11
t16 20q18 57 102 403h-1z" />
    <glyph glyph-name="M.swash" unicode="&#xe03f;" horiz-adv-x="804" 
d="M751 24l-12 -27q-87 3 -125 3q-26 0 -72 -1.5t-59 -1.5l10 27q44 5 59 11.5t20 25.5q27 87 70.5 241.5l67.5 233.5h-4q-48 -64 -145.5 -220t-179.5 -305q-51 -17 -65 -24q4 88 -1 265t-2 267h-3q-9 -22 -97 -311q-38 -128 -73 -182.5t-97 -54.5q-26 0 -44.5 17t-18.5 45
t15.5 44t36.5 16q22 0 28 -18q12 -27 26 -27q37 0 90 166q79 246 90 275q22 63 49 102t78 57l10 -2q-10 -36 -10 -130q1 -72 10 -213t9 -165q87 149 212 334q39 56 61.5 84.5t49.5 48.5q40 31 87 43l9 -6q-20 -33 -49 -133q-62 -230 -108 -446q-4 -23 8 -28.5t69 -10.5z" />
    <glyph glyph-name="N.sc" unicode="&#xe040;" horiz-adv-x="556" 
d="M420 104q73 282 78 328q3 18 -2.5 24.5t-24.5 8.5l-45 4l12 28q17 0 47.5 -2t46.5 -2q15 0 47 2t49 2l-9 -28q-36 -4 -44 -6q-20 -5 -29 -27q-14 -36 -51 -170.5t-67 -266.5q-30 -1 -66 -11q-68 192 -161 426q-80 -306 -87 -354q-4 -25 17 -28q50 -7 59 -7l-10 -28
q-15 0 -50 1.5t-57 1.5q-16 0 -51.5 -1.5t-46.5 -1.5l10 28q21 1 45 5t36 36q23 56 108 371q2 25 -20 26l-59 6l11 28q10 0 42.5 -2t49.5 -2q40 0 64 4q39 -104 158 -393z" />
    <glyph glyph-name="N.swash" unicode="&#xe041;" horiz-adv-x="758" 
d="M862 633q-53 -10 -89 -82t-69 -199q-55 -213 -84 -348q-44 -2 -71 -21q-16 69 -86.5 285.5t-79.5 251.5q-16 -40 -61 -248q-32 -150 -71.5 -223t-110.5 -73q-28 0 -47 16.5t-19 44.5t15 42.5t35 14.5q18 0 28 -19q12 -23 28 -23q32 0 58.5 61.5t60.5 219.5q45 208 66 246
q8 12 -6 14q-39 3 -49 3q-68 0 -98.5 -21t-30.5 -65q0 -25 20 -47q12 -12 12 -28q0 -18 -13 -29.5t-34 -11.5q-20 0 -37.5 20t-17.5 59q0 69 54.5 112t155.5 43h60q7 0 27.5 7.5t31.5 14.5q7 -38 44 -153.5l80.5 -241.5l47.5 -138l62 259q16 70 30.5 115t35.5 86t50 60.5
t67 20.5z" />
    <glyph glyph-name="Ntilde.sc" unicode="&#xe042;" horiz-adv-x="556" 
d="M420 104q73 282 78 328q3 18 -2.5 24.5t-24.5 8.5l-45 4l12 28q17 0 47.5 -2t46.5 -2q15 0 47 2t49 2l-9 -28q-36 -4 -44 -6q-20 -5 -29 -27q-14 -36 -51 -170.5t-67 -266.5q-30 -1 -66 -11q-68 192 -161 426q-80 -306 -87 -354q-4 -25 17 -28q50 -7 59 -7l-10 -28
q-15 0 -50 1.5t-57 1.5q-16 0 -51.5 -1.5t-46.5 -1.5l10 28q21 1 45 5t36 36q23 56 108 371q2 25 -20 26l-59 6l11 28q10 0 42.5 -2t49.5 -2q40 0 64 4q39 -104 158 -393zM299 560l-31 4q2 50 21 85t57 34q27 0 63 -32q33 -29 46 -29q28 0 32 64l29 -5q-4 -120 -74 -120
q-27 0 -67 37q-27 24 -40 24t-23 -16.5t-13 -45.5z" />
    <glyph glyph-name="Ntilde.swash" unicode="&#xe043;" horiz-adv-x="758" 
d="M862 633q-53 -10 -89 -82t-69 -199q-55 -213 -84 -348q-44 -2 -71 -21q-16 69 -86.5 285.5t-79.5 251.5q-16 -40 -61 -248q-32 -150 -71.5 -223t-110.5 -73q-28 0 -47 16.5t-19 44.5t15 42.5t35 14.5q18 0 28 -19q12 -23 28 -23q32 0 58.5 61.5t60.5 219.5q45 208 66 246
q8 12 -6 14q-39 3 -49 3q-68 0 -98.5 -21t-30.5 -65q0 -25 20 -47q12 -12 12 -28q0 -18 -13 -29.5t-34 -11.5q-20 0 -37.5 20t-17.5 59q0 69 54.5 112t155.5 43h60q7 0 27.5 7.5t31.5 14.5q7 -38 44 -153.5l80.5 -241.5l47.5 -138l62 259q16 70 30.5 115t35.5 86t50 60.5
t67 20.5zM506 681l-32 3q2 50 22.5 84.5t60.5 34.5q28 0 65 -31q33 -27 46 -27q27 0 33 62l31 -6q-2 -52 -20.5 -85t-55.5 -33q-28 0 -71 36q-28 23 -43 23q-13 0 -23 -17t-13 -44z" />
    <glyph glyph-name="O.sc" unicode="&#xe044;" horiz-adv-x="552" 
d="M350 508h1q85 0 135 -48.5t50 -140.5q0 -73 -32 -150.5t-84 -121.5q-73 -62 -178 -62q-85 0 -136 45.5t-51 137.5q0 82 37 163t101 128q70 49 157 49zM351 478h-2q-61 0 -108 -57q-38 -46 -64 -129.5t-26 -150.5q0 -62 25.5 -93.5t71.5 -31.5q55 0 99 47q40 47 67.5 134
t27.5 157q0 124 -91 124z" />
    <glyph glyph-name="O.swash" unicode="&#xe045;" horiz-adv-x="635" 
d="M431 647h1q103 0 158 -58.5t55 -164.5q0 -88 -35 -185t-93 -158q-93 -97 -231 -97q-101 0 -159.5 54t-58.5 164q0 105 49.5 215.5t129.5 169.5q82 60 184 60zM430 619h-1q-75 0 -137 -75q-54 -69 -88.5 -176.5t-34.5 -198.5q0 -78 32 -116t85 -38q81 0 139 72
q54 69 87.5 178.5t33.5 204.5q0 67 -27.5 108t-88.5 41z" />
    <glyph glyph-name="OE.sc" unicode="&#xe046;" horiz-adv-x="811" 
d="M578 492h121q85 0 125 7q-19 -40 -42 -149l-26 -2q4 43 1 75q-3 23 -19.5 30.5t-69.5 7.5h-56q-12 0 -17 -13q-20 -56 -50 -179q9 -2 48 -2q45 0 62 11.5t35 53.5h27q-30 -90 -51 -182h-27q7 52 -1.5 68t-54.5 16q-39 0 -49 -1q-5 -22 -22 -86.5t-23 -94.5
q-2 -13 8.5 -17t55.5 -4q65 0 94 7t48 28q33 35 61 92l25 -5q-6 -19 -58 -158q-23 2 -62 3q-58 2 -119 2h-86q-52 0 -68 -2q11 36 18 64q-69 -77 -172 -77q-85 0 -132 47t-47 134t40 170t109 129q65 44 148 44q114 0 146 -91q10 35 19 76q28 -2 61 -2zM152 149v-1
q0 -57 25.5 -92.5t76.5 -35.5q66 0 117 53q40 41 67 118t29 143q5 141 -105 141q-58 0 -102 -44q-49 -48 -78.5 -128.5t-29.5 -153.5z" />
    <glyph glyph-name="OE.swash" unicode="&#xe047;" horiz-adv-x="939" 
d="M690 631h150q107 0 142 5q-16 -35 -53 -173h-24q7 40 5 88q-2 29 -21.5 39t-85.5 10h-71q-14 0 -21 -17q-31 -84 -71 -243q138 0 226 14l3 -11l-39 -44l-200 8q-55 -202 -66 -251q-1 -6 -1.5 -9.5t2 -6.5t7 -5t14 -3t22.5 -1.5t33 -0.5q77 0 109 7t55 27q38 35 82 110
l24 -6q-54 -138 -72 -174q-21 2 -78 4q-74 2 -160 2h-86q-49 0 -61 -3q3 9 24 79q-80 -93 -205 -93q-99 0 -151 56.5t-52 159.5q0 110 53 223.5t140 173.5q76 52 174 52q131 0 167 -109q22 80 25 94q44 -3 61 -2zM171 170v-1q0 -69 31.5 -110t88.5 -41q83 0 144 62
q51 53 89.5 166t43.5 205q9 164 -125 164q-70 0 -121 -50q-67 -64 -109 -176.5t-42 -218.5z" />
    <glyph glyph-name="Oacute.sc" unicode="&#xe048;" horiz-adv-x="552" 
d="M350 508h1q85 0 135 -48.5t50 -140.5q0 -73 -32 -150.5t-84 -121.5q-73 -62 -178 -62q-85 0 -136 45.5t-51 137.5q0 82 37 163t101 128q70 49 157 49zM351 478h-2q-61 0 -108 -57q-38 -46 -64 -129.5t-26 -150.5q0 -62 25.5 -93.5t71.5 -31.5q55 0 99 47q40 47 67.5 134
t27.5 157q0 124 -91 124zM348 548l-17 20q13 14 60.5 73t55.5 68q27 30 54 28q13 -1 21.5 -10t7.5 -24q-2 -33 -41 -59q-4 -3 -51.5 -34.5z" />
    <glyph glyph-name="Oacute.swash" unicode="&#xe049;" horiz-adv-x="635" 
d="M431 647h1q103 0 158 -58.5t55 -164.5q0 -88 -35 -185t-93 -158q-93 -97 -231 -97q-101 0 -159.5 54t-58.5 164q0 105 49.5 215.5t129.5 169.5q82 60 184 60zM430 619h-1q-75 0 -137 -75q-54 -69 -88.5 -176.5t-34.5 -198.5q0 -78 32 -116t85 -38q81 0 139 72
q54 69 87.5 178.5t33.5 204.5q0 67 -27.5 108t-88.5 41zM398 693l-14 22q14 10 71.5 55t66.5 51q28 20 55 12q31 -7 22 -42q-5 -26 -46 -44q-9 -3 -29.5 -10.5t-58 -20t-67.5 -23.5z" />
    <glyph glyph-name="Ocircumflex.sc" unicode="&#xe04a;" horiz-adv-x="552" 
d="M350 508h1q85 0 135 -48.5t50 -140.5q0 -73 -32 -150.5t-84 -121.5q-73 -62 -178 -62q-85 0 -136 45.5t-51 137.5q0 82 37 163t101 128q70 49 157 49zM351 478h-2q-61 0 -108 -57q-38 -46 -64 -129.5t-26 -150.5q0 -62 25.5 -93.5t71.5 -31.5q55 0 99 47q40 47 67.5 134
t27.5 157q0 124 -91 124zM389 722l26 6q18 -74 71 -167l-23 -17q-45 45 -77 92q-56 -52 -123 -92l-16 18q98 93 142 160z" />
    <glyph glyph-name="Ocircumflex.swash" unicode="&#xe04b;" horiz-adv-x="635" 
d="M431 647h1q103 0 158 -58.5t55 -164.5q0 -88 -35 -185t-93 -158q-93 -97 -231 -97q-101 0 -159.5 54t-58.5 164q0 105 49.5 215.5t129.5 169.5q82 60 184 60zM430 619h-1q-75 0 -137 -75q-54 -69 -88.5 -176.5t-34.5 -198.5q0 -78 32 -116t85 -38q81 0 139 72
q54 69 87.5 178.5t33.5 204.5q0 67 -27.5 108t-88.5 41zM456 829l24 3q9 -24 34.5 -58t63.5 -61l-19 -24q-51 19 -107 57q-63 -33 -136 -57l-9 24q102 58 149 116z" />
    <glyph glyph-name="Odieresis.sc" unicode="&#xe04c;" horiz-adv-x="552" 
d="M350 508h1q85 0 135 -48.5t50 -140.5q0 -73 -32 -150.5t-84 -121.5q-73 -62 -178 -62q-85 0 -136 45.5t-51 137.5q0 82 37 163t101 128q70 49 157 49zM351 478h-2q-61 0 -108 -57q-38 -46 -64 -129.5t-26 -150.5q0 -62 25.5 -93.5t71.5 -31.5q55 0 99 47q40 47 67.5 134
t27.5 157q0 124 -91 124zM300 674h1q21 0 32 -15t8 -38q-4 -26 -21.5 -41t-38.5 -15q-20 0 -33 13.5t-9 39.5q4 24 20.5 40t40.5 16zM477 674h1q21 0 32 -15t8 -38q-4 -26 -21.5 -41t-38.5 -15t-33.5 13.5t-8.5 39.5q3 24 20 40t41 16z" />
    <glyph glyph-name="Odieresis.swash" unicode="&#xe04d;" horiz-adv-x="635" 
d="M431 647h1q103 0 158 -58.5t55 -164.5q0 -88 -35 -185t-93 -158q-93 -97 -231 -97q-101 0 -159.5 54t-58.5 164q0 105 49.5 215.5t129.5 169.5q82 60 184 60zM430 619h-1q-75 0 -137 -75q-54 -69 -88.5 -176.5t-34.5 -198.5q0 -78 32 -116t85 -38q81 0 139 72
q54 69 87.5 178.5t33.5 204.5q0 67 -27.5 108t-88.5 41zM367 805h1q22 0 33.5 -14.5t9.5 -36.5q-3 -25 -21 -40.5t-38 -15.5t-33 13.5t-10 38.5q3 24 19.5 39.5t38.5 15.5zM552 805h1q22 0 33.5 -14.5t9.5 -36.5q-3 -25 -21 -40.5t-38 -15.5t-33 13.5t-10 38.5
q3 24 19.5 39.5t38.5 15.5z" />
    <glyph glyph-name="Ograve.sc" unicode="&#xe04e;" horiz-adv-x="552" 
d="M350 508h1q85 0 135 -48.5t50 -140.5q0 -73 -32 -150.5t-84 -121.5q-73 -62 -178 -62q-85 0 -136 45.5t-51 137.5q0 82 37 163t101 128q70 49 157 49zM351 478h-2q-61 0 -108 -57q-38 -46 -64 -129.5t-26 -150.5q0 -62 25.5 -93.5t71.5 -31.5q55 0 99 47q40 47 67.5 134
t27.5 157q0 124 -91 124zM392 560l-21 -14l-93 108q-21 24 -19 51q1 17 12 26.5t25 9.5q29 0 43 -37q7 -18 53 -144z" />
    <glyph glyph-name="Ograve.swash" unicode="&#xe04f;" horiz-adv-x="635" 
d="M431 647h1q103 0 158 -58.5t55 -164.5q0 -88 -35 -185t-93 -158q-93 -97 -231 -97q-101 0 -159.5 54t-58.5 164q0 105 49.5 215.5t129.5 169.5q82 60 184 60zM430 619h-1q-75 0 -137 -75q-54 -69 -88.5 -176.5t-34.5 -198.5q0 -78 32 -116t85 -38q81 0 139 72
q54 69 87.5 178.5t33.5 204.5q0 67 -27.5 108t-88.5 41zM509 714l-14 -21l-60 20.5l-57 20t-29 10.5q-13 5 -24.5 17t-13.5 24q-7 34 27 43q27 8 54 -12q7 -5 30.5 -25.5l51.5 -45.5z" />
    <glyph glyph-name="Oslash.sc" unicode="&#xe050;" horiz-adv-x="558" 
d="M352 478h-1q-61 0 -110 -55q-47 -53 -71 -146t-12 -174l136 167t130 163q-23 45 -72 45zM503 525l41 -12q-9 -9 -25.5 -28l-28.5 -32q46 -46 46 -132q0 -76 -31.5 -152t-84.5 -121q-74 -63 -181 -63q-68 0 -113 33l-46 -52l-37 14l55 60q-43 41 -43 126q0 83 36.5 163.5
t99.5 128.5q70 50 161 50q67 0 111 -31zM243 16h1q59 0 105 47q47 50 74 153t13 179q-184 -234 -268 -330q25 -49 75 -49z" />
    <glyph glyph-name="Otilde.sc" unicode="&#xe051;" horiz-adv-x="552" 
d="M350 508h1q85 0 135 -48.5t50 -140.5q0 -73 -32 -150.5t-84 -121.5q-73 -62 -178 -62q-85 0 -136 45.5t-51 137.5q0 82 37 163t101 128q70 49 157 49zM351 478h-2q-61 0 -108 -57q-38 -46 -64 -129.5t-26 -150.5q0 -62 25.5 -93.5t71.5 -31.5q55 0 99 47q40 47 67.5 134
t27.5 157q0 124 -91 124zM281 560l-31 4q2 50 21 85t57 34q27 0 63 -32q33 -29 46 -29q28 0 32 64l29 -5q-4 -120 -74 -120q-27 0 -67 37q-27 24 -40 24t-23 -16.5t-13 -45.5z" />
    <glyph glyph-name="Otilde.swash" unicode="&#xe052;" horiz-adv-x="635" 
d="M431 647h1q103 0 158 -58.5t55 -164.5q0 -88 -35 -185t-93 -158q-93 -97 -231 -97q-101 0 -159.5 54t-58.5 164q0 105 49.5 215.5t129.5 169.5q82 60 184 60zM430 619h-1q-75 0 -137 -75q-54 -69 -88.5 -176.5t-34.5 -198.5q0 -78 32 -116t85 -38q81 0 139 72
q54 69 87.5 178.5t33.5 204.5q0 67 -27.5 108t-88.5 41zM348 693l-32 3q2 50 22.5 84.5t60.5 34.5q28 0 65 -31q33 -27 46 -27q27 0 33 62l31 -6q-2 -52 -20.5 -85t-55.5 -33q-28 0 -71 36q-28 23 -43 23q-13 0 -23 -17t-13 -44z" />
    <glyph glyph-name="P.sc" unicode="&#xe053;" horiz-adv-x="485" 
d="M101 469l11 27q72 -3 105 -3q16 0 54.5 1t65.5 1q91 0 128 -42q29 -31 29 -88q0 -97 -72 -151q-53 -39 -132 -39q-36 0 -62 10l6 28q20 -5 41 -5q49 0 77 28q50 47 50 137q0 41 -15 60q-23 32 -80 32q-35 0 -40 -15q-11 -32 -63 -225q-42 -154 -45 -171q-3 -12 1 -17
t18 -6l58 -6l-10 -28q-14 0 -56 1.5t-72 1.5q-22 0 -63.5 -1.5t-52.5 -1.5l9 28l33 3q19 2 27 7t13 22q12 33 61 201q43 154 49 184q4 20 -15 21z" />
    <glyph glyph-name="P.swash" unicode="&#xe054;" horiz-adv-x="694" 
d="M134 25l51 4q19 2 28 9t16 26q79 231 154 514q6 19 -7 21q-14 2 -46 2q-149 0 -149 -95q0 -24 19 -49q11 -14 11 -27q0 -19 -13.5 -31t-33.5 -12t-39 21t-19 59q0 76 61.5 119.5t178.5 44.5h81q14 0 52 1t65 1q91 0 140 -36.5t49 -121.5q0 -117 -88 -187
q-61 -48 -152 -48q-38 0 -67 11l7 28q18 -6 47 -6q51 0 87 35q68 64 68 182q0 54 -30 83t-85 29q-37 0 -43 -19q-87 -281 -146 -519q-5 -16 0 -23.5t23 -9.5l72 -7l-10 -27q-17 0 -70.5 1.5t-87.5 1.5q-30 0 -77.5 -1.5t-56.5 -1.5z" />
    <glyph glyph-name="Q.alt" unicode="&#xe055;" horiz-adv-x="640" 
d="M431 619h-2q-73 0 -136 -76q-54 -69 -88.5 -177t-34.5 -199q0 -77 31.5 -116t87.5 -39q79 0 138 74q54 69 87.5 178.5t33.5 204.5q0 150 -117 150zM1068 -191l12 -24q-39 -53 -109 -82.5t-152 -29.5q-77 0 -157 39t-181 117l-144 107q-52 35 -122 56q-74 21 -109.5 72
t-35.5 138q0 106 49 215.5t127 167.5q84 62 188 62q102 0 157 -58.5t55 -164.5q0 -89 -35 -186t-91 -156q-75 -78 -175 -92v-3q54 -15 210 -110q209 -127 341 -127q108 0 172 59z" />
    <glyph glyph-name="Q.sc" unicode="&#xe056;" horiz-adv-x="552" 
d="M515 -87l-2 -22q-44 -32 -115 -32q-56 0 -147 82q-52 44 -85 55q-111 37 -111 170q0 83 36.5 163.5t98.5 126.5q70 52 162 52q86 0 135 -48.5t49 -138.5q0 -77 -32 -154.5t-89 -123.5q-31 -27 -68.5 -40.5t-65.5 -15.5v-3q61 -29 111 -50q63 -25 123 -21zM349 478h-1
q-60 0 -107 -57q-39 -47 -64.5 -130t-25.5 -151q0 -60 25 -92.5t69 -32.5q56 0 101 46q41 45 68.5 134t27.5 160q0 123 -93 123z" />
    <glyph glyph-name="Q.scalt" unicode="&#xe057;" horiz-adv-x="552" 
d="M962 -171l11 -22q-39 -51 -103 -81t-139 -30q-73 0 -145 35t-166 108q-101 77 -140 104q-48 33 -113 54q-112 36 -112 169q0 84 36.5 164.5t98.5 125.5q70 52 162 52q86 0 135 -48.5t49 -138.5q0 -77 -32.5 -154.5t-88.5 -123.5q-51 -44 -117 -53v-3q44 -14 191 -103
q98 -59 171 -87.5t142 -28.5q93 0 160 61zM349 478h-1q-58 0 -107 -57q-39 -47 -64.5 -130t-25.5 -151q0 -60 25 -92.5t69 -32.5q56 0 101 46q41 46 68.5 135t27.5 160q0 56 -23 89t-70 33z" />
    <glyph glyph-name="Q.swash" unicode="&#xe058;" horiz-adv-x="622" 
d="M251 -14q52 -22 116 -65q81 -56 141.5 -83t120.5 -27q103 0 158 87l17 -22q-32 -60 -95 -97.5t-153 -37.5q-40 0 -77 11t-79.5 38.5t-69.5 48t-79 63.5l-17 14q-44 36 -75 45q-63 -19 -108 -19q-20 0 -27 5t-7 16q1 17 33 35t85 18q15 0 30 -2t26.5 -5t14.5 -3
q96 21 172 94.5t115.5 170t39.5 196.5q0 65 -28.5 107t-84.5 42q-72 0 -128 -56.5t-82 -131t-26 -145.5q0 -60 23.5 -94t63.5 -34q46 0 77 25l8 -24q-58 -56 -140 -56q-58 0 -94.5 46.5t-36.5 122.5q0 96 46.5 184t129.5 145q74 49 177 49q91 0 143.5 -57t52.5 -151
q0 -166 -107 -283t-276 -170z" />
    <glyph glyph-name="R.sc" unicode="&#xe059;" horiz-adv-x="510" 
d="M103 469l10 27q7 0 45.5 -1.5t59.5 -1.5q16 0 60 1.5t73 1.5q81 0 112.5 -26t31.5 -76q0 -123 -174 -142l-1 -4q62 -9 87 -37t20 -79q-4 -32 -8 -53q-9 -54 35 -55q23 0 31 2l-10 -29q-22 -6 -58 -6q-108 0 -91 95q1 6 4.5 29l5.5 36q7 48 -16 65t-91 17h-25l-48 -179
q-3 -16 8 -20.5t57 -8.5l-10 -28q-13 0 -55.5 1.5t-62.5 1.5q-24 0 -62 -1.5t-48 -1.5l9 28q39 3 51.5 8t18.5 19q9 23 58 189q47 164 54 200q2 11 -1 16t-16 6zM400 395v1q0 26 -10 41q-16 28 -75 28q-26 0 -35.5 -4t-13.5 -15q-14 -44 -53 -181h25q72 0 117 33.5t45 96.5z
" />
    <glyph glyph-name="R.swash" unicode="&#xe05a;" horiz-adv-x="761" 
d="M180 505v-1q0 -26 20 -48q12 -15 12 -27q0 -19 -13.5 -30.5t-35.5 -11.5q-20 0 -38.5 21t-18.5 60q0 76 58 119.5t173 43.5h81q20 0 65 1t76 1q162 0 162 -128q0 -81 -59.5 -127.5t-150.5 -59.5l-1 -4q62 -22 82 -121q3 -16 7.5 -47t7.5 -50q11 -57 37 -57q41 0 82 91
l22 -19q-31 -71 -69 -99.5t-86 -28.5q-76 0 -87 118q-1 8 -5 48t-7 61q-8 52 -23 73.5t-53 21.5q-4 0 -13.5 -0.5t-18.5 -0.5q-52 -178 -68 -244q-4 -17 0.5 -22.5t18.5 -7.5l58 -6l-10 -27q-12 0 -64 1.5t-76 1.5q-21 0 -65 -1.5t-60 -1.5l10 28l41 4q22 3 30.5 9.5
t14.5 24.5q61 170 157 513q5 20 -7 22q-18 2 -37 2q-80 0 -114.5 -24t-34.5 -71zM513 603h-1q-35 0 -43 -18q-4 -11 -12 -38l-25 -86l-37 -124q9 -2 39 -2q91 1 139.5 51t48.5 123q0 94 -109 94z" />
    <glyph glyph-name="S.sc" unicode="&#xe05b;" horiz-adv-x="426" 
d="M62 189l29 4q-11 -39 -11 -73q-1 -53 30 -79t84 -26q45 0 75 24t30 67q0 40 -39 66l-95 69q-65 44 -65 111q0 76 59 121q47 35 120 35q37 0 68 -13t43 -29l30 45l21 -11q-30 -70 -56 -176h-25q13 72 -11 112.5t-79 40.5q-40 0 -64 -24t-24 -64q0 -43 48 -74
q25 -20 61 -44.5t40 -27.5q55 -37 55 -98q0 -65 -48 -110q-54 -51 -158 -51q-84 0 -168 44q27 62 50 161z" />
    <glyph glyph-name="S.swash" unicode="&#xe05c;" horiz-adv-x="483" 
d="M75 187h1q35 0 35 -54q0 -62 33 -92.5t86 -30.5q59 0 93 34.5t34 92.5q0 54 -39 93l-51 49l-50 48q-61 58 -61 133q0 96 81 153q49 33 123 33q80 0 114 -37t34 -76q0 -33 -15 -49.5t-34 -16.5q-18 0 -27 11t-6 25q6 27 6 35q0 36 -22.5 58t-63.5 22q-49 0 -77.5 -31
t-28.5 -83q0 -53 37 -90q14 -15 57.5 -55t61.5 -58q53 -53 53 -124q0 -98 -87 -157q-65 -41 -154 -41q-78 0 -131 38.5t-53 105.5q0 31 14 47.5t37 16.5z" />
    <glyph glyph-name="Scaron.sc" unicode="&#xe05d;" horiz-adv-x="426" 
d="M62 189l29 4q-11 -39 -11 -73q-1 -53 30 -79t84 -26q45 0 75 24t30 67q0 40 -39 66l-95 69q-65 44 -65 111q0 76 59 121q47 35 120 35q37 0 68 -13t43 -29l30 45l21 -11q-30 -70 -56 -176h-25q13 72 -11 112.5t-79 40.5q-40 0 -64 -24t-24 -64q0 -43 48 -74
q25 -20 61 -44.5t40 -27.5q55 -37 55 -98q0 -65 -48 -110q-54 -51 -158 -51q-84 0 -168 44q27 62 50 161zM303 554l-26 -6q-20 77 -70 167l23 17q51 -54 76 -92q63 55 123 92l17 -18q-94 -89 -143 -160z" />
    <glyph glyph-name="Scaron.swash" unicode="&#xe05e;" horiz-adv-x="483" 
d="M75 187h1q35 0 35 -54q0 -62 33 -92.5t86 -30.5q59 0 93 34.5t34 92.5q0 54 -39 93l-51 49l-50 48q-61 58 -61 133q0 96 81 153q49 33 123 33q80 0 114 -37t34 -76q0 -33 -15 -49.5t-34 -16.5q-18 0 -27 11t-6 25q6 27 6 35q0 36 -22.5 58t-63.5 22q-49 0 -77.5 -31
t-28.5 -83q0 -53 37 -90q14 -15 57.5 -55t61.5 -58q53 -53 53 -124q0 -98 -87 -157q-65 -41 -154 -41q-78 0 -131 38.5t-53 105.5q0 31 14 47.5t37 16.5zM376 692l-24 -4q-8 24 -34 58t-64 62l19 24q65 -26 107 -58q64 35 136 58l10 -25q-96 -54 -150 -115z" />
    <glyph glyph-name="T.sc" unicode="&#xe05f;" horiz-adv-x="496" 
d="M292 493h80q146 0 179 12q-27 -63 -53 -171l-30 -7q12 62 10 104q0 20 -19 26t-91 5q-7 -19 -59 -211q-34 -124 -49 -197q-2 -11 1 -16t14 -6q44 -6 69 -7l-10 -28q-12 0 -60.5 1.5t-77.5 1.5q-20 0 -65 -1.5t-66 -1.5l8 28q8 0 27 2.5t32 3.5q22 3 30 22q20 58 60 201
q53 196 56 208q-69 0 -91 -7.5t-39 -33.5q-29 -42 -54 -96l-25 7q36 88 62 173q28 -12 161 -12z" />
    <glyph glyph-name="T.swash" unicode="&#xe060;" horiz-adv-x="608" 
d="M124 -3l8 27l69 7q33 3 43 27q22 59 90 287q66 229 74 260q-32 4 -90 4q-69 0 -100 -23t-31 -70q0 -26 17 -52q8 -13 2 -30q-3 -11 -14 -18.5t-25 -7.5q-22 0 -38 20.5t-16 56.5q0 73 58 115t159 42q68 0 166 -4q100 -4 121 -4q43 0 65.5 11.5t38.5 45.5l20 -10
q-13 -50 -41 -69.5t-82 -18.5q-23 1 -65.5 3.5t-52.5 2.5l-77 -263q-46 -160 -74 -276q-3 -15 1 -21.5t20 -7.5q46 -5 83 -7l-11 -27q-20 0 -76 1.5t-86 1.5q-23 0 -48.5 -0.5t-57 -1.5t-50.5 -1z" />
    <glyph glyph-name="Thorn.sc" unicode="&#xe063;" horiz-adv-x="488" 
d="M113 469l10 28q8 0 43 -2t57 -2t59.5 2t54.5 2l-8 -28q-37 -1 -48.5 -6t-15.5 -18q-6 -15 -13 -45q48 2 81 2q65 0 102 -30t37 -91q0 -100 -77 -154q-53 -36 -133 -36q-54 0 -92 17q-2 -7 -6.5 -26.5l-6.5 -28.5q-3 -15 9 -20t63 -8l-8 -28q-123 3 -129 3q-20 0 -110 -3
l9 28q43 2 55.5 7.5t17.5 22.5q20 53 59 197q40 139 51 190q3 16 -7 21t-54 6zM378 287v1q0 38 -15 56q-20 28 -87 28q-31 0 -36 -12l-60 -215q24 -22 68 -22q51 0 79 27q51 48 51 137z" />
    <glyph glyph-name="Thorn.swash" unicode="&#xe064;" horiz-adv-x="671" 
d="M317 602h-1q-134 0 -134 -93q0 -22 12 -44q8 -16 5 -28q-2 -13 -13 -21t-27 -8q-20 0 -35 19.5t-15 52.5q1 75 57.5 113t149.5 38h118q17 0 48 0.5t42 0.5l-8 -26q-33 -1 -42.5 -6.5t-16.5 -27.5q-3 -7 -9 -30.5t-9 -33.5q8 0 32.5 0.5t39.5 0.5q166 0 166 -147
q-2 -132 -104 -198q-55 -36 -135 -36q-53 0 -104 19q-14 -47 -23 -86q-3 -16 1.5 -22.5t21.5 -7.5l77 -6l-9 -28q-23 0 -80 1.5t-82 1.5q-26 0 -73 -1.5t-65 -1.5l9 28l55 4q21 2 30.5 9t14.5 23q14 36 79 252q50 166 76 266q5 18 -7 21q-9 2 -42 2zM468 480h-1
q-37 0 -41 -16q-28 -86 -83 -284q34 -19 83 -19q55 0 93 41q29 29 45 77.5t16 94.5q0 54 -27 80t-85 26z" />
    <glyph glyph-name="U.sc" unicode="&#xe065;" horiz-adv-x="546" 
d="M100 469l11 28q16 0 53 -2t54 -2q20 0 57 2t53 2l-7 -28l-43 -5q-18 -2 -23 -20q-47 -133 -78 -284q-15 -70 12 -102q25 -32 80 -32q63 0 97.5 30t57.5 114q51 182 65 263q3 17 -2 23t-22 8l-45 5l10 28q10 0 41 -2t47 -2q15 0 49 2t46 2l-7 -28q-39 -4 -51.5 -10
t-18.5 -25l-39.5 -140.5l-38.5 -137.5q-16 -56 -36.5 -87.5t-53.5 -52.5q-47 -31 -129 -31q-93 0 -134 49q-39 48 -16 138q8 34 38 144l34 125q4 20 -12 23z" />
    <glyph glyph-name="U.swash" unicode="&#xe066;" horiz-adv-x="825" 
d="M815 118q-70 -135 -179 -135q-78 0 -47 114q2 6 5 18t6 21.5l5 15.5q-122 -169 -275 -169q-72 0 -98 43q-24 37 -3 126q36 151 146 430q6 11 -7 15q-20 2 -46 2q-74 0 -107 -24.5t-34 -72.5q0 -23 16 -48q9 -13 8 -28q-1 -16 -13 -26.5t-31 -10.5q-20 0 -37.5 19
t-17.5 57q0 73 60 119.5t168 46.5h73q42 0 83 13l5 -6q-19 -26 -52 -113q-84 -222 -115 -370q-13 -67 5 -92q14 -27 55 -27q55 0 109.5 43.5t101.5 119.5q24 40 38 84q67 203 106 348q58 -1 128 11l2 -23q-25 -7 -37 -17t-20 -33q-37 -108 -78.5 -254t-60.5 -225
q-12 -54 13 -54q21 0 49.5 25.5t55.5 76.5z" />
    <glyph glyph-name="Uacute.sc" unicode="&#xe067;" horiz-adv-x="546" 
d="M100 469l11 28q16 0 53 -2t54 -2q20 0 57 2t53 2l-7 -28l-43 -5q-18 -2 -23 -20q-47 -133 -78 -284q-15 -70 12 -102q25 -32 80 -32q63 0 97.5 30t57.5 114q51 182 65 263q3 17 -2 23t-22 8l-45 5l10 28q10 0 41 -2t47 -2q15 0 49 2t46 2l-7 -28q-39 -4 -51.5 -10
t-18.5 -25l-39.5 -140.5l-38.5 -137.5q-16 -56 -36.5 -87.5t-53.5 -52.5q-47 -31 -129 -31q-93 0 -134 49q-39 48 -16 138q8 34 38 144l34 125q4 20 -12 23zM359 546l-17 20q13 14 60.5 73t55.5 68q27 30 54 28q13 -1 21.5 -10t7.5 -24q-2 -33 -41 -59q-4 -3 -51.5 -34.5z
" />
    <glyph glyph-name="Uacute.swash" unicode="&#xe068;" horiz-adv-x="825" 
d="M815 118q-70 -135 -179 -135q-78 0 -47 114q2 6 5 18t6 21.5l5 15.5q-122 -169 -275 -169q-72 0 -98 43q-24 37 -3 126q36 151 146 430q6 11 -7 15q-20 2 -46 2q-74 0 -107 -24.5t-34 -72.5q0 -23 16 -48q9 -13 8 -28q-1 -16 -13 -26.5t-31 -10.5q-20 0 -37.5 19
t-17.5 57q0 73 60 119.5t168 46.5h73q42 0 83 13l5 -6q-19 -26 -52 -113q-84 -222 -115 -370q-13 -67 5 -92q14 -27 55 -27q55 0 109.5 43.5t101.5 119.5q24 40 38 84q67 203 106 348q58 -1 128 11l2 -23q-25 -7 -37 -17t-20 -33q-37 -108 -78.5 -254t-60.5 -225
q-12 -54 13 -54q21 0 49.5 25.5t55.5 76.5zM578 682l-14 22q14 10 71.5 55t66.5 51q28 20 55 12q31 -7 22 -42q-5 -26 -46 -44q-9 -3 -29.5 -10.5t-58 -20t-67.5 -23.5z" />
    <glyph glyph-name="Ucircumflex.sc" unicode="&#xe069;" horiz-adv-x="546" 
d="M100 469l11 28q16 0 53 -2t54 -2q20 0 57 2t53 2l-7 -28l-43 -5q-18 -2 -23 -20q-47 -133 -78 -284q-15 -70 12 -102q25 -32 80 -32q63 0 97.5 30t57.5 114q51 182 65 263q3 17 -2 23t-22 8l-45 5l10 28q10 0 41 -2t47 -2q15 0 49 2t46 2l-7 -28q-39 -4 -51.5 -10
t-18.5 -25l-39.5 -140.5l-38.5 -137.5q-16 -56 -36.5 -87.5t-53.5 -52.5q-47 -31 -129 -31q-93 0 -134 49q-39 48 -16 138q8 34 38 144l34 125q4 20 -12 23zM403 722l26 6q18 -74 71 -167l-23 -17q-45 45 -77 92q-56 -52 -123 -92l-16 18q98 93 142 160z" />
    <glyph glyph-name="Ucircumflex.swash" unicode="&#xe06a;" horiz-adv-x="825" 
d="M815 118q-70 -135 -179 -135q-78 0 -47 114q2 6 5 18t6 21.5l5 15.5q-122 -169 -275 -169q-72 0 -98 43q-24 37 -3 126q36 151 146 430q6 11 -7 15q-20 2 -46 2q-74 0 -107 -24.5t-34 -72.5q0 -23 16 -48q9 -13 8 -28q-1 -16 -13 -26.5t-31 -10.5q-20 0 -37.5 19
t-17.5 57q0 73 60 119.5t168 46.5h73q42 0 83 13l5 -6q-19 -26 -52 -113q-84 -222 -115 -370q-13 -67 5 -92q14 -27 55 -27q55 0 109.5 43.5t101.5 119.5q24 40 38 84q67 203 106 348q58 -1 128 11l2 -23q-25 -7 -37 -17t-20 -33q-37 -108 -78.5 -254t-60.5 -225
q-12 -54 13 -54q21 0 49.5 25.5t55.5 76.5zM644 820l24 3q9 -24 34.5 -58t63.5 -61l-19 -24q-51 19 -107 57q-63 -33 -136 -57l-9 24q102 58 149 116z" />
    <glyph glyph-name="Udieresis.sc" unicode="&#xe06b;" horiz-adv-x="546" 
d="M100 469l11 28q16 0 53 -2t54 -2q20 0 57 2t53 2l-7 -28l-43 -5q-18 -2 -23 -20q-47 -133 -78 -284q-15 -70 12 -102q25 -32 80 -32q63 0 97.5 30t57.5 114q51 182 65 263q3 17 -2 23t-22 8l-45 5l10 28q10 0 41 -2t47 -2q15 0 49 2t46 2l-7 -28q-39 -4 -51.5 -10
t-18.5 -25l-39.5 -140.5l-38.5 -137.5q-16 -56 -36.5 -87.5t-53.5 -52.5q-47 -31 -129 -31q-93 0 -134 49q-39 48 -16 138q8 34 38 144l34 125q4 20 -12 23zM310 674h1q21 0 32 -15t8 -38q-4 -26 -21.5 -41t-38.5 -15q-20 0 -33 13.5t-9 39.5q4 24 20.5 40t40.5 16zM487 674
h1q21 0 32 -15t8 -38q-4 -26 -21.5 -41t-38.5 -15t-33.5 13.5t-8.5 39.5q3 24 20 40t41 16z" />
    <glyph glyph-name="Udieresis.swash" unicode="&#xe06c;" horiz-adv-x="825" 
d="M815 118q-70 -135 -179 -135q-78 0 -47 114q2 6 5 18t6 21.5l5 15.5q-122 -169 -275 -169q-72 0 -98 43q-24 37 -3 126q36 151 146 430q6 11 -7 15q-20 2 -46 2q-74 0 -107 -24.5t-34 -72.5q0 -23 16 -48q9 -13 8 -28q-1 -16 -13 -26.5t-31 -10.5q-20 0 -37.5 19
t-17.5 57q0 73 60 119.5t168 46.5h73q42 0 83 13l5 -6q-19 -26 -52 -113q-84 -222 -115 -370q-13 -67 5 -92q14 -27 55 -27q55 0 109.5 43.5t101.5 119.5q24 40 38 84q67 203 106 348q58 -1 128 11l2 -23q-25 -7 -37 -17t-20 -33q-37 -108 -78.5 -254t-60.5 -225
q-12 -54 13 -54q21 0 49.5 25.5t55.5 76.5zM549 797h1q22 0 33.5 -14.5t9.5 -36.5q-3 -25 -21 -40.5t-38 -15.5t-33 13.5t-10 38.5q3 24 19.5 39.5t38.5 15.5zM734 797h1q22 0 33.5 -14.5t9.5 -36.5q-3 -25 -21 -40.5t-38 -15.5t-33 13.5t-10 38.5q3 24 19.5 39.5t38.5 15.5
z" />
    <glyph glyph-name="Ugrave.sc" unicode="&#xe06d;" horiz-adv-x="546" 
d="M100 469l11 28q16 0 53 -2t54 -2q20 0 57 2t53 2l-7 -28l-43 -5q-18 -2 -23 -20q-47 -133 -78 -284q-15 -70 12 -102q25 -32 80 -32q63 0 97.5 30t57.5 114q51 182 65 263q3 17 -2 23t-22 8l-45 5l10 28q10 0 41 -2t47 -2q15 0 49 2t46 2l-7 -28q-39 -4 -51.5 -10
t-18.5 -25l-39.5 -140.5l-38.5 -137.5q-16 -56 -36.5 -87.5t-53.5 -52.5q-47 -31 -129 -31q-93 0 -134 49q-39 48 -16 138q8 34 38 144l34 125q4 20 -12 23zM412 558l-21 -14l-93 108q-21 24 -19 51q1 17 12 26.5t25 9.5q29 0 43 -37q7 -17 53 -144z" />
    <glyph glyph-name="Ugrave.swash" unicode="&#xe06e;" horiz-adv-x="825" 
d="M815 118q-70 -135 -179 -135q-78 0 -47 114q2 6 5 18t6 21.5l5 15.5q-122 -169 -275 -169q-72 0 -98 43q-24 37 -3 126q36 151 146 430q6 11 -7 15q-20 2 -46 2q-74 0 -107 -24.5t-34 -72.5q0 -23 16 -48q9 -13 8 -28q-1 -16 -13 -26.5t-31 -10.5q-20 0 -37.5 19
t-17.5 57q0 73 60 119.5t168 46.5h73q42 0 83 13l5 -6q-19 -26 -52 -113q-84 -222 -115 -370q-13 -67 5 -92q14 -27 55 -27q55 0 109.5 43.5t101.5 119.5q24 40 38 84q67 203 106 348q58 -1 128 11l2 -23q-25 -7 -37 -17t-20 -33q-37 -108 -78.5 -254t-60.5 -225
q-12 -54 13 -54q21 0 49.5 25.5t55.5 76.5zM678 701l-14 -21l-60 20.5l-57 20t-29 10.5q-13 5 -24.5 17t-13.5 24q-7 34 27 43q27 8 54 -12q7 -5 30.5 -25.5l51.5 -45.5z" />
    <glyph glyph-name="V.sc" unicode="&#xe06f;" horiz-adv-x="501" 
d="M399 469l7 28q9 0 42 -2t52 -2q15 0 47 2t48 2l-7 -28q-38 -2 -53.5 -11t-38.5 -40q-64 -84 -274 -421q-29 2 -68 -8q-16 300 -29 444q-2 21 -14 27.5t-55 8.5l9 28q104 -4 109 -4q18 0 58 2t56 2l-6 -28q-40 -3 -51.5 -8.5t-11.5 -19.5q5 -162 18 -360l125.5 198
t95.5 162q10 18 -5 21q-14 3 -54 7z" />
    <glyph glyph-name="V.swash" unicode="&#xe070;" horiz-adv-x="736" 
d="M320 631h1h47q39 0 88 14l2 -2q-9 -89 -13 -148q-18 -408 -18 -420q174 223 226 306q78 127 80 205q1 10 -2 46q8 10 30 20t29 10q9 0 14 -19.5t4 -44.5q-2 -71 -91 -192l-307 -408q-48 -7 -70 -15h-8q0 3 3 62t6.5 135l7 158.5t6 149.5t1.5 90q0 19 -9 20q-9 2 -35 2
q-129 0 -129 -92q0 -22 16 -49q7 -13 6 -25q-1 -17 -14 -27.5t-31 -10.5q-21 0 -37.5 20.5t-16.5 56.5q0 71 58.5 114.5t155.5 43.5z" />
    <glyph glyph-name="W.sc" unicode="&#xe071;" horiz-adv-x="710" 
d="M610 469l7 28q13 0 47 -2t51 -2q14 0 44 2t45 2l-7 -28q-38 -5 -53 -13.5t-34 -36.5q-54 -87 -237 -422q-30 0 -67 -8q0 39 -1 109.5t-3 161t-3 129.5l-209 -392q-32 0 -67 -8q7 274 3 436q-1 27 -12 34t-55 10l8 28q3 0 44 -2t63 -2q25 0 65.5 2t48.5 2l-9 -28
q-40 -3 -50.5 -9.5t-11.5 -23.5q-6 -98 -9 -340l126 234.5t79 157.5q14 -2 70 7q0 -14 1 -82.5l2.5 -166.5t1.5 -157q140 248 185 350q10 21 -11 24z" />
    <glyph glyph-name="W.swash" unicode="&#xe072;" horiz-adv-x="989" 
d="M320 631h1h44q38 0 89 14l3 -1q-8 -39 -23 -162l-41 -388q185 319 251 452q16 32 25 59q30 0 93 19q-21 -173 -52 -551q131 181 199 295q73 127 76 210q1 14 -2 50q10 11 31.5 21t29.5 10q7 0 12.5 -19.5t4.5 -45.5q-3 -73 -78 -182l-287 -414q-47 -4 -73 -14h-9
q6 43 24.5 248t28.5 292q-27 -52 -151 -273.5t-139 -250.5q-47 -5 -71 -16h-11q45 403 57 595q0 17 -8 19q-12 3 -33 3q-129 0 -129 -95q0 -24 16 -48q8 -15 6 -26q-1 -16 -13.5 -26t-31.5 -10t-36.5 21t-17.5 56q1 72 59.5 115t155.5 43z" />
    <glyph glyph-name="X.sc" unicode="&#xe073;" horiz-adv-x="501" 
d="M370 469l11 28q18 0 49.5 -2t41.5 -2q19 0 50.5 2t44.5 2l-6 -28q-41 -3 -61 -11t-44 -30q-15 -13 -141 -149l25.5 -70.5l24 -68t18.5 -50t17 -38.5q9 -20 37 -23l42 -4l-8 -28q-10 0 -47 1.5t-61 1.5q-22 0 -64 -1.5t-59 -1.5l6 27q34 4 43.5 9t6.5 16l-54 167
l-131 -157q-11 -14 -8 -21t19 -8l45 -6l-6 -27q-9 0 -42 1.5t-57 1.5q-18 0 -35.5 -0.5t-38 -1.5t-32.5 -1l6 27q34 3 50.5 9t38.5 25q22 20 179 191q-48 149 -70 197q-6 11 -21.5 16t-54.5 7l8 28q8 0 28.5 -1.5t40 -2t37.5 -0.5q42 0 114 4l-7 -28q-33 -3 -41 -7t-6 -14
q30 -97 45 -139q67 74 116 136q12 18 -6 19z" />
    <glyph glyph-name="X.swash" unicode="&#xe074;" horiz-adv-x="644" 
d="M614 147l21 -21q-74 -143 -174 -143q-41 0 -58 31.5t-29 117.5q-3 19 -6.5 51t-6.5 55.5t-6 39.5q-107 -171 -159 -230q-41 -48 -71.5 -64.5t-65.5 -16.5q-33 0 -52 20t-20 49q0 29 17 44.5t36 15.5q20 0 30 -21q14 -35 35 -35q22 0 45 18t65 72q45 58 133 196
q-19 143 -32 190q-6 37 -15 53t-25 16q-44 0 -114 -79l-14 25q98 116 185 116q30 0 47 -27.5t28 -92.5q3 -20 9.5 -60t8.5 -55q75 103 98 132q84 105 156 105q43 0 55 -23q-4 -11 -9 -23q-9 3 -29 3q-33 0 -67 -19t-70.5 -58.5t-62.5 -72.5t-64 -87q15 -120 38 -243
q12 -80 41 -80q46 0 102 101z" />
    <glyph glyph-name="Y.sc" unicode="&#xe075;" horiz-adv-x="462" 
d="M366 469l9 28q9 0 42 -2t50 -2q14 0 43.5 2t47.5 2l-7 -28q-34 -2 -52 -9.5t-41 -29.5q-35 -35 -161 -198q-15 -21 -20 -39q-21 -78 -33 -138q-4 -19 16 -22q26 -4 66 -8l-9 -28q-21 0 -65.5 1.5t-69.5 1.5q-10 0 -133 -3l9 28q13 1 34 4t24 3q15 2 22.5 8.5t12.5 21.5
q16 40 39 131q4 17 -1 41q-6 33 -25 101t-32 101q-8 18 -21 24t-55 9l9 28q100 -4 105 -4q24 0 65 2t50 2l-7 -28q-24 -2 -36 -5t-14.5 -7t-0.5 -11q3 -13 48 -194q91 115 143 193q11 16 -4 18q-33 5 -48 6z" />
    <glyph glyph-name="Y.swash" unicode="&#xe076;" horiz-adv-x="606" 
d="M109 545l-2 31q85 71 174 71q69 0 95 -57q39 -79 3 -250h6q74 159 149 239q63 68 129 68q25 0 43 -14t21 -28q-2 -7 -10 -21q-14 10 -50 10q-85 0 -166 -111q-77 -102 -119 -226q-42 -125 -53 -195q-2 -16 2.5 -22.5t21.5 -7.5l79 -8l-9 -27q-101 3 -172 3q-60 0 -147 -3
l9 27l64 7q24 3 34.5 10t18.5 29q21 51 55 178q42 151 24 248q-14 92 -87 92q-60 0 -113 -43z" />
    <glyph glyph-name="Yacute.sc" unicode="&#xe077;" horiz-adv-x="462" 
d="M366 469l9 28q9 0 42 -2t50 -2q14 0 43.5 2t47.5 2l-7 -28q-34 -2 -52 -9.5t-41 -29.5q-35 -35 -161 -198q-15 -21 -20 -39q-21 -78 -33 -138q-4 -19 16 -22q26 -4 66 -8l-9 -28q-21 0 -65.5 1.5t-69.5 1.5q-10 0 -133 -3l9 28q13 1 34 4t24 3q15 2 22.5 8.5t12.5 21.5
q16 40 39 131q4 17 -1 41q-6 33 -25 101t-32 101q-8 18 -21 24t-55 9l9 28q100 -4 105 -4q24 0 65 2t50 2l-7 -28q-24 -2 -36 -5t-14.5 -7t-0.5 -11q3 -13 48 -194q91 115 143 193q11 16 -4 18q-33 5 -48 6zM314 546l-17 20q13 14 60.5 73t55.5 68q27 30 54 28
q13 -1 21.5 -10t7.5 -24q-2 -33 -41 -59q-4 -3 -51.5 -34.5z" />
    <glyph glyph-name="Yacute.swash" unicode="&#xe078;" horiz-adv-x="606" 
d="M109 545l-2 31q85 71 174 71q69 0 95 -57q39 -79 3 -250h6q74 159 149 239q63 68 129 68q25 0 43 -14t21 -28q-2 -7 -10 -21q-14 10 -50 10q-85 0 -166 -111q-77 -102 -119 -226q-42 -125 -53 -195q-2 -16 2.5 -22.5t21.5 -7.5l79 -8l-9 -27q-101 3 -172 3q-60 0 -147 -3
l9 27l64 7q24 3 34.5 10t18.5 29q21 51 55 178q42 151 24 248q-14 92 -87 92q-60 0 -113 -43zM421 679l-14 22q14 10 71.5 55t66.5 51q28 20 55 12q31 -7 22 -42q-5 -26 -46 -44q-9 -3 -29.5 -10.5t-58 -20t-67.5 -23.5z" />
    <glyph glyph-name="Ydieresis.sc" unicode="&#xe079;" horiz-adv-x="462" 
d="M366 469l9 28q9 0 42 -2t50 -2q14 0 43.5 2t47.5 2l-7 -28q-34 -2 -52 -9.5t-41 -29.5q-35 -35 -161 -198q-15 -21 -20 -39q-21 -78 -33 -138q-4 -19 16 -22q26 -4 66 -8l-9 -28q-21 0 -65.5 1.5t-69.5 1.5q-10 0 -133 -3l9 28q13 1 34 4t24 3q15 2 22.5 8.5t12.5 21.5
q16 40 39 131q4 17 -1 41q-6 33 -25 101t-32 101q-8 18 -21 24t-55 9l9 28q100 -4 105 -4q24 0 65 2t50 2l-7 -28q-24 -2 -36 -5t-14.5 -7t-0.5 -11q3 -13 48 -194q91 115 143 193q11 16 -4 18q-33 5 -48 6zM266 674h1q21 0 32 -15t8 -38q-4 -26 -21.5 -41t-38.5 -15
q-20 0 -33 13.5t-9 39.5q4 24 20.5 40t40.5 16zM443 674h1q21 0 32 -15t8 -38q-4 -26 -21.5 -41t-38.5 -15t-33.5 13.5t-8.5 39.5q3 24 20 40t41 16z" />
    <glyph glyph-name="Ydieresis.swash" unicode="&#xe07a;" horiz-adv-x="606" 
d="M109 545l-2 31q85 71 174 71q69 0 95 -57q39 -79 3 -250h6q74 159 149 239q63 68 129 68q25 0 43 -14t21 -28q-2 -7 -10 -21q-14 10 -50 10q-85 0 -166 -111q-77 -102 -119 -226q-42 -125 -53 -195q-2 -16 2.5 -22.5t21.5 -7.5l79 -8l-9 -27q-101 3 -172 3q-60 0 -147 -3
l9 27l64 7q24 3 34.5 10t18.5 29q21 51 55 178q42 151 24 248q-14 92 -87 92q-60 0 -113 -43zM380 798h1q22 0 33.5 -14.5t9.5 -36.5q-3 -25 -21 -40.5t-38 -15.5t-33 13.5t-10 38.5q3 24 19.5 39.5t38.5 15.5zM565 798h1q22 0 33.5 -14.5t9.5 -36.5q-3 -25 -21 -40.5
t-38 -15.5t-33 13.5t-10 38.5q3 24 19.5 39.5t38.5 15.5z" />
    <glyph glyph-name="Z.sc" unicode="&#xe07b;" horiz-adv-x="499" 
d="M113 319l-24 11q46 115 51 172q13 -5 53 -8q20 -1 117 -1q150 0 216 3q-17 -36 -30 -50l-168 -192l-197 -221q105 -1 152.5 2.5t67.5 12.5t36 32q33 45 59 101l24 -8q-53 -162 -57 -178q-28 2 -89 4q-32 1 -101 1h-147q-50 0 -77 -2l-6 17q69 70 205.5 222.5l196.5 223.5
h-90q-70 0 -97 -10t-46 -40q-17 -28 -49 -92z" />
    <glyph glyph-name="Z.swash" unicode="&#xe07c;" horiz-adv-x="550" 
d="M211 69q98 -8 171 -8q52 0 79.5 21.5t27.5 54.5q0 14 -4 34q-3 13 3 21q22 31 38 31q13 0 13 -26q0 -56 -36 -110t-81 -84q-39 -26 -83 -26q-49 0 -149 12q-110 11 -141 11q-28 0 -50 -4l-6 15q32 40 50 57q361 350 469 487q-74 2 -139 2q-88 0 -131 -5q-27 -3 -49 -29.5
t-55 -85.5l-21 16q63 117 81 193q13 -9 43 -12q28 -3 67 -3h139q88 0 160 3q-16 -53 -59 -96q-50 -59 -120 -133l-184 -190l-143 -146q39 3 110 0z" />
    <glyph glyph-name="Zcaron.sc" unicode="&#xe07d;" horiz-adv-x="499" 
d="M113 319l-24 11q46 115 51 172q13 -5 53 -8q20 -1 117 -1q150 0 216 3q-17 -36 -30 -50l-168 -192l-197 -221q105 -1 152.5 2.5t67.5 12.5t36 32q33 45 59 101l24 -8q-53 -162 -57 -178q-28 2 -89 4q-32 1 -101 1h-147q-50 0 -77 -2l-6 17q69 70 205.5 222.5l196.5 223.5
h-90q-70 0 -97 -10t-46 -40q-17 -28 -49 -92zM342 551l-26 -6q-20 77 -70 167l23 17q51 -54 76 -92q63 55 123 92l17 -18q-94 -89 -143 -160z" />
    <glyph glyph-name="Zcaron.swash" unicode="&#xe07e;" horiz-adv-x="550" 
d="M211 69q98 -8 171 -8q52 0 79.5 21.5t27.5 54.5q0 14 -4 34q-3 13 3 21q22 31 38 31q13 0 13 -26q0 -56 -36 -110t-81 -84q-39 -26 -83 -26q-49 0 -149 12q-110 11 -141 11q-28 0 -50 -4l-6 15q32 40 50 57q361 350 469 487q-74 2 -139 2q-88 0 -131 -5q-27 -3 -49 -29.5
t-55 -85.5l-21 16q63 117 81 193q13 -9 43 -12q28 -3 67 -3h139q88 0 160 3q-16 -53 -59 -96q-50 -59 -120 -133l-184 -190l-143 -146q39 3 110 0zM404 683l-24 -4q-8 24 -34 58t-64 62l19 24q65 -26 107 -58q64 35 136 58l10 -25q-96 -54 -150 -115z" />
    <glyph glyph-name="c_t" unicode="&#xe07f;" horiz-adv-x="706" 
d="M492 424h68q23 71 27 85q8 26 -7 32q-30 13 -94 13q-61 0 -84.5 -24t-23.5 -72q0 -15 6 -36q37 -24 37 -70q0 -29 -15.5 -45.5t-36.5 -16.5q-20 0 -28 12q-10 11 -3 28q10 24 10 38q0 44 -48 44q-67 0 -120 -101q-47 -84 -47 -182q0 -49 21 -75.5t59 -26.5q99 0 156 125
h12l3 -48q-28 -48 -82 -83t-120 -35q-139 0 -139 143q0 75 36.5 148.5t97.5 118.5q66 45 132 45q23 0 38 -4q-6 15 -6 29q0 53 44.5 88.5t124.5 35.5q61 0 109 -6q63 12 79 16l4 -4q-22 -58 -58 -172h111l-15 -29l-107 -7q-68 -205 -95 -325q-10 -36 19 -36q31 0 65.5 35
t51.5 75l14 -33q-27 -56 -75.5 -87t-95.5 -31q-28 0 -44 8t-20 24t-2 33.5t10 42.5l89 294l-71 7z" />
    <glyph glyph-name="cent.fitted" unicode="&#xe080;" horiz-adv-x="470" 
d="M372 603l38 8l-27 -83q49 -5 77.5 -30.5t28.5 -63.5q0 -27 -14 -40.5t-33 -13.5q-15 0 -22.5 10t-3.5 26q6 18 6 29q0 47 -49 56l-111 -359q115 1 172 116h16l-5 -51q-25 -38 -77 -66.5t-116 -32.5l-25 -83l-40 -9l30 92q-67 5 -105 45t-38 108t32.5 128t91.5 100
q61 39 151 41zM163 259v-1q0 -42 16.5 -73.5t49.5 -38.5l112 357q-79 -6 -128.5 -80t-49.5 -164z" />
    <glyph glyph-name="currency.taboldstyle" unicode="&#xe081;" horiz-adv-x="446" 
d="M266 383h-1q-62 0 -100 -59.5t-41 -130.5q-2 -52 21.5 -80.5t62.5 -28.5q68 0 104 60.5t38 130.5q2 47 -18.5 77.5t-65.5 30.5zM275 417h1q59 0 94 -32l68 72l32 -41l-79 -62q24 -35 22 -93q-3 -93 -69 -156l57 -63l-43 -40l-49 78q-47 -33 -111 -33q-58 0 -94 32
l-69 -73l-29 41l76 61q-24 33 -22 94q1 42 20 85t51 71l-56 60l43 42l48 -75q47 32 109 32z" />
    <glyph glyph-name="dollar.fitted" unicode="&#xe082;" horiz-adv-x="470" 
d="M353 147v1q0 35 -19 57.5t-69 55.5l-68 -223q5 -1 16 -1q61 0 100.5 28t39.5 82zM188 471v-1q0 -33 19.5 -56t59.5 -48q65 206 66 210q-12 3 -28 3q-55 0 -86 -30.5t-31 -77.5zM363 676l38 6l-28 -84q23 -5 46.5 -18t33.5 -25q7 4 29 37l18 -11q-38 -84 -60 -173l-24 3
q32 126 -54 158l-68 -218q69 -47 86 -63q50 -42 50 -104q-1 -66 -49 -114q-61 -60 -174 -60q-13 0 -18 1l-27 -87l-39 -7l32 97q-69 8 -145 54q29 69 51 163l29 6q-12 -37 -15 -72q-7 -100 90 -121q10 28 74 233q-48 32 -66 46q-59 45 -59 114q0 81 68 132q50 37 126 37
q19 0 33 -2z" />
    <glyph glyph-name="dotlessi.sc" unicode="&#xe083;" horiz-adv-x="288" 
d="M112 469l9 28q92 -4 107 -4q23 0 60.5 2t55.5 2l-9 -28q-39 -1 -51 -6.5t-18 -20.5q-20 -53 -58 -197q-45 -167 -49 -192q-3 -16 8 -20.5t57 -7.5l-10 -28q-108 3 -123 3q-19 0 -55.5 -1.5t-50.5 -1.5l8 28q39 2 52 7.5t18 19.5q14 34 58 194q42 147 52 194q4 16 -6.5 21
t-54.5 8z" />
    <glyph glyph-name="egrave.superior" unicode="&#xe084;" horiz-adv-x="317" 
d="M299 601l-17 -10l-70 79q-13 14 -11 32q3 29 29 27q20 0 32 -23q4 -9 18.5 -51.5zM337 382v-38q-59 -75 -159 -75q-46 0 -72.5 24t-26.5 68q0 49 24 94t65 74q46 32 102 32q45 0 66.5 -21.5t21.5 -54.5q0 -23 -18 -39q-15 -12 -37 -18q-68 -21 -144 -27q-5 -20 -5 -39
q0 -60 53 -60q78 0 118 79zM258 536h-1q-23 0 -49 -25t-44 -84q57 4 99 21q33 12 33 47q0 41 -38 41z" />
    <glyph glyph-name="f_i.sc" unicode="&#xe085;" horiz-adv-x="744" 
d="M103 469l11 28q14 0 62 -2q46 -2 71 -2h113q118 0 150 6q-20 -51 -49 -161h-27q8 44 6 83q-1 24 -18 32.5t-75 8.5h-62q-12 0 -17 -12q-9 -24 -55 -190q8 -1 59 -1q44 0 62 12.5t36 54.5l27 -1q-14 -36 -31 -100.5t-21 -87.5h-28q10 49 0.5 69t-56.5 20q-11 0 -24.5 -0.5
t-22 -0.5h-11.5q-31 -111 -45 -172q-4 -19 14 -22q48 -6 68 -7l-11 -27q-16 0 -63 1.5t-65 1.5q-17 0 -62 -1.5t-59 -1.5l8 27l46 6q20 1 28 18q16 43 61 203q42 152 51 195q3 15 -14 18zM568 469l9 28q92 -4 107 -4q23 0 60.5 2t55.5 2l-9 -28q-39 -1 -51 -6.5t-18 -20.5
q-20 -53 -58 -197q-45 -167 -49 -192q-3 -16 8 -20.5t57 -7.5l-10 -28q-108 3 -123 3q-19 0 -55.5 -1.5t-50.5 -1.5l8 28q39 2 52 7.5t18 19.5q14 34 58 194q42 147 52 194q4 16 -6.5 21t-54.5 8z" />
    <glyph glyph-name="f_l.sc" unicode="&#xe086;" horiz-adv-x="915" 
d="M103 469l11 28q14 0 62 -2q46 -2 71 -2h113q118 0 150 6q-20 -51 -49 -161h-27q8 44 6 83q-1 24 -18 32.5t-75 8.5h-62q-12 0 -17 -12q-9 -24 -55 -190q8 -1 59 -1q44 0 62 12.5t36 54.5l27 -1q-14 -36 -31 -100.5t-21 -87.5h-28q10 49 0.5 69t-56.5 20q-11 0 -24.5 -0.5
t-22 -0.5h-11.5q-31 -111 -45 -172q-4 -19 14 -22q48 -6 68 -7l-11 -27q-16 0 -63 1.5t-65 1.5q-17 0 -62 -1.5t-59 -1.5l8 27l46 6q20 1 28 18q16 43 61 203q42 152 51 195q3 15 -14 18zM864 171l26 -7q-1 -3 -64 -169q-42 5 -272 5q-8 0 -31 -0.5t-35 -0.5q-44 -2 -55 -2
l8 27l49 6q21 1 29 19q14 37 61 207q40 142 50 189q4 17 -17 20l-48 4l10 28q11 0 49 -2t62 -2q20 0 60 2t62 2l-7 -28l-52 -5q-20 -1 -26 -19q-20 -59 -53 -183q-54 -194 -57 -218q-1 -5 1.5 -7.5t15 -4.5t36.5 -2q63 0 89 8t46 33q31 37 63 100z" />
    <glyph glyph-name="florin.fitted" unicode="&#xe087;" horiz-adv-x="470" 
d="M107 318l17 34q14 0 43.5 -0.5t43.5 -1.5q25 92 47.5 141.5t53.5 81.5q59 61 133 61q38 0 61 -19t23 -52q0 -22 -12 -35.5t-28 -13.5q-33 0 -28 28q3 18 3 24q0 40 -37 40q-42 0 -76 -85q-23 -61 -50 -171q22 1 62.5 1.5t62.5 0.5l-15 -34q-78 2 -118 2
q-67 -254 -87 -311q-38 -110 -117 -158q-44 -26 -88 -26q-32 0 -55 17t-23 42q0 21 13 32t28 11q18 0 27 -27q14 -39 45 -39q23 0 38 21t31 71q39 126 99 367q-13 0 -97 -2z" />
    <glyph glyph-name="florin.oldstyle" unicode="&#xe088;" horiz-adv-x="478" 
d="M103 293l16 36q13 -1 41.5 -1.5t42.5 -0.5q41 144 101 206q60 59 131 59q38 0 62 -17.5t23 -47.5q-1 -24 -14 -39.5t-36 -15.5q-16 0 -23.5 9t-3.5 22q6 16 6 28q1 33 -31 33q-40 0 -70 -74q-18 -49 -49 -163q22 1 60.5 1t59.5 1l-15 -36q-70 2 -114 2q-63 -227 -74 -259
q-40 -121 -121 -166q-43 -25 -90 -25q-35 0 -58 16.5t-23 41.5q0 20 16 34.5t34 14.5q20 0 25 -24q9 -49 41 -49q22 0 36.5 20.5t29.5 71.5q28 91 88 324q-51 0 -91 -2z" />
    <glyph glyph-name="g.superior" unicode="&#xe089;" horiz-adv-x="332" 
d="M260 560h2q46 0 72 -20q41 28 69 28q12 0 20.5 -6t7.5 -11q0 -6 -10.5 -17t-19.5 -16q-14 10 -30 10q-8 0 -22 -6q13 -17 13 -47q0 -51 -39 -84t-103 -33q-28 0 -51 10q-25 -5 -25 -22t31 -26l109 -28q65 -18 65 -72q0 -40 -29 -66t-65 -35.5t-76 -9.5q-57 0 -106 24.5
t-49 68.5q0 30 28 46q26 15 71 13l8 -18q-24 -2 -36 -13.5t-12 -26.5q0 -27 33 -46.5t81 -19.5q45 0 67.5 16t22.5 38q0 29 -31 40q-59 18 -101 28q-68 21 -68 65q0 19 16.5 34t43.5 23q-28 18 -28 58q0 52 40.5 86.5t100.5 34.5zM261 537h-2q-32 0 -52.5 -35.5t-20.5 -70.5
q0 -49 39 -49q32 0 52 36t20 70q0 49 -36 49z" />
    </font>
</defs>
</svg>
