<?xml version="1.0" standalone="no"?>
<!DOCTYPE svg PUBLIC "-//W3C//DTD SVG 1.1//EN" "http://www.w3.org/Graphics/SVG/1.1/DTD/svg11.dtd" >
<svg>
<metadata>
Created by FontForge 20090622 at Thu Nov 24 10:14:39 2016
 By deploy user
Copyright (c) 2010-2013, Khaled Hosny &#60;khaledhosny@eglug.org&#62;.
Portions copyright (c) 2010, Sebastian Kosch &#60;sebastian@aldusleaf.org&#62;

This Font Software is licensed under the Open Font License, Version 1.1.
</metadata>
<defs>
<font id="Amiri-Bold" horiz-adv-x="449" >
  <font-face 
    font-family="Amiri"
    font-weight="700"
    font-stretch="normal"
    units-per-em="2048"
    panose-1="0 0 5 0 0 0 0 0 0 0"
    ascent="1638"
    descent="-410"
    x-height="872"
    cap-height="1324"
    bbox="-914.391 -1853.76 23523.4 3729.33"
    underline-thickness="102"
    underline-position="-1100"
    unicode-range="U+0020-U+FDFD"
  />
<missing-glyph horiz-adv-x="748" 
d="M68 0v1365h544v-1365h-544zM136 68h408v1229h-408v-1229z" />
    <glyph glyph-name="uni08F0" unicode="&#x64e;&#x64e;" horiz-adv-x="0" 
d="M681 2085q38 26 60 19t8 -53l-21 -64q-13 -37 -40 -54l-358 -220q-23 -13 -44 -9t-15 43l6 39q7 35 41 58zM843 2390q34 20 51 16q27 -8 15 -50l-14 -52q-12 -39 -49 -62l-363 -211q-42 -23 -63 -14t-2 53l18 39q17 34 38 48z" />
    <glyph glyph-name="uni08F1" unicode="&#x64f;&#x64f;" horiz-adv-x="0" 
d="M740 2301q39 10 64 -23q20 -29 22 -78q1 -48 -37 -141l44 -26q23 -14 8 -46l-25 -51q-16 -30 -89 11q-113 -145 -206 -196q-50 -26 -68 -2q-16 27 42 69q94 68 171 166q-120 65 -74 167q58 124 148 150zM720 2149q-12 18 -39 6q-17 -8 -23 -14q18 -20 66 -47q7 35 -4 55z
M405 2296q39 10 64 -23q20 -29 22 -78q1 -48 -37 -141l44 -26q23 -14 8 -46l-25 -51q-16 -30 -89 11q-113 -145 -206 -196q-50 -26 -68 -2q-16 27 42 69q94 68 171 166q-120 65 -74 167q58 124 148 150zM385 2144q-12 18 -39 6q-17 -8 -23 -14q18 -20 66 -47q7 35 -4 55z
" />
    <glyph glyph-name="uni08F2" unicode="&#x650;&#x650;" horiz-adv-x="0" 
d="M681 -932q38 26 60 19t8 -53l-21 -64q-13 -37 -40 -54l-358 -220q-23 -13 -44 -9t-15 43l6 39q7 35 41 58zM843 -627q34 20 51 16q27 -8 15 -50l-14 -52q-12 -39 -49 -62l-363 -211q-42 -23 -63 -14t-2 53l18 39q17 34 38 48z" />
    <glyph glyph-name="uniFB00" unicode="ff" horiz-adv-x="1340" 
d="M828 856v30q0 74 26 152q-27 1 -51 27t-47 65.5t-32 49.5q-63 73 -132 58q-50 -12 -85 -79t-47.5 -148t-7.5 -155h376zM946 1206q67 85 149.5 137.5t146.5 52.5q58 0 128 -20q78 -41 78 -92q0 -54 -27.5 -96t-74.5 -42q-21 0 -41.5 8.5t-32 17.5t-31 26.5t-27.5 23.5
q-37 30 -80 30q-24 0 -42 -47.5t-18 -116.5q0 -108 8 -232h234q12 0 12 -26q0 -13 -15 -35t-31 -33h-194v-472q0 -148 16 -188q10 -27 128 -36q7 -11 6.5 -38t-6.5 -36q-136 14 -274 14t-274 -14q-6 9 -6.5 36t6.5 38q118 9 128 36q16 40 16 188v472h-370v-472
q0 -148 16 -188q10 -27 128 -36q7 -11 6.5 -38t-6.5 -36q-136 14 -274 14t-274 -14q-6 9 -6.5 36t6.5 38q118 9 128 36q16 40 16 188v472h-142q-10 4 -10 26q26 36 64 68h88q1 112 28 198.5t67.5 137t97 84t106.5 46.5t105 16q118 8 213 -25.5t131 -106.5z" />
    <glyph glyph-name="uniFB01" unicode="fi" horiz-adv-x="1256" 
d="M198 832q1 142 36.5 252t99 178t146.5 102t182 34q67 0 131 -12t123 -37t97.5 -69.5t44.5 -103.5q5 -53 -24 -96t-80 -42q-16 1 -31 4t-26 7.5t-21.5 12.5l-18 14t-15 17.5t-11 17.5t-9 19l-7.5 17.5t-6 17.5t-5 15q-22 63 -56 90.5t-116 27.5q-49 0 -87.5 -53.5
t-58.5 -130.5t-29 -154.5t-5 -133.5h234q117 0 224.5 18.5t165.5 47.5q10 -3 22 -16t12 -18q-4 -12 -11 -52.5t-9 -61.5q-2 -44 -2 -126v-328q0 -148 16 -188q11 -28 114 -36q7 -11 6.5 -38t-6.5 -36q-136 14 -260 14q-138 0 -274 -14q-6 9 -6.5 36t6.5 38q118 9 128 36
q16 40 16 188v230q0 130 -18 164q-14 27 -63.5 37.5t-94.5 10.5h-194v-442q0 -148 16 -188q10 -27 128 -36q7 -11 6.5 -38t-6.5 -36q-136 14 -274 14t-274 -14q-6 9 -6.5 36t6.5 38q118 9 128 36q16 40 16 188v442h-142q-10 4 -10 26q26 36 64 68q68 0 88 6z" />
    <glyph glyph-name="uniFB02" unicode="fl" horiz-adv-x="1262" 
d="M460 1084q-12 -83 -8 -228h234q12 0 12 -26q0 -13 -15 -35t-31 -33h-194v-472q0 -148 16 -188q10 -27 128 -36q7 -11 6.5 -38t-6.5 -36q-136 14 -274 14t-274 -14q-6 9 -6.5 36t6.5 38q118 9 128 36q16 40 16 188v472h-142q-10 4 -10 26q26 36 64 68h88v30
q0 205 116.5 348t285.5 148q53 1 119 -25.5t107 -30.5q52 1 96.5 7.5t72 16t46.5 19t28 15.5l9 6q8 -1 18 -13.5t12 -20.5q-22 -124 -22 -204q-3 -59 -7 -156t-4.5 -327.5t11.5 -378.5q0 -148 16 -188q10 -27 128 -36q7 -11 6.5 -38t-6.5 -36q-136 14 -274 14t-274 -14
q-6 9 -6.5 36t6.5 38q118 9 128 36q16 40 16 188v606q0 188 -24 256q-24 65 -74.5 99t-111.5 29q-76 -6 -109 -55t-47 -141z" />
    <glyph glyph-name="uniFB03" unicode="ffi" horiz-adv-x="1888" 
d="M936 1224q124 174 358 174q67 0 131 -12t123 -37t97.5 -69.5t44.5 -103.5q5 -53 -24 -96t-80 -42q-16 1 -31 4t-26 7.5t-21.5 12.5l-18 14t-15 17.5t-11 17.5t-9 19l-7.5 17.5t-6 17.5t-5 15q-22 63 -56 90.5t-116 27.5q-49 0 -87.5 -53.5t-58.5 -130.5t-29 -154.5
t-5 -133.5h234q117 0 224.5 18.5t165.5 47.5q10 -3 22 -16t12 -18q-4 -12 -11 -52.5t-9 -61.5q-2 -44 -2 -126v-328q0 -148 16 -188q11 -28 114 -36q7 -11 6.5 -38t-6.5 -36q-136 14 -260 14q-138 0 -274 -14q-6 9 -6.5 36t6.5 38q118 9 128 36q16 40 16 188v230
q0 130 -18 164q-14 27 -63.5 37.5t-94.5 10.5h-194v-442q0 -148 16 -188q10 -27 128 -36q7 -11 6.5 -38t-6.5 -36q-136 14 -274 14t-274 -14q-6 9 -6.5 36t6.5 38q118 9 128 36q16 40 16 188q0 266 -2 446h-370v-446q0 -148 16 -188q10 -27 128 -36q7 -11 6.5 -38t-6.5 -36
q-136 14 -274 14t-274 -14q-6 9 -6.5 36t6.5 38q118 9 128 36q16 40 16 188v446h-142q-10 4 -10 26q26 36 64 68h88q1 112 27.5 201t68 144t96.5 92t106.5 52.5t105.5 18.5q110 6 201 -22.5t133 -91.5zM854 1038q-26 1 -50 26.5t-48.5 66t-31.5 49.5q-63 73 -132 58
q-50 -12 -85 -85.5t-47.5 -160.5t-7.5 -162h376q0 107 26 208z" />
    <glyph glyph-name="uniFB04" unicode="ffl" horiz-adv-x="1892" 
d="M828 856v30q0 72 20 152q-25 4 -48 30t-45.5 64t-30.5 48q-63 73 -132 58q-50 -12 -85 -79t-47.5 -148t-7.5 -155h376zM936 1224q54 72 130.5 113.5t163.5 44.5q53 1 119 -25.5t107 -30.5q52 1 96.5 7.5t72 16t46.5 19t28 15.5l9 6q8 -1 18 -13.5t12 -20.5
q-22 -124 -22 -204q-3 -59 -7 -156t-4.5 -327.5t11.5 -378.5q0 -148 16 -188q10 -27 128 -36q7 -11 6.5 -38t-6.5 -36q-136 14 -274 14t-274 -14q-6 9 -6.5 36t6.5 38q118 9 128 36q16 40 16 188v606q0 188 -24 256q-24 65 -74.5 99t-111.5 29q-76 -6 -109 -55t-47 -141
q-12 -83 -8 -228h234q12 0 12 -26q0 -13 -15 -35t-31 -33h-194v-472q0 -148 16 -188q10 -27 128 -36q7 -11 6.5 -38t-6.5 -36q-136 14 -274 14t-274 -14q-6 9 -6.5 36t6.5 38q118 9 128 36q16 40 16 188v472h-370v-472q0 -148 16 -188q10 -27 128 -36q7 -11 6.5 -38
t-6.5 -36q-136 14 -274 14t-274 -14q-6 9 -6.5 36t6.5 38q118 9 128 36q16 40 16 188v472h-142q-10 4 -10 26q26 36 64 68h88q1 112 28 198.5t67.5 137t97 84t106.5 46.5t105 16q112 6 202.5 -22t131.5 -92z" />
    <glyph glyph-name="afii57440_afii57440.rlig" unicode="&#x640;&#x640;" horiz-adv-x="700" 
d="M703 -30q-353 -16 -705 0q-40 3 -53 53l-26 89q-19 81 49 99q16 4 201 -2q184 -6 366.5 0t197.5 3q69 -17 48 -100l-26 -89q-15 -50 -52 -53z" />
    <glyph glyph-name="afii57440_afii57440_afii57440.rlig" unicode="&#x640;&#x640;&#x640;" horiz-adv-x="1500" 
d="M1502 -30q-328 -26 -759 -26t-745 26q-39 3 -53 53l-26 89q-12 51 11 79q24 27 72 24q312 -26 741.5 -26t754.5 26q87 4 87 -74q0 -14 -4 -29l-26 -89q-15 -50 -53 -53z" />
    <glyph glyph-name="afii57440_afii57440_afii57440_afii57440.rlig" unicode="&#x640;&#x640;&#x640;&#x640;" horiz-adv-x="2500" 
d="M2498 215q58 3 75 -29.5t8 -72.5l-26 -90q-14 -49 -56 -53q-1281 -121 -2500 0q-40 5 -54 53l-26 89q-5 20 -5 36q2 52 52 65q18 4 37 2q1220 -119 2495 0z" />
    <glyph glyph-name="f_b.liga" unicode="fb" horiz-adv-x="1774" 
d="M1086 1152v-322v-9.5t1.5 -11t4 -7.5t6.5 2q37 30 95.5 62t102.5 32q175 0 295.5 -121.5t120.5 -304.5q0 -93 -31 -173t-83 -137t-121 -98t-145.5 -60.5t-155.5 -19.5q-58 0 -145 23t-107 23q-41 0 -74 -14q-6 0 -27 20.5t-21 29.5q24 62 24 238v592q0 188 -24 256
q-24 65 -74.5 99t-111.5 29q-76 -6 -109 -55t-47 -141q-12 -83 -8 -228h234q12 0 12 -26q0 -13 -15 -35t-31 -33h-194v-472q0 -148 16 -188q10 -27 128 -36q7 -11 6.5 -38t-6.5 -36q-136 14 -274 14t-274 -14q-6 9 -6.5 36t6.5 38q118 9 128 36q16 40 16 188v472h-142
q-10 4 -10 26q26 36 64 68h88v30q0 205 116.5 348t285.5 148q53 1 119 -25.5t107 -30.5q52 1 96.5 7.5t72 16t46.5 19t28 15.5l9 6q8 -1 18 -13.5t12 -20.5q-22 -124 -22 -204zM1196 750q-64 0 -104 -44q-6 -6 -6 -18v-492q0 -53 35.5 -88.5t96.5 -35.5t109.5 49.5t72.5 122
t24 148.5q0 192 -62.5 275t-165.5 83z" />
    <glyph glyph-name="f_f_b.liga" unicode="ffb" horiz-adv-x="2404" 
d="M828 856v30q0 72 20 152q-25 4 -48 30t-45.5 64t-30.5 48q-63 73 -132 58q-50 -12 -85 -79t-47.5 -148t-7.5 -155h376zM1826 750q-64 0 -104 -44q-6 -6 -6 -18v-492q0 -53 35.5 -88.5t96.5 -35.5t109.5 49.5t72.5 122t24 148.5q0 192 -62.5 275t-165.5 83zM936 1224
q54 72 130.5 113.5t163.5 44.5q53 1 119 -25.5t107 -30.5q52 1 96.5 7.5t72 16t46.5 19t28 15.5l9 6q8 -1 18 -13.5t12 -20.5q-22 -124 -22 -204v-322v-9.5t1.5 -11t4 -7.5t6.5 2q37 30 95.5 62t102.5 32q175 0 295.5 -121.5t120.5 -304.5q0 -93 -31 -173t-83 -137t-121 -98
t-145.5 -60.5t-155.5 -19.5q-58 0 -145 23t-107 23q-41 0 -74 -14q-6 0 -27 20.5t-21 29.5q24 62 24 238v592q0 188 -24 256q-24 65 -74.5 99t-111.5 29q-76 -6 -109 -55t-47 -141q-12 -83 -8 -228h234q12 0 12 -26q0 -13 -15 -35t-31 -33h-194v-472q0 -148 16 -188
q10 -27 128 -36q7 -11 6.5 -38t-6.5 -36q-136 14 -274 14t-274 -14q-6 9 -6.5 36t6.5 38q118 9 128 36q16 40 16 188v472h-370v-472q0 -148 16 -188q10 -27 128 -36q7 -11 6.5 -38t-6.5 -36q-136 14 -274 14t-274 -14q-6 9 -6.5 36t6.5 38q118 9 128 36q16 40 16 188v472
h-142q-10 4 -10 26q26 36 64 68h88q1 112 28 198.5t67.5 137t97 84t106.5 46.5t105 16q112 6 202.5 -22t131.5 -92z" />
    <glyph glyph-name="f_k.liga" unicode="fk" horiz-adv-x="1830" 
d="M1086 1152l-2 -680q53 19 150 102q103 88 139.5 128.5t36.5 63.5q0 16 -46 29t-82 15q-5 13 -4 39t8 29q178 -8 262 -8q32 0 65.5 1.5t79 4.5t77.5 4q9 -15 6 -40t-12 -30q-126 -12 -198 -62q-18 -13 -55.5 -46.5l-99.5 -90.5l-109 -99l166 -187l118 -129
q39 -44 73 -70.5t65 -37.5t50 -13.5t50 -2.5q7 -21 5.5 -37t-5.5 -23q-25 -9 -85.5 -16.5t-116.5 -7.5q-85 0 -156.5 32t-117.5 86q-138 148 -236 270q-4 5 -11 11.5l-11 10.5l-4 4v-112q0 -148 16 -188q10 -27 128 -36q7 -11 6.5 -38t-6.5 -36q-136 14 -274 14t-274 -14
q-6 9 -6.5 36t6.5 38q118 9 128 36q16 40 16 188v606q0 188 -24 256q-24 65 -74.5 99t-111.5 29q-76 -6 -109 -55t-47 -141q-12 -83 -8 -228h234q12 0 12 -26q0 -13 -15 -35t-31 -33h-194v-472q0 -148 16 -188q10 -27 128 -36q7 -11 6.5 -38t-6.5 -36q-136 14 -274 14
t-274 -14q-6 9 -6.5 36t6.5 38q118 9 128 36q16 40 16 188v472h-142q-10 4 -10 26q26 36 64 68h88v30q0 205 116.5 348t285.5 148q53 1 119 -25.5t107 -30.5q52 1 96.5 7.5t72 16t46.5 19t28 15.5l9 6q8 -1 18 -13.5t12 -20.5q-22 -124 -22 -204z" />
    <glyph glyph-name="f_f_k.liga" unicode="ffk" horiz-adv-x="2460" 
d="M828 762h-370v-472q0 -148 16 -188q10 -27 128 -36q7 -11 6.5 -38t-6.5 -36q-136 14 -274 14t-274 -14q-6 9 -6.5 36t6.5 38q118 9 128 36q16 40 16 188v472h-142q-10 4 -10 26q26 36 64 68h88q1 112 28 198.5t67.5 137t97 84t106.5 46.5t105 16q112 6 202.5 -22
t131.5 -92q54 72 130.5 113.5t163.5 44.5q53 1 119 -25.5t107 -30.5q52 1 96.5 7.5t72 16t46.5 19t28 15.5l9 6q8 -1 18 -13.5t12 -20.5q-22 -124 -22 -204l-2 -680q53 19 150 102q103 88 139.5 128.5t36.5 63.5q0 16 -46 29t-82 15q-5 13 -4 39t8 29q178 -8 262 -8
q32 0 65.5 1.5t79 4.5t77.5 4q9 -15 6 -40t-12 -30q-126 -12 -198 -62q-18 -13 -55.5 -46.5l-99.5 -90.5l-109 -99l166 -187l118 -129q39 -44 73 -70.5t65 -37.5t50 -13.5t50 -2.5q7 -21 5.5 -37t-5.5 -23q-25 -9 -85.5 -16.5t-116.5 -7.5q-85 0 -156.5 32t-117.5 86
q-138 148 -236 270q-4 5 -11 11.5l-11 10.5l-4 4v-112q0 -148 16 -188q10 -27 128 -36q7 -11 6.5 -38t-6.5 -36q-136 14 -274 14t-274 -14q-6 9 -6.5 36t6.5 38q118 9 128 36q16 40 16 188v606q0 188 -24 256q-24 65 -74.5 99t-111.5 29q-76 -6 -109 -55t-47 -141
q-12 -83 -8 -228h234q12 0 12 -26q0 -13 -15 -35t-31 -33h-194v-472q0 -148 16 -188q10 -27 128 -36q7 -11 6.5 -38t-6.5 -36q-136 14 -274 14t-274 -14q-6 9 -6.5 36t6.5 38q118 9 128 36q16 40 16 188v472zM848 1038q-25 4 -48 30t-45.5 64t-30.5 48q-63 73 -132 58
q-50 -12 -85 -79t-47.5 -148t-7.5 -155h376v30q0 72 20 152z" />
    <glyph glyph-name="f_h.liga" unicode="fh" horiz-adv-x="1816" 
d="M1086 1150v-406q0 -10 2 -12q4 0 14 10q46 53 131.5 101.5t150.5 48.5q68 0 116 -19.5t78.5 -55t47.5 -95.5t23.5 -130.5t6.5 -171.5v-130q0 -148 16 -188q10 -27 128 -36q7 -11 6.5 -38t-6.5 -36q-136 14 -274 14q-114 0 -250 -14q-6 9 -6.5 36t6.5 38q93 7 104 36
q16 40 16 188v158q0 282 -134 282q-57 0 -116.5 -40t-59.5 -72v-328q0 -148 16 -188q11 -28 114 -36q7 -11 6.5 -38t-6.5 -36q-136 14 -260 14q-138 0 -274 -14q-6 9 -6.5 36t6.5 38q118 9 128 36q16 40 16 188v606q0 188 -24 256q-24 65 -74.5 99t-111.5 29
q-76 -6 -109 -55t-47 -141q-12 -83 -8 -228h234q12 0 12 -26q0 -13 -15 -35t-31 -33h-194v-472q0 -148 16 -188q10 -27 128 -36q7 -11 6.5 -38t-6.5 -36q-136 14 -274 14t-274 -14q-6 9 -6.5 36t6.5 38q118 9 128 36q16 40 16 188v472h-142q-10 4 -10 26q26 36 64 68h88v30
q0 205 116.5 348t285.5 148q53 1 119 -25.5t107 -30.5q52 1 96.5 7.5t72 16t46.5 19t28 15.5l9 6q8 -1 18 -13.5t12 -20.5q-22 -126 -22 -206z" />
    <glyph glyph-name="f_f_h.liga" unicode="ffh" horiz-adv-x="2446" 
d="M828 762h-370v-472q0 -148 16 -188q10 -27 128 -36q7 -11 6.5 -38t-6.5 -36q-136 14 -274 14t-274 -14q-6 9 -6.5 36t6.5 38q118 9 128 36q16 40 16 188v472h-142q-10 4 -10 26q26 36 64 68h88q1 112 28 198.5t67.5 137t97 84t106.5 46.5t105 16q112 6 202.5 -22
t131.5 -92q54 72 130.5 113.5t163.5 44.5q53 1 119 -25.5t107 -30.5q52 1 96.5 7.5t72 16t46.5 19t28 15.5l9 6q8 -1 18 -13.5t12 -20.5q-22 -126 -22 -206v-406q0 -10 2 -12q4 0 14 10q46 53 131.5 101.5t150.5 48.5q68 0 116 -19.5t78.5 -55t47.5 -95.5t23.5 -130.5
t6.5 -171.5v-130q0 -148 16 -188q10 -27 128 -36q7 -11 6.5 -38t-6.5 -36q-136 14 -274 14q-114 0 -250 -14q-6 9 -6.5 36t6.5 38q93 7 104 36q16 40 16 188v158q0 282 -134 282q-57 0 -116.5 -40t-59.5 -72v-328q0 -148 16 -188q11 -28 114 -36q7 -11 6.5 -38t-6.5 -36
q-136 14 -260 14q-138 0 -274 -14q-6 9 -6.5 36t6.5 38q118 9 128 36q16 40 16 188v606q0 188 -24 256q-24 65 -74.5 99t-111.5 29q-76 -6 -109 -55t-47 -141q-12 -83 -8 -228h234q12 0 12 -26q0 -13 -15 -35t-31 -33h-194v-472q0 -148 16 -188q10 -27 128 -36
q7 -11 6.5 -38t-6.5 -36q-136 14 -274 14t-274 -14q-6 9 -6.5 36t6.5 38q118 9 128 36q16 40 16 188v472zM848 1038q-25 4 -48 30t-45.5 64t-30.5 48q-63 73 -132 58q-50 -12 -85 -79t-47.5 -148t-7.5 -155h376v30q0 72 20 152z" />
    <glyph glyph-name="f_j.liga" unicode="fj" horiz-adv-x="1222" 
d="M1076 892q10 -3 22 -16t12 -18q-4 -12 -11 -52.5t-9 -61.5q-2 -44 -2 -126v-378q0 -304 -96 -444q-65 -95 -173 -163.5t-165 -68.5q-28 16 -28 34q0 12 2 14q10 5 24.5 15t48.5 50t59.5 92t46.5 147.5t21 211.5v392q0 131 -20 164q-14 27 -63 37.5t-93 10.5h-194v-442
q0 -148 16 -188q10 -27 128 -36q7 -11 6.5 -38t-6.5 -36q-136 14 -274 14t-274 -14q-6 9 -6.5 36t6.5 38q118 9 128 36q16 40 16 188v442h-142q-10 4 -10 26q26 36 64 68q68 0 88 6q1 142 36.5 252t99 178t146.5 102t182 34q67 0 131 -12t123 -37t97.5 -69.5t44.5 -103.5
q5 -53 -24 -96t-80 -42q-16 1 -31 4t-26 7.5t-21.5 12.5l-18 14t-15 17.5t-11 17.5t-9 19l-7.5 17.5t-6 17.5t-5 15q-22 63 -56 90.5t-116 27.5q-49 0 -87.5 -53.5t-58.5 -130.5t-29 -154.5t-5 -133.5h234q117 0 224.5 18.5t165.5 47.5z" />
    <glyph glyph-name="f_f_j.liga" unicode="ffj" horiz-adv-x="1854" 
d="M1318 826q117 0 224.5 18.5t165.5 47.5q10 -3 22 -16t12 -18q-4 -12 -11 -52.5t-9 -61.5q-2 -44 -2 -126v-378q0 -304 -96 -444q-65 -95 -173 -163.5t-165 -68.5q-28 16 -28 34q0 12 2 14q10 5 24.5 15t48.5 50t59.5 92t46.5 147.5t21 211.5v392q0 131 -20 164
q-14 27 -63 37.5t-93 10.5h-194v-442q0 -148 16 -188q10 -27 128 -36q7 -11 6.5 -38t-6.5 -36q-136 14 -274 14t-274 -14q-6 9 -6.5 36t6.5 38q118 9 128 36q16 40 16 188q0 266 -2 446h-370v-446q0 -148 16 -188q10 -27 128 -36q7 -11 6.5 -38t-6.5 -36q-136 14 -274 14
t-274 -14q-6 9 -6.5 36t6.5 38q118 9 128 36q16 40 16 188v446h-142q-10 4 -10 26q26 36 64 68h88q1 112 27.5 201t68 144t96.5 92t106.5 52.5t105.5 18.5q110 6 201 -22.5t133 -91.5q124 174 358 174q67 0 131 -12t123 -37t97.5 -69.5t44.5 -103.5q5 -53 -24 -96t-80 -42
q-16 1 -31 4t-26 7.5t-21.5 12.5l-18 14t-15 17.5t-11 17.5t-9 19l-7.5 17.5t-6 17.5t-5 15q-22 63 -56 90.5t-116 27.5q-49 0 -87.5 -53.5t-58.5 -130.5t-29 -154.5t-5 -133.5h234zM852 1038q-26 2 -50 27.5t-47 65.5t-31 49q-63 73 -132 58q-50 -12 -85 -85.5
t-47.5 -160.5t-7.5 -162h376q0 115 24 208z" />
    <glyph glyph-name="afii57414.init" unicode="&#x626;" horiz-adv-x="390" arabic-form="initial" 
d="M105 436l58 127q31 68 54 27q100 -173 46.5 -396.5t-263.5 -223.5q-42 0 -59.5 68.5t-16.5 111t44 59.5q15 6 32 6q119 -3 173 47q-11 51 -49 92t-19 82zM329 819q-110 -22 -156 -36.5t-171 -69.5q-38 -14 -57 13q-29 46 63 109q-61 38 -71 84q-16 90 73.5 213t194.5 115
q77 -6 69.5 -80.5t-29.5 -105t-32 -37.5q-30 -20 -51 10.5t-53.5 33.5t-48 -15t0.5 -34q65 -60 189 -64q20 0 61.5 10t63 9t33.5 -20q11 -20 4 -37q-43 -89 -83 -98z" />
    <glyph glyph-name="afii57414.medi" unicode="&#x626;" horiz-adv-x="500" arabic-form="medial" 
d="M372 296q61 -77 128 -82q56 -5 66 -42q6 -26 -1.5 -86t-21 -87.5t-43.5 -28.5q-119 0 -222 130q-126 -130 -278 -130q-44 1 -55 55l-18 83q-7 34 15 69t58 38q243 18 299 120q17 31 39 31q30 0 31.5 -33.5t2.5 -36.5zM404 759q-110 -22 -156 -36.5t-171 -69.5
q-38 -14 -57 13q-29 46 63 109q-61 38 -71 84q-16 90 73.5 213t194.5 115q77 -6 69.5 -80.5t-29.5 -105t-32 -37.5q-30 -20 -51 10.5t-53.5 33.5t-48 -15t0.5 -34q65 -60 189 -64q20 0 61.5 10t63 9t33.5 -20q11 -20 4 -37q-43 -89 -83 -98z" />
    <glyph glyph-name="afii57416.init" unicode="&#x628;" horiz-adv-x="390" arabic-form="initial" 
d="M105 436l58 127q31 68 54 27q100 -173 46.5 -396.5t-263.5 -223.5q-42 0 -59.5 68.5t-16.5 111t44 59.5q15 6 32 6q119 -3 173 47q-11 51 -49 92t-19 82zM124 -222q12 17 35 10q84 -30 150 -88q17 -17 6 -37l-98 -155q-16 -21 -37 -4.5t-148 92.5q-21 13 -7 34z" />
    <glyph glyph-name="afii57416.medi" unicode="&#x628;" horiz-adv-x="500" arabic-form="medial" 
d="M372 296q61 -77 128 -82q56 -5 66 -42q6 -26 -1.5 -86t-21 -87.5t-43.5 -28.5q-119 0 -222 130q-126 -130 -278 -130q-44 1 -55 55l-18 83q-7 34 15 69t58 38q243 18 299 120q17 31 39 31q30 0 31.5 -33.5t2.5 -36.5zM214 -222q12 17 35 10q84 -30 150 -88q17 -17 6 -37
l-98 -155q-16 -21 -37 -4.5t-148 92.5q-21 13 -7 34z" />
    <glyph glyph-name="afii57418.init" unicode="&#x62a;" horiz-adv-x="390" arabic-form="initial" 
d="M105 436l58 127q31 68 54 27q100 -173 46.5 -396.5t-263.5 -223.5q-42 0 -59.5 68.5t-16.5 111t44 59.5q15 6 32 6q119 -3 173 47q-11 51 -49 92t-19 82zM227 974q12 17 35 10q84 -30 150 -88q17 -17 6 -37l-98 -155q-16 -21 -35.5 -5.5t-108.5 69.5l-69 -110
q-16 -21 -37 -4.5t-148 92.5q-21 13 -7 34l99 148q12 17 35 10q62 -22 114 -59z" />
    <glyph glyph-name="afii57418.medi" unicode="&#x62a;" horiz-adv-x="500" arabic-form="medial" 
d="M372 296q61 -77 128 -82q56 -5 66 -42q6 -26 -1.5 -86t-21 -87.5t-43.5 -28.5q-119 0 -222 130q-126 -130 -278 -130q-44 1 -55 55l-18 83q-7 34 15 69t58 38q243 18 299 120q17 31 39 31q30 0 31.5 -33.5t2.5 -36.5zM287 914q12 17 35 10q84 -30 150 -88q17 -17 6 -37
l-98 -155q-16 -21 -35.5 -5.5t-108.5 69.5l-69 -110q-16 -21 -37 -4.5t-148 92.5q-21 13 -7 34l99 148q12 17 35 10q62 -22 114 -59z" />
    <glyph glyph-name="afii57419.init" unicode="&#x62b;" horiz-adv-x="390" arabic-form="initial" 
d="M105 436l58 127q31 68 54 27q100 -173 46.5 -396.5t-263.5 -223.5q-42 0 -59.5 68.5t-16.5 111t44 59.5q15 6 32 6q119 -3 173 47q-11 51 -49 92t-19 82zM74 1203q12 17 35 10q84 -30 150 -88q17 -17 6 -37l-98 -155q-16 -21 -37 -4.5t-148 92.5q-21 13 -7 33zM219 974
q12 17 35 10q84 -30 150 -88q17 -17 6 -37l-98 -155q-15 -22 -34.5 -6.5t-94.5 61.5l-64 -102q-16 -21 -37 -4.5t-148 92.5q-21 13 -7 34l99 148q24 34 135 -39z" />
    <glyph glyph-name="afii57419.medi" unicode="&#x62b;" horiz-adv-x="500" arabic-form="medial" 
d="M372 296q61 -77 128 -82q56 -5 66 -42q6 -26 -1.5 -86t-21 -87.5t-43.5 -28.5q-119 0 -222 130q-126 -130 -278 -130q-44 1 -55 55l-18 83q-7 34 15 69t58 38q243 18 299 120q17 31 39 31q30 0 31.5 -33.5t2.5 -36.5zM134 1143q12 17 35 10q84 -30 150 -88q17 -17 6 -37
l-98 -155q-16 -21 -37 -4.5t-148 92.5q-21 13 -7 33zM279 914q12 17 35 10q84 -30 150 -88q17 -17 6 -37l-98 -155q-15 -22 -34.5 -6.5t-94.5 61.5l-64 -102q-16 -21 -37 -4.5t-148 92.5q-21 13 -7 34l99 148q24 34 135 -39z" />
    <glyph glyph-name="afii57420.init" unicode="&#x62c;" horiz-adv-x="1343" arabic-form="initial" 
d="M13 455q19 72 93 143t146 72t337 -109.5t588 -96.5q60 3 22 -80l-57 -126q-17 -38 -42 -35q-236 39 -442.5 -25.5t-370.5 -146t-287 -81.5q-33 1 -49 39q-27 73 -12 129t31 65.5t27 11.5q316 19 530 119q-293 131 -473 75q-57 -20 -41 46zM564 -74q12 17 35 10
q84 -30 150 -88q17 -17 6 -37l-98 -155q-16 -21 -37 -4.5t-148 92.5q-21 13 -7 34z" />
    <glyph glyph-name="afii57420.medi" unicode="&#x62c;" horiz-adv-x="1250" arabic-form="medial" 
d="M25 454q54 222 268 222q97 0 300 -97q97 -46 265 -72t327 -8q71 9 55 -45l-46 -151q-11 -36 -57 -32q-82 7 -142 9q-29 -76 256 -69q120 3 67 -174q-20 -61 -64 -67q-169 -21 -270 16q-142 52 -76 288q-166 -15 -311 -69t-328.5 -145.5t-268.5 -89.5q-48 1 -69.5 54.5
t-7.5 116.5t73 74q172 31 296.5 82t200.5 72q-288 95 -402 37q-39 -20 -59 -12t-7 60zM554 -62q12 17 35 10q84 -30 150 -88q17 -17 6 -37l-98 -155q-16 -21 -37 -4.5t-148 92.5q-21 13 -7 34z" />
    <glyph glyph-name="afii57421.init" unicode="&#x62d;" horiz-adv-x="1343" arabic-form="initial" 
d="M13 455q19 72 93 143t146 72t337 -109.5t588 -96.5q60 3 22 -80l-57 -126q-17 -38 -42 -35q-236 39 -442.5 -25.5t-370.5 -146t-287 -81.5q-33 1 -49 39q-27 73 -12 129t31 65.5t27 11.5q316 19 530 119q-293 131 -473 75q-57 -20 -41 46z" />
    <glyph glyph-name="afii57421.medi" unicode="&#x62d;" horiz-adv-x="1250" arabic-form="medial" 
d="M25 454q54 222 268 222q97 0 300 -97q97 -46 265 -72t327 -8q71 9 55 -45l-46 -151q-11 -36 -57 -32q-82 7 -142 9q-29 -76 256 -69q120 3 67 -174q-20 -61 -64 -67q-169 -21 -270 16q-142 52 -76 288q-166 -15 -311 -69t-328.5 -145.5t-268.5 -89.5q-48 1 -69.5 54.5
t-7.5 116.5t73 74q172 31 296.5 82t200.5 72q-288 95 -402 37q-39 -20 -59 -12t-7 60z" />
    <glyph glyph-name="afii57422.init" unicode="&#x62e;" horiz-adv-x="1343" arabic-form="initial" 
d="M13 455q19 72 93 143t146 72t337 -109.5t588 -96.5q60 3 22 -80l-57 -126q-17 -38 -42 -35q-236 39 -442.5 -25.5t-370.5 -146t-287 -81.5q-33 1 -49 39q-27 73 -12 129t31 65.5t27 11.5q316 19 530 119q-293 131 -473 75q-57 -20 -41 46zM564 1078q12 17 35 10
q84 -30 150 -88q17 -17 6 -37l-98 -155q-16 -21 -37 -4.5t-148 92.5q-21 13 -7 34z" />
    <glyph glyph-name="afii57422.medi" unicode="&#x62e;" horiz-adv-x="1250" arabic-form="medial" 
d="M25 454q54 222 268 222q97 0 300 -97q97 -46 265 -72t327 -8q71 9 55 -45l-46 -151q-11 -36 -57 -32q-82 7 -142 9q-29 -76 256 -69q120 3 67 -174q-20 -61 -64 -67q-169 -21 -270 16q-142 52 -76 288q-166 -15 -311 -69t-328.5 -145.5t-268.5 -89.5q-48 1 -69.5 54.5
t-7.5 116.5t73 74q172 31 296.5 82t200.5 72q-288 95 -402 37q-39 -20 -59 -12t-7 60zM604 1078q12 17 35 10q84 -30 150 -88q17 -17 6 -37l-98 -155q-16 -21 -37 -4.5t-148 92.5q-21 13 -7 34z" />
    <glyph glyph-name="afii57427.init" unicode="&#x633;" horiz-adv-x="1164" arabic-form="initial" 
d="M322 424q64 -1 9 -108q57 -45 143 -46q137 -2 228 252q14 39 44 28.5t24 -47.5l-18 -71q38 -31 100 -51t100 -19q-15 61 -32 92t5 67l63 103q33 35 51 -50q29 -142 -2 -274t-104 -178q-8 -5 -29 -6q-142 -5 -246 83q-76 -148 -204 -182.5t-257 100.5q-123 -146 -197 -147
q-43 0 -58 67q-8 38 -11 68q-10 102 66 110q203 21 291 180q16 29 34 29z" />
    <glyph glyph-name="afii57427.medi" unicode="&#x633;" horiz-adv-x="1165" arabic-form="medial" 
d="M260 343q16 43 56 29q38 -14 9 -75q-8 -17 -18 -36q222 -79 318 121q19 44 54 30t16.5 -64t-17.5 -66q4 -43 80.5 -52t100.5 24t47 140q6 28 34 28t37 -24q64 -172 188 -183q47 -7 61.5 -74t-2 -119t-59.5 -52q-184 0 -250 208q-29 -93 -63 -156.5t-92 -65.5
q-141 -5 -222 92q-82 -78 -194 -77.5t-178 66.5q-80 -66 -166 -67q-57 0 -72 99q-4 25 -7 71q-3 50 47 68q17 6 32 7q220 16 260 128z" />
    <glyph glyph-name="afii57428.init" unicode="&#x634;" horiz-adv-x="1164" arabic-form="initial" 
d="M322 424q64 -1 9 -108q57 -45 143 -46q137 -2 228 252q14 39 44 28.5t24 -47.5l-18 -71q38 -31 100 -51t100 -19q-15 61 -32 92t5 67l63 103q33 35 51 -50q29 -142 -2 -274t-104 -178q-8 -5 -29 -6q-142 -5 -246 83q-76 -148 -204 -182.5t-257 100.5q-123 -146 -197 -147
q-43 0 -58 67q-8 38 -11 68q-10 102 66 110q203 21 291 180q16 29 34 29zM553 1303q12 17 35 10q84 -30 150 -88q17 -17 6 -37l-98 -155q-16 -21 -37 -4.5t-148 92.5q-21 13 -7 33zM698 1074q12 17 35 10q84 -30 150 -88q17 -17 6 -37l-98 -155q-15 -22 -34.5 -6.5
t-94.5 61.5l-64 -102q-16 -21 -37 -4.5t-148 92.5q-21 13 -7 34l99 148q24 34 135 -39z" />
    <glyph glyph-name="afii57428.medi" unicode="&#x634;" horiz-adv-x="1165" arabic-form="medial" 
d="M260 343q16 43 56 29q38 -14 9 -75q-8 -17 -18 -36q222 -79 318 121q19 44 54 30t16.5 -64t-17.5 -66q4 -43 80.5 -52t100.5 24t47 140q6 28 34 28t37 -24q64 -172 188 -183q47 -7 61.5 -74t-2 -119t-59.5 -52q-184 0 -250 208q-29 -93 -63 -156.5t-92 -65.5
q-141 -5 -222 92q-82 -78 -194 -77.5t-178 66.5q-80 -66 -166 -67q-57 0 -72 99q-4 25 -7 71q-3 50 47 68q17 6 32 7q220 16 260 128zM498 1180q12 17 35 10q84 -30 150 -88q17 -17 6 -37l-98 -155q-16 -21 -37 -4.5t-148 92.5q-21 13 -7 33zM643 951q12 17 35 10
q84 -30 150 -88q17 -17 6 -37l-98 -155q-15 -22 -34.5 -6.5t-94.5 61.5l-64 -102q-16 -21 -37 -4.5t-148 92.5q-21 13 -7 34l99 148q24 34 135 -39z" />
    <glyph glyph-name="afii57429.init" unicode="&#x635;" horiz-adv-x="1430" arabic-form="initial" 
d="M156 154q-63 -187 -156 -184q-31 1 -50 41q-36 86 -16 140t59 63q111 23 179 142q24 43 60 42.5t64 -45.5q53 -85 210 -136q101 114 163 169q264 227 403 228q76 1 171 -76q75 -61 59 -149t-71 -187.5t-83 -120.5q-197 -142 -481 -143q-112 1 -232 30q-26 -53 -42 -127
q-11 -49 -50.5 -35.5t-30.5 62.5t41 132q-103 33 -197 154zM1167 262q-119 90 -266 80q-112 -7 -296 -149q103 -4 306 14.5t256 54.5z" />
    <glyph glyph-name="afii57429.medi" unicode="&#x635;" horiz-adv-x="1480" arabic-form="medial" 
d="M1221 393q-157 108 -345.5 -2.5t-249.5 -180.5q132 7 311 57t284 126zM475 -13q-21 -54 -31 -104q-11 -57 -52 -50q-49 9 -22 107q22 77 23 79q-108 32 -184 128q-110 -176 -206 -177q-49 0 -67 55q-37 120 29 180q12 11 35 10q118 0 226 125q16 19 35 17q17 -2 44 -32
q74 -87 217 -101q119 173 283 314.5t287 170.5q94 19 182.5 -43.5t110.5 -155.5q-32 -150 -96 -253q87 -31 191 -42q46 -4 54 -94q9 -94 -12 -126q-15 -23 -40 -25q-159 -19 -406 104q-251 -150 -601 -87z" />
    <glyph glyph-name="afii57430.init" unicode="&#x636;" horiz-adv-x="1430" arabic-form="initial" 
d="M156 154q-63 -187 -156 -184q-31 1 -50 41q-36 86 -16 140t59 63q111 23 179 142q24 43 60 42.5t64 -45.5q53 -85 210 -136q101 114 163 169q264 227 403 228q76 1 171 -76q75 -61 59 -149t-71 -187.5t-83 -120.5q-197 -142 -481 -143q-112 1 -232 30q-26 -53 -42 -127
q-11 -49 -50.5 -35.5t-30.5 62.5t41 132q-103 33 -197 154zM1167 262q-119 90 -266 80q-112 -7 -296 -149q103 -4 306 14.5t256 54.5zM588 1022q12 17 35 10q84 -30 150 -88q17 -17 6 -37l-98 -155q-16 -21 -37 -4.5t-148 92.5q-21 13 -7 34z" />
    <glyph glyph-name="afii57430.medi" unicode="&#x636;" horiz-adv-x="1480" arabic-form="medial" 
d="M1221 393q-157 108 -345.5 -2.5t-249.5 -180.5q132 7 311 57t284 126zM475 -13q-21 -54 -31 -104q-11 -57 -52 -50q-49 9 -22 107q22 77 23 79q-108 32 -184 128q-110 -176 -206 -177q-49 0 -67 55q-37 120 29 180q12 11 35 10q118 0 226 125q16 19 35 17q17 -2 44 -32
q74 -87 217 -101q119 173 283 314.5t287 170.5q94 19 182.5 -43.5t110.5 -155.5q-32 -150 -96 -253q87 -31 191 -42q46 -4 54 -94q9 -94 -12 -126q-15 -23 -40 -25q-159 -19 -406 104q-251 -150 -601 -87zM666 1115q12 17 35 10q84 -30 150 -88q17 -17 6 -37l-98 -155
q-16 -21 -37 -4.5t-148 92.5q-21 13 -7 34z" />
    <glyph glyph-name="afii57431.init" unicode="&#x637;" horiz-adv-x="1163" arabic-form="initial" 
d="M242 322q19 133 -7 497.5t-39.5 434t-11.5 77.5q6 46 56 134q33 58 64 -10q52 -111 77 -139q44 -50 13 -86l-51 -57q-4 -5 -3 -23q27 -409 21.5 -522t-19.5 -220q281 233 419 269q171 45 271 -152q17 -34 4 -80q-40 -141 -106 -237.5t-201 -127.5q-380 -88 -729 -110
q-44 -1 -62 59t-7 121t69 65q106 4 141 9zM696 439q-155 -3 -399 -201q389 39 594 104q-81 98 -195 97z" />
    <glyph glyph-name="afii57431.medi" unicode="&#x637;" horiz-adv-x="1130" arabic-form="medial" 
d="M681 22q-325 -78 -681 -52q-33 2 -55 59q-55 140 20 177q17 8 35 9l95 1l96 104q2 306 -75 931q-10 84 -14 95q-9 38 53 162q13 26 35 26t34 -33q38 -99 79.5 -141t4.5 -90l-35 -45q-11 -14 -9 -28q50 -341 44 -556q-2 -89 -29 -234q381 349 547 293q104 -35 163 -160
q14 -30 7 -78q-21 -137 -132 -234q137 -24 266 -13q55 4 67 -60q32 -146 -44 -178q-14 -6 -23 -7q-193 -15 -449 52zM681 436q-150 33 -455 -213q350 36 587 134q-51 61 -132 79z" />
    <glyph glyph-name="afii57432.init" unicode="&#x638;" horiz-adv-x="1163" arabic-form="initial" 
d="M242 322q19 133 -7 497.5t-39.5 434t-11.5 77.5q6 46 56 134q33 58 64 -10q52 -111 77 -139q44 -50 13 -86l-51 -57q-4 -5 -3 -23q27 -409 21.5 -522t-19.5 -220q281 233 419 269q171 45 271 -152q17 -34 4 -80q-40 -141 -106 -237.5t-201 -127.5q-380 -88 -729 -110
q-44 -1 -62 59t-7 121t69 65q106 4 141 9zM696 439q-155 -3 -399 -201q389 39 594 104q-81 98 -195 97zM719 1128q12 17 35 10q84 -30 150 -88q17 -17 6 -37l-98 -155q-16 -21 -37 -4.5t-148 92.5q-21 13 -7 34z" />
    <glyph glyph-name="afii57432.medi" unicode="&#x638;" horiz-adv-x="1130" arabic-form="medial" 
d="M681 22q-325 -78 -681 -52q-33 2 -55 59q-55 140 20 177q17 8 35 9l95 1l96 104q2 306 -75 931q-10 84 -14 95q-9 38 53 162q13 26 35 26t34 -33q38 -99 79.5 -141t4.5 -90l-35 -45q-11 -14 -9 -28q50 -341 44 -556q-2 -89 -29 -234q381 349 547 293q104 -35 163 -160
q14 -30 7 -78q-21 -137 -132 -234q137 -24 266 -13q55 4 67 -60q32 -146 -44 -178q-14 -6 -23 -7q-193 -15 -449 52zM681 436q-150 33 -455 -213q350 36 587 134q-51 61 -132 79zM654 1128q12 17 35 10q84 -30 150 -88q17 -17 6 -37l-98 -155q-16 -21 -37 -4.5t-148 92.5
q-21 13 -7 34z" />
    <glyph glyph-name="afii57433.init" unicode="&#x639;" horiz-adv-x="978" arabic-form="initial" 
d="M867 508l-42 -165q-7 -27 -51 -45.5l-299 -120.5l-476 -207q-68 0 -90.5 100.5t79.5 142.5l121 51q-110 93 -79 223q65 276 295 384q58 27 138 -11t161 -122q43 -45 30.5 -71.5t-102.5 -1t-222.5 -4.5t-175.5 -121q-12 -25 57 -85q172 -148 499 58l76 47q112 71 81 -52z
" />
    <glyph glyph-name="afii57433.medi" unicode="&#x639;" horiz-adv-x="750" arabic-form="medial" 
d="M750 215q77 -1 90 -64q4 -21 2 -43q-20 -138 -90 -138q-211 1 -384 208q-236 -208 -369 -208q-73 0 -90.5 102.5t46.5 132.5q20 9 44 10q132 4 222 57q-39 31 -169 49q-43 6 -35 58q15 84 116 163q192 148 430 12q120 -71 101 -150q-17 -76 -141 -148q66 -39 227 -41z
" />
    <glyph glyph-name="afii57434.init" unicode="&#x63a;" horiz-adv-x="978" arabic-form="initial" 
d="M867 508l-42 -165q-7 -27 -51 -45.5l-299 -120.5l-476 -207q-68 0 -90.5 100.5t79.5 142.5l121 51q-110 93 -79 223q65 276 295 384q58 27 138 -11t161 -122q43 -45 30.5 -71.5t-102.5 -1t-222.5 -4.5t-175.5 -121q-12 -25 57 -85q172 -148 499 58l76 47q112 71 81 -52z
M254 1228q12 17 35 10q84 -30 150 -88q17 -17 6 -37l-98 -155q-16 -21 -37 -4.5t-148 92.5q-21 13 -7 34z" />
    <glyph glyph-name="afii57434.medi" unicode="&#x63a;" horiz-adv-x="750" arabic-form="medial" 
d="M750 215q77 -1 90 -64q4 -21 2 -43q-20 -138 -90 -138q-211 1 -384 208q-236 -208 -369 -208q-73 0 -90.5 102.5t46.5 132.5q20 9 44 10q132 4 222 57q-39 31 -169 49q-43 6 -35 58q15 84 116 163q192 148 430 12q120 -71 101 -150q-17 -76 -141 -148q66 -39 227 -41z
M214 1128q12 17 35 10q84 -30 150 -88q17 -17 6 -37l-98 -155q-16 -21 -37 -4.5t-148 92.5q-21 13 -7 34z" />
    <glyph glyph-name="uni063B.init" unicode="&#x63b;" horiz-adv-x="1350" 
d="M4 215q326 -44 506 124q-183 247 -390 326q-50 19 -55 171q-5 154 71 225q311 282 1056 507q53 16 39 -35l-49 -180q-12 -45 -47 -57q-793 -277 -987 -413q428 -230 428 -530q0 -310 -209 -362q-223 -55 -389 -24q-48 9 -56 71q-12 93 -7 111q22 75 89 66zM339 1600
q12 17 35 10q84 -30 150 -88q17 -17 6 -37l-98 -155q-16 -21 -35.5 -5.5t-108.5 69.5l-69 -110q-16 -21 -37 -4.5t-148 92.5q-21 13 -7 34l99 148q12 17 35 10q62 -22 114 -59z" />
    <glyph glyph-name="uni063B.medi" unicode="&#x63b;" horiz-adv-x="1206" 
d="M-86 122q0 99 112 90q317 -26 495 133q-43 149 -425 341q-40 68 -38 197q1 85 26 119q242 354 1030 693q69 30 50 -49l-42 -178q-8 -32 -43 -49q-667 -331 -918 -544q373 -162 702 -461q205 -186 344 -200q113 -12 57 -188q-18 -57 -61 -57q-170 1 -448 293
q-94 99 -163 152q-1 -78 -6 -114q-51 -344 -489 -343q-75 0 -119 10q-64 15 -64 155zM272 1624q12 17 35 10q84 -30 150 -88q17 -17 6 -37l-98 -155q-16 -21 -35.5 -5.5t-108.5 69.5l-69 -110q-16 -21 -37 -4.5t-148 92.5q-21 13 -7 34l99 148q12 17 35 10q62 -22 114 -59z
" />
    <glyph glyph-name="uni063C.init" unicode="&#x63c;" horiz-adv-x="1350" 
d="M4 215q326 -44 506 124q-183 247 -390 326q-50 19 -55 171q-5 154 71 225q311 282 1056 507q53 16 39 -35l-49 -180q-12 -45 -47 -57q-793 -277 -987 -413q428 -230 428 -530q0 -310 -209 -362q-223 -55 -389 -24q-48 9 -56 71q-12 93 -7 111q22 75 89 66zM369 -576
q-12 -16 -35 -10q-84 30 -150 88q-17 16 -6 36l98 156q16 21 37 4.5t148 -92.5q21 -14 7 -34zM226 -350q-12 -16 -35 -10q-84 30 -150 88q-17 16 -6 36l98 156q15 22 34.5 6t94.5 -62l64 102q16 21 37 4.5t148 -92.5q21 -14 7 -34l-99 -148q-24 -34 -135 40z" />
    <glyph glyph-name="uni063C.medi" unicode="&#x63c;" horiz-adv-x="1206" 
d="M-86 122q0 99 112 90q317 -26 495 133q-43 149 -425 341q-40 68 -38 197q1 85 26 119q242 354 1030 693q69 30 50 -49l-42 -178q-8 -32 -43 -49q-667 -331 -918 -544q373 -162 702 -461q205 -186 344 -200q113 -12 57 -188q-18 -57 -61 -57q-170 1 -448 293
q-94 99 -163 152q-1 -78 -6 -114q-51 -344 -489 -343q-75 0 -119 10q-64 15 -64 155zM858 -612q-12 -16 -35 -10q-84 30 -150 88q-17 16 -6 36l98 156q16 21 37 4.5t148 -92.5q21 -14 7 -34zM715 -386q-12 -16 -35 -10q-84 30 -150 88q-17 16 -6 36l98 156q15 22 34.5 6
t94.5 -62l64 102q16 21 37 4.5t148 -92.5q21 -14 7 -34l-99 -148q-24 -34 -135 40z" />
    <glyph glyph-name="uni063D.init" unicode="&#x63d;" horiz-adv-x="390" 
d="M105 436l58 127q31 68 54 27q100 -173 46.5 -396.5t-263.5 -223.5q-42 0 -59.5 68.5t-16.5 111t44 59.5q15 6 32 6q119 -3 173 47q-11 51 -49 92t-19 82zM71 812q-11 -42 -48 -41t-39 37q0 12 5 28q49 173 150 330q21 28 45 14t26 -18q48 -116 162 -267q21 -24 6 -55
l-32 -60q-9 -16 -26 -18t-35 15q-90 89 -147 217q-50 -115 -67 -182zM291 -223q12 17 35 10q84 -30 150 -88q17 -17 6 -37l-98 -155q-16 -21 -35.5 -5.5t-108.5 69.5l-69 -110q-16 -21 -37 -4.5t-148 92.5q-21 13 -7 34l99 148q12 17 35 10q62 -22 114 -59z" />
    <glyph glyph-name="uni063D.medi" unicode="&#x63d;" horiz-adv-x="500" 
d="M372 296q61 -77 128 -82q56 -5 66 -42q6 -26 -1.5 -86t-21 -87.5t-43.5 -28.5q-119 0 -222 130q-126 -130 -278 -130q-44 1 -55 55l-18 83q-7 34 15 69t58 38q243 18 299 120q17 31 39 31q30 0 31.5 -33.5t2.5 -36.5zM331 -123q12 17 35 10q84 -30 150 -88q17 -17 6 -37
l-98 -155q-16 -21 -35.5 -5.5t-108.5 69.5l-69 -110q-16 -21 -37 -4.5t-148 92.5q-21 13 -7 34l99 148q12 17 35 10q62 -22 114 -59zM146 752q-11 -42 -48 -41t-39 37q0 12 5 28q49 173 150 330q21 28 45 14t26 -18q48 -116 162 -267q21 -24 6 -55l-32 -60q-9 -16 -26 -18
t-35 15q-90 89 -147 217q-50 -115 -67 -182z" />
    <glyph glyph-name="afii57441.init" unicode="&#x641;" horiz-adv-x="605" arabic-form="initial" 
d="M158 656q-47 0 -53 -91q30 -10 78.5 -5t59.5 24q-46 72 -85 72zM209 908q62 0 103 -41q163 -165 163 -449q0 -164 -59 -242q-165 -211 -415 -206q-50 0 -66 62q-15 62 -1 120q15 60 64 63q258 18 376 128q-7 69 -16 79q-13 15 -27 -10q-39 -69 -101 -83
q-201 -48 -214 106q-15 178 52 325.5t141 147.5zM114 1278q12 17 35 10q84 -30 150 -88q17 -17 6 -37l-98 -155q-16 -21 -37 -4.5t-148 92.5q-21 13 -7 34z" />
    <glyph glyph-name="afii57441.medi" unicode="&#x641;" horiz-adv-x="775" arabic-form="medial" 
d="M579 806q23 -1 36 -8q60 -38 77 -133q28 -166 -38 -310q-24 -52 -55 -103q101 -33 177 -37q45 -2 53.5 -94t-11.5 -126q-14 -22 -40 -25q-173 -17 -427 114q-74 -34 -191.5 -73.5t-162.5 -40.5t-59.5 59.5t-1.5 119t60 66.5q100 15 188 43q-7 88 29 184q67 178 241 310
q72 54 125 54zM482 530q-109 3 -179 -93q84 -172 258 -42q0 132 -79 135zM439 1328q12 17 35 10q84 -30 150 -88q17 -17 6 -37l-98 -155q-16 -21 -37 -4.5t-148 92.5q-21 13 -7 34z" />
    <glyph glyph-name="afii57442.init" unicode="&#x642;" horiz-adv-x="605" arabic-form="initial" 
d="M158 656q-47 0 -53 -91q30 -10 78.5 -5t59.5 24q-46 72 -85 72zM209 908q62 0 103 -41q163 -165 163 -449q0 -164 -59 -242q-165 -211 -415 -206q-50 0 -66 62q-15 62 -1 120q15 60 64 63q258 18 376 128q-7 69 -16 79q-13 15 -27 -10q-39 -69 -101 -83
q-201 -48 -214 106q-15 178 52 325.5t141 147.5zM287 1324q12 17 35 10q84 -30 150 -88q17 -17 6 -37l-98 -155q-16 -21 -35.5 -5.5t-108.5 69.5l-69 -110q-16 -21 -37 -4.5t-148 92.5q-21 13 -7 34l99 148q12 17 35 10q62 -22 114 -59z" />
    <glyph glyph-name="afii57442.medi" unicode="&#x642;" horiz-adv-x="775" arabic-form="medial" 
d="M579 806q23 -1 36 -8q60 -38 77 -133q28 -166 -38 -310q-24 -52 -55 -103q101 -33 177 -37q45 -2 53.5 -94t-11.5 -126q-14 -22 -40 -25q-173 -17 -427 114q-74 -34 -191.5 -73.5t-162.5 -40.5t-59.5 59.5t-1.5 119t60 66.5q100 15 188 43q-7 88 29 184q67 178 241 310
q72 54 125 54zM482 530q-109 3 -179 -93q84 -172 258 -42q0 132 -79 135zM467 1374q12 17 35 10q84 -30 150 -88q17 -17 6 -37l-98 -155q-16 -21 -35.5 -5.5t-108.5 69.5l-69 -110q-16 -21 -37 -4.5t-148 92.5q-21 13 -7 34l99 148q12 17 35 10q62 -22 114 -59z" />
    <glyph glyph-name="afii57443.init" unicode="&#x643;" horiz-adv-x="1350" arabic-form="initial" 
d="M4 215q326 -44 506 124q-183 247 -390 326q-50 19 -55 171q-5 154 71 225q311 282 1056 507q53 16 39 -35l-49 -180q-12 -45 -47 -57q-793 -277 -987 -413q428 -230 428 -530q0 -310 -209 -362q-223 -55 -389 -24q-48 9 -56 71q-12 93 -7 111q22 75 89 66z" />
    <glyph glyph-name="afii57443.medi" unicode="&#x643;" horiz-adv-x="1206" arabic-form="medial" 
d="M-86 122q0 99 112 90q317 -26 495 133q-43 149 -425 341q-40 68 -38 197q1 85 26 119q242 354 1030 693q69 30 50 -49l-42 -178q-8 -32 -43 -49q-667 -331 -918 -544q373 -162 702 -461q205 -186 344 -200q113 -12 57 -188q-18 -57 -61 -57q-170 1 -448 293
q-94 99 -163 152q-1 -78 -6 -114q-51 -344 -489 -343q-75 0 -119 10q-64 15 -64 155z" />
    <glyph glyph-name="afii57444.init" unicode="&#x644;" horiz-adv-x="360" arabic-form="initial" 
d="M174 1174q84 -604 61 -830q-35 -341 -235 -374q-51 -8 -58 62q-5 46 -1 111.5t59 71.5q113 12 145 70q-2 49 -115 896q-12 78 -19 106q-21 51 1 94l52 102q29 57 59 -27t93 -137q42 -35 8 -79z" />
    <glyph glyph-name="afii57444.medi" unicode="&#x644;" horiz-adv-x="405" arabic-form="medial" 
d="M191 235q-43 -264 -191 -265q-38 -1 -51 43q-50 170 51 201q118 37 118 158l-35 887q-2 45 15 64l76 85q40 45 40 -51l21 -472q16 -379 32 -461q36 -184 138 -210q51 -12 56.5 -93t-17.5 -129q-11 -22 -39 -22q-139 1 -214 265z" />
    <glyph glyph-name="afii57445.init" unicode="&#x645;" horiz-adv-x="797" arabic-form="initial" 
d="M330 451q73 -71 184 -95q3 88 -58.5 117t-125.5 -22zM477 682q152 -2 210 -377q5 -34 -13 -57l-101 -131q-27 -35 -72 -25q-163 40 -272 147q-85 -266 -229 -269q-40 -1 -58.5 58.5t-19.5 109t43 69.5q16 7 34 8q111 5 186 114q23 33 122 210q80 144 170 143z" />
    <glyph glyph-name="afii57445.medi" unicode="&#x645;" horiz-adv-x="950" arabic-form="medial" 
d="M448 360q-3 6 -14 4q-63 -16 -88 -51q-9 -13 2 -23q73 -61 176 -93q28 -8 13 11q-44 56 -89 152zM446 539q34 13 54 -15q73 -107 188.5 -201t261.5 -108q66 -7 70 -81q-1 -102 -21 -132.5t-49 -31.5q-131 1 -263 80q-8 -67 -17 -80q-31 -44 -73 -43q-228 18 -387 193
q-104 -145 -210 -150q-45 -1 -59 55q-27 107 6 156q25 31 53 34q175 6 209 80q97 193 237 244z" />
    <glyph glyph-name="afii57446.init" unicode="&#x646;" horiz-adv-x="390" arabic-form="initial" 
d="M105 436l58 127q31 68 54 27q100 -173 46.5 -396.5t-263.5 -223.5q-42 0 -59.5 68.5t-16.5 111t44 59.5q15 6 32 6q119 -3 173 47q-11 51 -49 92t-19 82zM129 1028q12 17 35 10q84 -30 150 -88q17 -17 6 -37l-98 -155q-16 -21 -37 -4.5t-148 92.5q-21 13 -7 34z" />
    <glyph glyph-name="afii57446.medi" unicode="&#x646;" horiz-adv-x="500" arabic-form="medial" 
d="M372 296q61 -77 128 -82q56 -5 66 -42q6 -26 -1.5 -86t-21 -87.5t-43.5 -28.5q-119 0 -222 130q-126 -130 -278 -130q-44 1 -55 55l-18 83q-7 34 15 69t58 38q243 18 299 120q17 31 39 31q30 0 31.5 -33.5t2.5 -36.5zM204 998q12 17 35 10q84 -30 150 -88q17 -17 6 -37
l-98 -155q-16 -21 -37 -4.5t-148 92.5q-21 13 -7 34z" />
    <glyph glyph-name="afii57470.init" unicode="&#x647;" horiz-adv-x="926" arabic-form="initial" 
d="M493 475q7 -77 -74 -150q188 -72 293 -74q19 0 10 24q-30 93 -229 200zM332 360q68 34 68 45q-10 118 -64 128q-82 17 -143 -61q-20 -25 15 -48q56 -38 124 -64zM278 161q-173 -190 -278 -191q-40 0 -60 48q-72 182 60 198q86 10 126 32q-61 48 -28.5 148t120.5 199
q-12 6 -36 9t-31 25.5t-4 37.5q53 203 156.5 202.5t301 -188.5t218.5 -306q25 -152 -71 -262q-56 -65 -133 -57q-153 17 -341 105z" />
    <glyph glyph-name="afii57470.medi" unicode="&#x647;" horiz-adv-x="800" arabic-form="medial" 
d="M593 745q60 -27 66 -111q18 -281 -152 -469q114 7 293 49q42 8 56 -39q24 -83 -1 -151q-25 -44 -55 -53q-76 -17 -137 -19q30 -81 20.5 -188t-63 -185.5t-138.5 -79.5q-224 -1 -276 417l-79 11l1 76q-77 -33 -130.5 -33t-73.5 95q-5 26 -11 75t50 68q17 5 36 7
q95 5 239 53q68 214 219 391q58 66 83.5 81.5t52.5 4.5zM538 436q-30 50 -76 34q-94 -35 -152 -180q178 76 228 146zM305 -88q44 -121 131.5 -157.5t161.5 9.5q-72 126 -293 148z" />
    <glyph glyph-name="afii57449.init" unicode="&#x649;" horiz-adv-x="390" 
d="M105 436l58 127q31 68 54 27q100 -173 46.5 -396.5t-263.5 -223.5q-42 0 -59.5 68.5t-16.5 111t44 59.5q15 6 32 6q119 -3 173 47q-11 51 -49 92t-19 82z" />
    <glyph glyph-name="afii57449.medi" unicode="&#x649;" horiz-adv-x="500" 
d="M372 296q61 -77 128 -82q56 -5 66 -42q6 -26 -1.5 -86t-21 -87.5t-43.5 -28.5q-119 0 -222 130q-126 -130 -278 -130q-44 1 -55 55l-18 83q-7 34 15 69t58 38q243 18 299 120q17 31 39 31q30 0 31.5 -33.5t2.5 -36.5z" />
    <glyph glyph-name="afii57450.init" unicode="&#x64a;" horiz-adv-x="390" arabic-form="initial" 
d="M105 436l58 127q31 68 54 27q100 -173 46.5 -396.5t-263.5 -223.5q-42 0 -59.5 68.5t-16.5 111t44 59.5q15 6 32 6q119 -3 173 47q-11 51 -49 92t-19 82zM291 -223q12 17 35 10q84 -30 150 -88q17 -17 6 -37l-98 -155q-16 -21 -35.5 -5.5t-108.5 69.5l-69 -110
q-16 -21 -37 -4.5t-148 92.5q-21 13 -7 34l99 148q12 17 35 10q62 -22 114 -59z" />
    <glyph glyph-name="afii57450.medi" unicode="&#x64a;" horiz-adv-x="500" arabic-form="medial" 
d="M372 296q61 -77 128 -82q56 -5 66 -42q6 -26 -1.5 -86t-21 -87.5t-43.5 -28.5q-119 0 -222 130q-126 -130 -278 -130q-44 1 -55 55l-18 83q-7 34 15 69t58 38q243 18 299 120q17 31 39 31q30 0 31.5 -33.5t2.5 -36.5zM331 -123q12 17 35 10q84 -30 150 -88q17 -17 6 -37
l-98 -155q-16 -21 -35.5 -5.5t-108.5 69.5l-69 -110q-16 -21 -37 -4.5t-148 92.5q-21 13 -7 34l99 148q12 17 35 10q62 -22 114 -59z" />
    <glyph glyph-name="uni066E.init" unicode="&#x66e;" horiz-adv-x="390" 
d="M105 436l58 127q31 68 54 27q100 -173 46.5 -396.5t-263.5 -223.5q-42 0 -59.5 68.5t-16.5 111t44 59.5q15 6 32 6q119 -3 173 47q-11 51 -49 92t-19 82z" />
    <glyph glyph-name="uni066E.medi" unicode="&#x66e;" horiz-adv-x="500" 
d="M372 296q61 -77 128 -82q56 -5 66 -42q6 -26 -1.5 -86t-21 -87.5t-43.5 -28.5q-119 0 -222 130q-126 -130 -278 -130q-44 1 -55 55l-18 83q-7 34 15 69t58 38q243 18 299 120q17 31 39 31q30 0 31.5 -33.5t2.5 -36.5z" />
    <glyph glyph-name="uni066F.init" unicode="&#x66f;" horiz-adv-x="605" 
d="M158 656q-47 0 -53 -91q30 -10 78.5 -5t59.5 24q-46 72 -85 72zM209 908q62 0 103 -41q163 -165 163 -449q0 -164 -59 -242q-165 -211 -415 -206q-50 0 -66 62q-15 62 -1 120q15 60 64 63q258 18 376 128q-7 69 -16 79q-13 15 -27 -10q-39 -69 -101 -83
q-201 -48 -214 106q-15 178 52 325.5t141 147.5z" />
    <glyph glyph-name="uni066F.medi" unicode="&#x66f;" horiz-adv-x="775" 
d="M579 806q23 -1 36 -8q60 -38 77 -133q28 -166 -38 -310q-24 -52 -55 -103q101 -33 177 -37q45 -2 53.5 -94t-11.5 -126q-14 -22 -40 -25q-173 -17 -427 114q-74 -34 -191.5 -73.5t-162.5 -40.5t-59.5 59.5t-1.5 119t60 66.5q100 15 188 43q-7 88 29 184q67 178 241 310
q72 54 125 54zM482 530q-109 3 -179 -93q84 -172 258 -42q0 132 -79 135z" />
    <glyph glyph-name="uni0678.init" unicode="&#x678;" horiz-adv-x="390" 
d="M105 436l58 127q31 68 54 27q100 -173 46.5 -396.5t-263.5 -223.5q-42 0 -59.5 68.5t-16.5 111t44 59.5q15 6 32 6q119 -3 173 47q-11 51 -49 92t-19 82zM579 819q-110 -22 -156 -36.5t-171 -69.5q-38 -14 -57 13q-29 46 63 109q-61 38 -71 84q-16 90 73.5 213t194.5 115
q77 -6 69.5 -80.5t-29.5 -105t-32 -37.5q-30 -20 -51 10.5t-53.5 33.5t-48 -15t0.5 -34q65 -60 189 -64q20 0 61.5 10t63 9t33.5 -20q11 -20 4 -37q-43 -89 -83 -98z" />
    <glyph glyph-name="uni0678.medi" unicode="&#x678;" horiz-adv-x="500" 
d="M372 296q61 -77 128 -82q56 -5 66 -42q6 -26 -1.5 -86t-21 -87.5t-43.5 -28.5q-119 0 -222 130q-126 -130 -278 -130q-44 1 -55 55l-18 83q-7 34 15 69t58 38q243 18 299 120q17 31 39 31q30 0 31.5 -33.5t2.5 -36.5zM504 759q-110 -22 -156 -36.5t-171 -69.5
q-38 -14 -57 13q-29 46 63 109q-61 38 -71 84q-16 90 73.5 213t194.5 115q77 -6 69.5 -80.5t-29.5 -105t-32 -37.5q-30 -20 -51 10.5t-53.5 33.5t-48 -15t0.5 -34q65 -60 189 -64q20 0 61.5 10t63 9t33.5 -20q11 -20 4 -37q-43 -89 -83 -98z" />
    <glyph glyph-name="afii57511.init" unicode="&#x679;" horiz-adv-x="390" arabic-form="initial" 
d="M105 436l58 127q31 68 54 27q100 -173 46.5 -396.5t-263.5 -223.5q-42 0 -59.5 68.5t-16.5 111t44 59.5q15 6 32 6q119 -3 173 47q-11 51 -49 92t-19 82zM101 1330q34 16 42 -36q34 -247 26 -373q49 48 106 90q58 42 110 22t77 -82t-55 -164q-19 -24 -137 -60t-242 -42
h-4q-57 10 -101 49t-43 63q4 17 25 16q72 -7 146 -2l46 46q6 144 -34 391q-1 11 11.5 42.5t26.5 39.5zM277 912q-30 -12 -113 -87q103 21 201 67q-30 41 -88 20z" />
    <glyph glyph-name="afii57511.medi" unicode="&#x679;" horiz-adv-x="500" arabic-form="medial" 
d="M372 296q61 -77 128 -82q56 -5 66 -42q6 -26 -1.5 -86t-21 -87.5t-43.5 -28.5q-119 0 -222 130q-126 -130 -278 -130q-44 1 -55 55l-18 83q-7 34 15 69t58 38q243 18 299 120q17 31 39 31q30 0 31.5 -33.5t2.5 -36.5zM176 1300q34 16 42 -36q34 -247 26 -373
q49 48 106 90q58 42 110 22t77 -82t-55 -164q-19 -24 -137 -60t-242 -42h-4q-57 10 -101 49t-43 63q4 17 25 16q72 -7 146 -2l46 46q6 144 -34 391q-1 11 11.5 42.5t26.5 39.5zM352 882q-30 -12 -113 -87q103 21 201 67q-30 41 -88 20z" />
    <glyph glyph-name="uni067A.init" unicode="&#x67a;" horiz-adv-x="390" arabic-form="initial" 
d="M105 436l58 127q31 68 54 27q100 -173 46.5 -396.5t-263.5 -223.5q-42 0 -59.5 68.5t-16.5 111t44 59.5q15 6 32 6q119 -3 173 47q-11 51 -49 92t-19 82zM89 1218q12 17 35 10q84 -30 150 -88q17 -17 6 -37l-57 -91q49 -26 91 -62q17 -17 6 -37l-98 -155
q-16 -21 -37 -4.5t-148 92.5q-21 13 -7 34l65 97l-98 59q-21 13 -7 34z" />
    <glyph glyph-name="uni067A.medi" unicode="&#x67a;" horiz-adv-x="500" arabic-form="medial" 
d="M372 296q61 -77 128 -82q56 -5 66 -42q6 -26 -1.5 -86t-21 -87.5t-43.5 -28.5q-119 0 -222 130q-126 -130 -278 -130q-44 1 -55 55l-18 83q-7 34 15 69t58 38q243 18 299 120q17 31 39 31q30 0 31.5 -33.5t2.5 -36.5zM164 1188q12 17 35 10q84 -30 150 -88q17 -17 6 -37
l-57 -91q49 -26 91 -62q17 -17 6 -37l-98 -155q-16 -21 -37 -4.5t-148 92.5q-21 13 -7 34l65 97l-98 59q-21 13 -7 34z" />
    <glyph glyph-name="uni067B.init" unicode="&#x67b;" horiz-adv-x="390" arabic-form="initial" 
d="M105 436l58 127q31 68 54 27q100 -173 46.5 -396.5t-263.5 -223.5q-42 0 -59.5 68.5t-16.5 111t44 59.5q15 6 32 6q119 -3 173 47q-11 51 -49 92t-19 82zM124 -222q12 17 35 10q84 -30 150 -88q17 -17 6 -37l-57 -91q49 -26 91 -62q17 -17 6 -37l-98 -155
q-16 -21 -37 -4.5t-148 92.5q-21 13 -7 34l65 97l-98 59q-21 13 -7 34z" />
    <glyph glyph-name="uni067B.medi" unicode="&#x67b;" horiz-adv-x="500" arabic-form="medial" 
d="M372 296q61 -77 128 -82q56 -5 66 -42q6 -26 -1.5 -86t-21 -87.5t-43.5 -28.5q-119 0 -222 130q-126 -130 -278 -130q-44 1 -55 55l-18 83q-7 34 15 69t58 38q243 18 299 120q17 31 39 31q30 0 31.5 -33.5t2.5 -36.5zM214 -222q12 17 35 10q84 -30 150 -88q17 -17 6 -37
l-57 -91q49 -26 91 -62q17 -17 6 -37l-98 -155q-16 -21 -37 -4.5t-148 92.5q-21 13 -7 34l65 97l-98 59q-21 13 -7 34z" />
    <glyph glyph-name="uni067C.init" unicode="&#x67c;" horiz-adv-x="390" 
d="M105 436l58 127q31 68 54 27q100 -173 46.5 -396.5t-263.5 -223.5q-42 0 -59.5 68.5t-16.5 111t44 59.5q15 6 32 6q119 -3 173 47q-11 51 -49 92t-19 82zM227 974q12 17 35 10q84 -30 150 -88q17 -17 6 -37l-98 -155q-16 -21 -35.5 -5.5t-108.5 69.5l-69 -110
q-16 -21 -37 -4.5t-148 92.5q-21 13 -7 34l99 148q12 17 35 10q62 -22 114 -59zM187 -217q-130 12 -115 162t90 207t160 -16q58 -51 60 -141t-15 -125q-49 -98 -180 -87zM322 -67q-28 122 -102 125q-46 2 -68.5 -30t-15.5 -77.5t73.5 -51.5t104.5 22q8 6 8 12z" />
    <glyph glyph-name="uni067C.medi" unicode="&#x67c;" horiz-adv-x="500" 
d="M372 296q61 -77 128 -82q56 -5 66 -42q6 -26 -1.5 -86t-21 -87.5t-43.5 -28.5q-119 0 -222 130q-126 -130 -278 -130q-44 1 -55 55l-18 83q-7 34 15 69t58 38q243 18 299 120q17 31 39 31q30 0 31.5 -33.5t2.5 -36.5zM287 914q12 17 35 10q84 -30 150 -88q17 -17 6 -37
l-98 -155q-16 -21 -35.5 -5.5t-108.5 69.5l-69 -110q-16 -21 -37 -4.5t-148 92.5q-21 13 -7 34l99 148q12 17 35 10q62 -22 114 -59zM217 -247q-130 12 -115 162t90 207t160 -16q58 -51 60 -141t-15 -125q-49 -98 -180 -87zM352 -97q-28 122 -102 125q-46 2 -68.5 -30
t-15.5 -77.5t73.5 -51.5t104.5 22q8 6 8 12z" />
    <glyph glyph-name="uni067D.init" unicode="&#x67d;" horiz-adv-x="390" 
d="M105 436l58 127q31 68 54 27q100 -173 46.5 -396.5t-263.5 -223.5q-42 0 -59.5 68.5t-16.5 111t44 59.5q15 6 32 6q119 -3 173 47q-11 51 -49 92t-19 82zM265 638q-12 -16 -35 -10q-84 30 -150 88q-17 16 -6 36l98 156q16 21 37 4.5t148 -92.5q21 -14 7 -34zM122 864
q-12 -16 -35 -10q-84 30 -150 88q-17 16 -6 36l98 156q15 22 34.5 6t94.5 -62l64 102q16 21 37 4.5t148 -92.5q21 -14 7 -34l-99 -148q-24 -34 -135 40z" />
    <glyph glyph-name="uni067D.medi" unicode="&#x67d;" horiz-adv-x="500" 
d="M372 296q61 -77 128 -82q56 -5 66 -42q6 -26 -1.5 -86t-21 -87.5t-43.5 -28.5q-119 0 -222 130q-126 -130 -278 -130q-44 1 -55 55l-18 83q-7 34 15 69t58 38q243 18 299 120q17 31 39 31q30 0 31.5 -33.5t2.5 -36.5zM325 578q-12 -16 -35 -10q-84 30 -150 88
q-17 16 -6 36l98 156q16 21 37 4.5t148 -92.5q21 -14 7 -34zM182 804q-12 -16 -35 -10q-84 30 -150 88q-17 16 -6 36l98 156q15 22 34.5 6t94.5 -62l64 102q16 21 37 4.5t148 -92.5q21 -14 7 -34l-99 -148q-24 -34 -135 40z" />
    <glyph glyph-name="afii57506.init" unicode="&#x67e;" horiz-adv-x="390" arabic-form="initial" 
d="M105 436l58 127q31 68 54 27q100 -173 46.5 -396.5t-263.5 -223.5q-42 0 -59.5 68.5t-16.5 111t44 59.5q15 6 32 6q119 -3 173 47q-11 51 -49 92t-19 82zM329 -762q-12 -16 -35 -10q-84 30 -150 88q-17 16 -6 36l98 156q16 21 37 4.5t148 -92.5q21 -14 7 -34zM186 -536
q-12 -16 -35 -10q-84 30 -150 88q-17 16 -6 36l98 156q15 22 34.5 6t94.5 -62l64 102q16 21 37 4.5t148 -92.5q21 -14 7 -34l-99 -148q-24 -34 -135 40z" />
    <glyph glyph-name="afii57506.medi" unicode="&#x67e;" horiz-adv-x="500" arabic-form="medial" 
d="M372 296q61 -77 128 -82q56 -5 66 -42q6 -26 -1.5 -86t-21 -87.5t-43.5 -28.5q-119 0 -222 130q-126 -130 -278 -130q-44 1 -55 55l-18 83q-7 34 15 69t58 38q243 18 299 120q17 31 39 31q30 0 31.5 -33.5t2.5 -36.5zM369 -662q-12 -16 -35 -10q-84 30 -150 88
q-17 16 -6 36l98 156q16 21 37 4.5t148 -92.5q21 -14 7 -34zM226 -436q-12 -16 -35 -10q-84 30 -150 88q-17 16 -6 36l98 156q15 22 34.5 6t94.5 -62l64 102q16 21 37 4.5t148 -92.5q21 -14 7 -34l-99 -148q-24 -34 -135 40z" />
    <glyph glyph-name="uni067F.init" unicode="&#x67f;" horiz-adv-x="390" arabic-form="initial" 
d="M105 436l58 127q31 68 54 27q100 -173 46.5 -396.5t-263.5 -223.5q-42 0 -59.5 68.5t-16.5 111t44 59.5q15 6 32 6q119 -3 173 47q-11 51 -49 92t-19 82zM197 1214q12 17 35 10q84 -30 150 -88q17 -17 6 -37l-84 -132q59 -28 108 -71q17 -17 6 -37l-98 -155
q-16 -21 -35.5 -5.5t-108.5 69.5l-69 -110q-16 -21 -37 -4.5t-148 92.5q-21 13 -7 34l91 136l-114 70q-21 13 -7 34l99 148q12 17 35 10q62 -22 114 -59zM91 921q38 -18 72 -42l56 84q-27 18 -73 45z" />
    <glyph glyph-name="uni067F.medi" unicode="&#x67f;" horiz-adv-x="500" arabic-form="medial" 
d="M372 296q61 -77 128 -82q56 -5 66 -42q6 -26 -1.5 -86t-21 -87.5t-43.5 -28.5q-119 0 -222 130q-126 -130 -278 -130q-44 1 -55 55l-18 83q-7 34 15 69t58 38q243 18 299 120q17 31 39 31q30 0 31.5 -33.5t2.5 -36.5zM257 1154q12 17 35 10q84 -30 150 -88q17 -17 6 -37
l-84 -132q59 -28 108 -71q17 -17 6 -37l-98 -155q-16 -21 -35.5 -5.5t-108.5 69.5l-69 -110q-16 -21 -37 -4.5t-148 92.5q-21 13 -7 34l91 136l-114 70q-21 13 -7 34l99 148q12 17 35 10q62 -22 114 -59zM151 861q38 -18 72 -42l56 84q-27 18 -73 45z" />
    <glyph glyph-name="uni0680.init" unicode="&#x680;" horiz-adv-x="390" arabic-form="initial" 
d="M105 436l58 127q31 68 54 27q100 -173 46.5 -396.5t-263.5 -223.5q-42 0 -59.5 68.5t-16.5 111t44 59.5q15 6 32 6q119 -3 173 47q-11 51 -49 92t-19 82zM287 -176q12 17 35 10q84 -30 150 -88q17 -17 6 -37l-84 -132q59 -28 108 -71q17 -17 6 -37l-98 -155
q-16 -21 -35.5 -5.5t-108.5 69.5l-69 -110q-16 -21 -37 -4.5t-148 92.5q-21 13 -7 34l91 136l-114 70q-21 13 -7 34l99 148q12 17 35 10q62 -22 114 -59zM181 -469q38 -18 72 -42l56 84q-27 18 -73 45z" />
    <glyph glyph-name="uni0680.medi" unicode="&#x680;" horiz-adv-x="500" arabic-form="medial" 
d="M372 296q61 -77 128 -82q56 -5 66 -42q6 -26 -1.5 -86t-21 -87.5t-43.5 -28.5q-119 0 -222 130q-126 -130 -278 -130q-44 1 -55 55l-18 83q-7 34 15 69t58 38q243 18 299 120q17 31 39 31q30 0 31.5 -33.5t2.5 -36.5zM327 -76q12 17 35 10q84 -30 150 -88q17 -17 6 -37
l-84 -132q59 -28 108 -71q17 -17 6 -37l-98 -155q-16 -21 -35.5 -5.5t-108.5 69.5l-69 -110q-16 -21 -37 -4.5t-148 92.5q-21 13 -7 34l91 136l-114 70q-21 13 -7 34l99 148q12 17 35 10q62 -22 114 -59zM221 -369q38 -18 72 -42l56 84q-27 18 -73 45z" />
    <glyph glyph-name="uni0681.init" unicode="&#x681;" horiz-adv-x="1343" 
d="M13 455q19 72 93 143t146 72t337 -109.5t588 -96.5q60 3 22 -80l-57 -126q-17 -38 -42 -35q-236 39 -442.5 -25.5t-370.5 -146t-287 -81.5q-33 1 -49 39q-27 73 -12 129t31 65.5t27 11.5q316 19 530 119q-293 131 -473 75q-57 -20 -41 46zM764 969q-110 -22 -156 -36.5
t-171 -69.5q-38 -14 -57 13q-29 46 63 109q-61 38 -71 84q-16 90 73.5 213t194.5 115q77 -6 69.5 -80.5t-29.5 -105t-32 -37.5q-30 -20 -51 10.5t-53.5 33.5t-48 -15t0.5 -34q65 -60 189 -64q20 0 61.5 10t63 9t33.5 -20q11 -20 4 -37q-43 -89 -83 -98z" />
    <glyph glyph-name="uni0681.medi" unicode="&#x681;" horiz-adv-x="1250" 
d="M25 454q54 222 268 222q97 0 300 -97q97 -46 265 -72t327 -8q71 9 55 -45l-46 -151q-11 -36 -57 -32q-82 7 -142 9q-29 -76 256 -69q120 3 67 -174q-20 -61 -64 -67q-169 -21 -270 16q-142 52 -76 288q-166 -15 -311 -69t-328.5 -145.5t-268.5 -89.5q-48 1 -69.5 54.5
t-7.5 116.5t73 74q172 31 296.5 82t200.5 72q-288 95 -402 37q-39 -20 -59 -12t-7 60zM804 969q-110 -22 -156 -36.5t-171 -69.5q-38 -14 -57 13q-29 46 63 109q-61 38 -71 84q-16 90 73.5 213t194.5 115q77 -6 69.5 -80.5t-29.5 -105t-32 -37.5q-30 -20 -51 10.5
t-53.5 33.5t-48 -15t0.5 -34q65 -60 189 -64q20 0 61.5 10t63 9t33.5 -20q11 -20 4 -37q-43 -89 -83 -98z" />
    <glyph glyph-name="uni0682.init" unicode="&#x682;" horiz-adv-x="1343" 
d="M13 455q19 72 93 143t146 72t337 -109.5t588 -96.5q60 3 22 -80l-57 -126q-17 -38 -42 -35q-236 39 -442.5 -25.5t-370.5 -146t-287 -81.5q-33 1 -49 39q-27 73 -12 129t31 65.5t27 11.5q316 19 530 119q-293 131 -473 75q-57 -20 -41 46zM524 1268q12 17 35 10
q84 -30 150 -88q17 -17 6 -37l-57 -91q49 -26 91 -62q17 -17 6 -37l-98 -155q-16 -21 -37 -4.5t-148 92.5q-21 13 -7 34l65 97l-98 59q-21 13 -7 34z" />
    <glyph glyph-name="uni0682.medi" unicode="&#x682;" horiz-adv-x="1250" 
d="M25 454q54 222 268 222q97 0 300 -97q97 -46 265 -72t327 -8q71 9 55 -45l-46 -151q-11 -36 -57 -32q-82 7 -142 9q-29 -76 256 -69q120 3 67 -174q-20 -61 -64 -67q-169 -21 -270 16q-142 52 -76 288q-166 -15 -311 -69t-328.5 -145.5t-268.5 -89.5q-48 1 -69.5 54.5
t-7.5 116.5t73 74q172 31 296.5 82t200.5 72q-288 95 -402 37q-39 -20 -59 -12t-7 60zM564 1268q12 17 35 10q84 -30 150 -88q17 -17 6 -37l-57 -91q49 -26 91 -62q17 -17 6 -37l-98 -155q-16 -21 -37 -4.5t-148 92.5q-21 13 -7 34l65 97l-98 59q-21 13 -7 34z" />
    <glyph glyph-name="uni0683.init" unicode="&#x683;" horiz-adv-x="1343" arabic-form="initial" 
d="M13 455q19 72 93 143t146 72t337 -109.5t588 -96.5q60 3 22 -80l-57 -126q-17 -38 -42 -35q-236 39 -442.5 -25.5t-370.5 -146t-287 -81.5q-33 1 -49 39q-27 73 -12 129t31 65.5t27 11.5q316 19 530 119q-293 131 -473 75q-57 -20 -41 46zM670 -75q12 17 35 10
q84 -30 150 -88q17 -17 6 -37l-98 -155q-16 -21 -35.5 -5.5t-108.5 69.5l-69 -110q-16 -21 -37 -4.5t-148 92.5q-21 13 -7 34l99 148q12 17 35 10q62 -22 114 -59z" />
    <glyph glyph-name="uni0683.medi" unicode="&#x683;" horiz-adv-x="1250" arabic-form="medial" 
d="M25 454q54 222 268 222q97 0 300 -97q97 -46 265 -72t327 -8q71 9 55 -45l-46 -151q-11 -36 -57 -32q-82 7 -142 9q-29 -76 256 -69q120 3 67 -174q-20 -61 -64 -67q-169 -21 -270 16q-142 52 -76 288q-166 -15 -311 -69t-328.5 -145.5t-268.5 -89.5q-48 1 -69.5 54.5
t-7.5 116.5t73 74q172 31 296.5 82t200.5 72q-288 95 -402 37q-39 -20 -59 -12t-7 60zM660 -63q12 17 35 10q84 -30 150 -88q17 -17 6 -37l-98 -155q-16 -21 -35.5 -5.5t-108.5 69.5l-69 -110q-16 -21 -37 -4.5t-148 92.5q-21 13 -7 34l99 148q12 17 35 10q62 -22 114 -59z
" />
    <glyph glyph-name="uni0684.init" unicode="&#x684;" horiz-adv-x="1343" arabic-form="initial" 
d="M13 455q19 72 93 143t146 72t337 -109.5t588 -96.5q60 3 22 -80l-57 -126q-17 -38 -42 -35q-236 39 -442.5 -25.5t-370.5 -146t-287 -81.5q-33 1 -49 39q-27 73 -12 129t31 65.5t27 11.5q316 19 530 119q-293 131 -473 75q-57 -20 -41 46zM564 -74q12 17 35 10
q84 -30 150 -88q17 -17 6 -37l-57 -91q49 -26 91 -62q17 -17 6 -37l-98 -155q-16 -21 -37 -4.5t-148 92.5q-21 13 -7 34l65 97l-98 59q-21 13 -7 34z" />
    <glyph glyph-name="uni0684.medi" unicode="&#x684;" horiz-adv-x="1250" arabic-form="medial" 
d="M25 454q54 222 268 222q97 0 300 -97q97 -46 265 -72t327 -8q71 9 55 -45l-46 -151q-11 -36 -57 -32q-82 7 -142 9q-29 -76 256 -69q120 3 67 -174q-20 -61 -64 -67q-169 -21 -270 16q-142 52 -76 288q-166 -15 -311 -69t-328.5 -145.5t-268.5 -89.5q-48 1 -69.5 54.5
t-7.5 116.5t73 74q172 31 296.5 82t200.5 72q-288 95 -402 37q-39 -20 -59 -12t-7 60zM554 -62q12 17 35 10q84 -30 150 -88q17 -17 6 -37l-57 -91q49 -26 91 -62q17 -17 6 -37l-98 -155q-16 -21 -37 -4.5t-148 92.5q-21 13 -7 34l65 97l-98 59q-21 13 -7 34z" />
    <glyph glyph-name="uni0685.init" unicode="&#x685;" horiz-adv-x="1343" 
d="M13 455q19 72 93 143t146 72t337 -109.5t588 -96.5q60 3 22 -80l-57 -126q-17 -38 -42 -35q-236 39 -442.5 -25.5t-370.5 -146t-287 -81.5q-33 1 -49 39q-27 73 -12 129t31 65.5t27 11.5q316 19 530 119q-293 131 -473 75q-57 -20 -41 46zM514 1353q12 17 35 10
q84 -30 150 -88q17 -17 6 -37l-98 -155q-16 -21 -37 -4.5t-148 92.5q-21 13 -7 33zM659 1124q12 17 35 10q84 -30 150 -88q17 -17 6 -37l-98 -155q-15 -22 -34.5 -6.5t-94.5 61.5l-64 -102q-16 -21 -37 -4.5t-148 92.5q-21 13 -7 34l99 148q24 34 135 -39z" />
    <glyph glyph-name="uni0685.medi" unicode="&#x685;" horiz-adv-x="1250" 
d="M25 454q54 222 268 222q97 0 300 -97q97 -46 265 -72t327 -8q71 9 55 -45l-46 -151q-11 -36 -57 -32q-82 7 -142 9q-29 -76 256 -69q120 3 67 -174q-20 -61 -64 -67q-169 -21 -270 16q-142 52 -76 288q-166 -15 -311 -69t-328.5 -145.5t-268.5 -89.5q-48 1 -69.5 54.5
t-7.5 116.5t73 74q172 31 296.5 82t200.5 72q-288 95 -402 37q-39 -20 -59 -12t-7 60zM564 1353q12 17 35 10q84 -30 150 -88q17 -17 6 -37l-98 -155q-16 -21 -37 -4.5t-148 92.5q-21 13 -7 33zM709 1124q12 17 35 10q84 -30 150 -88q17 -17 6 -37l-98 -155
q-15 -22 -34.5 -6.5t-94.5 61.5l-64 -102q-16 -21 -37 -4.5t-148 92.5q-21 13 -7 34l99 148q24 34 135 -39z" />
    <glyph glyph-name="afii57507.init" unicode="&#x686;" horiz-adv-x="1343" arabic-form="initial" 
d="M13 455q19 72 93 143t146 72t337 -109.5t588 -96.5q60 3 22 -80l-57 -126q-17 -38 -42 -35q-236 39 -442.5 -25.5t-370.5 -146t-287 -81.5q-33 1 -49 39q-27 73 -12 129t31 65.5t27 11.5q316 19 530 119q-293 131 -473 75q-57 -20 -41 46zM708 -614q-12 -16 -35 -10
q-84 30 -150 88q-17 16 -6 36l98 156q16 21 37 4.5t148 -92.5q21 -14 7 -34zM565 -388q-12 -16 -35 -10q-84 30 -150 88q-17 16 -6 36l98 156q15 22 34.5 6t94.5 -62l64 102q16 21 37 4.5t148 -92.5q21 -14 7 -34l-99 -148q-24 -34 -135 40z" />
    <glyph glyph-name="afii57507.medi" unicode="&#x686;" horiz-adv-x="1250" arabic-form="medial" 
d="M25 454q54 222 268 222q97 0 300 -97q97 -46 265 -72t327 -8q71 9 55 -45l-46 -151q-11 -36 -57 -32q-82 7 -142 9q-29 -76 256 -69q120 3 67 -174q-20 -61 -64 -67q-169 -21 -270 16q-142 52 -76 288q-166 -15 -311 -69t-328.5 -145.5t-268.5 -89.5q-48 1 -69.5 54.5
t-7.5 116.5t73 74q172 31 296.5 82t200.5 72q-288 95 -402 37q-39 -20 -59 -12t-7 60zM698 -602q-12 -16 -35 -10q-84 30 -150 88q-17 16 -6 36l98 156q16 21 37 4.5t148 -92.5q21 -14 7 -34zM555 -376q-12 -16 -35 -10q-84 30 -150 88q-17 16 -6 36l98 156q15 22 34.5 6
t94.5 -62l64 102q16 21 37 4.5t148 -92.5q21 -14 7 -34l-99 -148q-24 -34 -135 40z" />
    <glyph glyph-name="uni0687.init" unicode="&#x687;" horiz-adv-x="1343" arabic-form="initial" 
d="M13 455q19 72 93 143t146 72t337 -109.5t588 -96.5q60 3 22 -80l-57 -126q-17 -38 -42 -35q-236 39 -442.5 -25.5t-370.5 -146t-287 -81.5q-33 1 -49 39q-27 73 -12 129t31 65.5t27 11.5q316 19 530 119q-293 131 -473 75q-57 -20 -41 46zM666 -28q12 17 35 10
q84 -30 150 -88q17 -17 6 -37l-84 -132q59 -28 108 -71q17 -17 6 -37l-98 -155q-16 -21 -35.5 -5.5t-108.5 69.5l-69 -110q-16 -21 -37 -4.5t-148 92.5q-21 13 -7 34l91 136l-114 70q-21 13 -7 34l99 148q12 17 35 10q62 -22 114 -59zM560 -321q38 -18 72 -42l56 84
q-27 18 -73 45z" />
    <glyph glyph-name="uni0687.medi" unicode="&#x687;" horiz-adv-x="1250" arabic-form="medial" 
d="M25 454q54 222 268 222q97 0 300 -97q97 -46 265 -72t327 -8q71 9 55 -45l-46 -151q-11 -36 -57 -32q-82 7 -142 9q-29 -76 256 -69q120 3 67 -174q-20 -61 -64 -67q-169 -21 -270 16q-142 52 -76 288q-166 -15 -311 -69t-328.5 -145.5t-268.5 -89.5q-48 1 -69.5 54.5
t-7.5 116.5t73 74q172 31 296.5 82t200.5 72q-288 95 -402 37q-39 -20 -59 -12t-7 60zM656 -16q12 17 35 10q84 -30 150 -88q17 -17 6 -37l-84 -132q59 -28 108 -71q17 -17 6 -37l-98 -155q-16 -21 -35.5 -5.5t-108.5 69.5l-69 -110q-16 -21 -37 -4.5t-148 92.5
q-21 13 -7 34l91 136l-114 70q-21 13 -7 34l99 148q12 17 35 10q62 -22 114 -59zM550 -309q38 -18 72 -42l56 84q-27 18 -73 45z" />
    <glyph glyph-name="uni069A.init" unicode="&#x69a;" horiz-adv-x="1164" 
d="M322 424q64 -1 9 -108q57 -45 143 -46q137 -2 228 252q14 39 44 28.5t24 -47.5l-18 -71q38 -31 100 -51t100 -19q-15 61 -32 92t5 67l63 103q33 35 51 -50q29 -142 -2 -274t-104 -178q-8 -5 -29 -6q-142 -5 -246 83q-76 -148 -204 -182.5t-257 100.5q-123 -146 -197 -147
q-43 0 -58 67q-8 38 -11 68q-10 102 66 110q203 21 291 180q16 29 34 29zM604 1028q12 17 35 10q84 -30 150 -88q17 -17 6 -37l-98 -155q-16 -21 -37 -4.5t-148 92.5q-21 13 -7 34zM604 -72q12 17 35 10q84 -30 150 -88q17 -17 6 -37l-98 -155q-16 -21 -37 -4.5t-148 92.5
q-21 13 -7 34z" />
    <glyph glyph-name="uni069A.medi" unicode="&#x69a;" horiz-adv-x="1165" 
d="M260 343q16 43 56 29q38 -14 9 -75q-8 -17 -18 -36q222 -79 318 121q19 44 54 30t16.5 -64t-17.5 -66q4 -43 80.5 -52t100.5 24t47 140q6 28 34 28t37 -24q64 -172 188 -183q47 -7 61.5 -74t-2 -119t-59.5 -52q-184 0 -250 208q-29 -93 -63 -156.5t-92 -65.5
q-141 -5 -222 92q-82 -78 -194 -77.5t-178 66.5q-80 -66 -166 -67q-57 0 -72 99q-4 25 -7 71q-3 50 47 68q17 6 32 7q220 16 260 128zM549 905q12 17 35 10q84 -30 150 -88q17 -17 6 -37l-98 -155q-16 -21 -37 -4.5t-148 92.5q-21 13 -7 34zM504 -272q12 17 35 10
q84 -30 150 -88q17 -17 6 -37l-98 -155q-16 -21 -37 -4.5t-148 92.5q-21 13 -7 34z" />
    <glyph glyph-name="uni069B.init" unicode="&#x69b;" horiz-adv-x="1164" 
d="M322 424q64 -1 9 -108q57 -45 143 -46q137 -2 228 252q14 39 44 28.5t24 -47.5l-18 -71q38 -31 100 -51t100 -19q-15 61 -32 92t5 67l63 103q33 35 51 -50q29 -142 -2 -274t-104 -178q-8 -5 -29 -6q-142 -5 -246 83q-76 -148 -204 -182.5t-257 100.5q-123 -146 -197 -147
q-43 0 -58 67q-8 38 -11 68q-10 102 66 110q203 21 291 180q16 29 34 29zM759 -612q-12 -16 -35 -10q-84 30 -150 88q-17 16 -6 36l98 156q16 21 37 4.5t148 -92.5q21 -14 7 -34zM616 -386q-12 -16 -35 -10q-84 30 -150 88q-17 16 -6 36l98 156q15 22 34.5 6t94.5 -62
l64 102q16 21 37 4.5t148 -92.5q21 -14 7 -34l-99 -148q-24 -34 -135 40z" />
    <glyph glyph-name="uni069B.medi" unicode="&#x69b;" horiz-adv-x="1165" 
d="M260 343q16 43 56 29q38 -14 9 -75q-8 -17 -18 -36q222 -79 318 121q19 44 54 30t16.5 -64t-17.5 -66q4 -43 80.5 -52t100.5 24t47 140q6 28 34 28t37 -24q64 -172 188 -183q47 -7 61.5 -74t-2 -119t-59.5 -52q-184 0 -250 208q-29 -93 -63 -156.5t-92 -65.5
q-141 -5 -222 92q-82 -78 -194 -77.5t-178 66.5q-80 -66 -166 -67q-57 0 -72 99q-4 25 -7 71q-3 50 47 68q17 6 32 7q220 16 260 128zM659 -712q-12 -16 -35 -10q-84 30 -150 88q-17 16 -6 36l98 156q16 21 37 4.5t148 -92.5q21 -14 7 -34zM516 -486q-12 -16 -35 -10
q-84 30 -150 88q-17 16 -6 36l98 156q15 22 34.5 6t94.5 -62l64 102q16 21 37 4.5t148 -92.5q21 -14 7 -34l-99 -148q-24 -34 -135 40z" />
    <glyph glyph-name="uni069C.init" unicode="&#x69c;" horiz-adv-x="1164" 
d="M322 424q64 -1 9 -108q57 -45 143 -46q137 -2 228 252q14 39 44 28.5t24 -47.5l-18 -71q38 -31 100 -51t100 -19q-15 61 -32 92t5 67l63 103q33 35 51 -50q29 -142 -2 -274t-104 -178q-8 -5 -29 -6q-142 -5 -246 83q-76 -148 -204 -182.5t-257 100.5q-123 -146 -197 -147
q-43 0 -58 67q-8 38 -11 68q-10 102 66 110q203 21 291 180q16 29 34 29zM553 1303q12 17 35 10q84 -30 150 -88q17 -17 6 -37l-98 -155q-16 -21 -37 -4.5t-148 92.5q-21 13 -7 33zM698 1074q12 17 35 10q84 -30 150 -88q17 -17 6 -37l-98 -155q-15 -22 -34.5 -6.5
t-94.5 61.5l-64 -102q-16 -21 -37 -4.5t-148 92.5q-21 13 -7 34l99 148q24 34 135 -39zM759 -612q-12 -16 -35 -10q-84 30 -150 88q-17 16 -6 36l98 156q16 21 37 4.5t148 -92.5q21 -14 7 -34zM616 -386q-12 -16 -35 -10q-84 30 -150 88q-17 16 -6 36l98 156q15 22 34.5 6
t94.5 -62l64 102q16 21 37 4.5t148 -92.5q21 -14 7 -34l-99 -148q-24 -34 -135 40z" />
    <glyph glyph-name="uni069C.medi" unicode="&#x69c;" horiz-adv-x="1165" 
d="M260 343q16 43 56 29q38 -14 9 -75q-8 -17 -18 -36q222 -79 318 121q19 44 54 30t16.5 -64t-17.5 -66q4 -43 80.5 -52t100.5 24t47 140q6 28 34 28t37 -24q64 -172 188 -183q47 -7 61.5 -74t-2 -119t-59.5 -52q-184 0 -250 208q-29 -93 -63 -156.5t-92 -65.5
q-141 -5 -222 92q-82 -78 -194 -77.5t-178 66.5q-80 -66 -166 -67q-57 0 -72 99q-4 25 -7 71q-3 50 47 68q17 6 32 7q220 16 260 128zM498 1180q12 17 35 10q84 -30 150 -88q17 -17 6 -37l-98 -155q-16 -21 -37 -4.5t-148 92.5q-21 13 -7 33zM643 951q12 17 35 10
q84 -30 150 -88q17 -17 6 -37l-98 -155q-15 -22 -34.5 -6.5t-94.5 61.5l-64 -102q-16 -21 -37 -4.5t-148 92.5q-21 13 -7 34l99 148q24 34 135 -39zM659 -712q-12 -16 -35 -10q-84 30 -150 88q-17 16 -6 36l98 156q16 21 37 4.5t148 -92.5q21 -14 7 -34zM516 -486
q-12 -16 -35 -10q-84 30 -150 88q-17 16 -6 36l98 156q15 22 34.5 6t94.5 -62l64 102q16 21 37 4.5t148 -92.5q21 -14 7 -34l-99 -148q-24 -34 -135 40z" />
    <glyph glyph-name="uni069D.init" unicode="&#x69d;" horiz-adv-x="1430" 
d="M156 154q-63 -187 -156 -184q-31 1 -50 41q-36 86 -16 140t59 63q111 23 179 142q24 43 60 42.5t64 -45.5q53 -85 210 -136q101 114 163 169q264 227 403 228q76 1 171 -76q75 -61 59 -149t-71 -187.5t-83 -120.5q-197 -142 -481 -143q-112 1 -232 30q-26 -53 -42 -127
q-11 -49 -50.5 -35.5t-30.5 62.5t41 132q-103 33 -197 154zM1167 262q-119 90 -266 80q-112 -7 -296 -149q103 -4 306 14.5t256 54.5zM871 -273q12 17 35 10q84 -30 150 -88q17 -17 6 -37l-98 -155q-16 -21 -35.5 -5.5t-108.5 69.5l-69 -110q-16 -21 -37 -4.5t-148 92.5
q-21 13 -7 34l99 148q12 17 35 10q62 -22 114 -59z" />
    <glyph glyph-name="uni069D.medi" unicode="&#x69d;" horiz-adv-x="1480" 
d="M1221 393q-157 108 -345.5 -2.5t-249.5 -180.5q132 7 311 57t284 126zM475 -13q-21 -54 -31 -104q-11 -57 -52 -50q-49 9 -22 107q22 77 23 79q-108 32 -184 128q-110 -176 -206 -177q-49 0 -67 55q-37 120 29 180q12 11 35 10q118 0 226 125q16 19 35 17q17 -2 44 -32
q74 -87 217 -101q119 173 283 314.5t287 170.5q94 19 182.5 -43.5t110.5 -155.5q-32 -150 -96 -253q87 -31 191 -42q46 -4 54 -94q9 -94 -12 -126q-15 -23 -40 -25q-159 -19 -406 104q-251 -150 -601 -87zM871 -273q12 17 35 10q84 -30 150 -88q17 -17 6 -37l-98 -155
q-16 -21 -35.5 -5.5t-108.5 69.5l-69 -110q-16 -21 -37 -4.5t-148 92.5q-21 13 -7 34l99 148q12 17 35 10q62 -22 114 -59z" />
    <glyph glyph-name="uni069E.init" unicode="&#x69e;" horiz-adv-x="1430" 
d="M156 154q-63 -187 -156 -184q-31 1 -50 41q-36 86 -16 140t59 63q111 23 179 142q24 43 60 42.5t64 -45.5q53 -85 210 -136q101 114 163 169q264 227 403 228q76 1 171 -76q75 -61 59 -149t-71 -187.5t-83 -120.5q-197 -142 -481 -143q-112 1 -232 30q-26 -53 -42 -127
q-11 -49 -50.5 -35.5t-30.5 62.5t41 132q-103 33 -197 154zM1167 262q-119 90 -266 80q-112 -7 -296 -149q103 -4 306 14.5t256 54.5zM537 1297q12 17 35 10q84 -30 150 -88q17 -17 6 -37l-98 -155q-16 -21 -37 -4.5t-148 92.5q-21 13 -7 33zM682 1068q12 17 35 10
q84 -30 150 -88q17 -17 6 -37l-98 -155q-15 -22 -34.5 -6.5t-94.5 61.5l-64 -102q-16 -21 -37 -4.5t-148 92.5q-21 13 -7 34l99 148q24 34 135 -39z" />
    <glyph glyph-name="uni069E.medi" unicode="&#x69e;" horiz-adv-x="1480" 
d="M1221 393q-157 108 -345.5 -2.5t-249.5 -180.5q132 7 311 57t284 126zM475 -13q-21 -54 -31 -104q-11 -57 -52 -50q-49 9 -22 107q22 77 23 79q-108 32 -184 128q-110 -176 -206 -177q-49 0 -67 55q-37 120 29 180q12 11 35 10q118 0 226 125q16 19 35 17q17 -2 44 -32
q74 -87 217 -101q119 173 283 314.5t287 170.5q94 19 182.5 -43.5t110.5 -155.5q-32 -150 -96 -253q87 -31 191 -42q46 -4 54 -94q9 -94 -12 -126q-15 -23 -40 -25q-159 -19 -406 104q-251 -150 -601 -87zM615 1390q12 17 35 10q84 -30 150 -88q17 -17 6 -37l-98 -155
q-16 -21 -37 -4.5t-148 92.5q-21 13 -7 33zM760 1161q12 17 35 10q84 -30 150 -88q17 -17 6 -37l-98 -155q-15 -22 -34.5 -6.5t-94.5 61.5l-64 -102q-16 -21 -37 -4.5t-148 92.5q-21 13 -7 34l99 148q24 34 135 -39z" />
    <glyph glyph-name="uni069F.init" unicode="&#x69f;" horiz-adv-x="1163" 
d="M242 322q19 133 -7 497.5t-39.5 434t-11.5 77.5q6 46 56 134q33 58 64 -10q52 -111 77 -139q44 -50 13 -86l-51 -57q-4 -5 -3 -23q27 -409 21.5 -522t-19.5 -220q281 233 419 269q171 45 271 -152q17 -34 4 -80q-40 -141 -106 -237.5t-201 -127.5q-380 -88 -729 -110
q-44 -1 -62 59t-7 121t69 65q106 4 141 9zM696 439q-155 -3 -399 -201q389 39 594 104q-81 98 -195 97zM664 1403q12 17 35 10q84 -30 150 -88q17 -17 6 -37l-98 -155q-16 -21 -37 -4.5t-148 92.5q-21 13 -7 33zM809 1174q12 17 35 10q84 -30 150 -88q17 -17 6 -37l-98 -155
q-15 -22 -34.5 -6.5t-94.5 61.5l-64 -102q-16 -21 -37 -4.5t-148 92.5q-21 13 -7 34l99 148q24 34 135 -39z" />
    <glyph glyph-name="uni069F.medi" unicode="&#x69f;" horiz-adv-x="1130" 
d="M681 22q-325 -78 -681 -52q-33 2 -55 59q-55 140 20 177q17 8 35 9l95 1l96 104q2 306 -75 931q-10 84 -14 95q-9 38 53 162q13 26 35 26t34 -33q38 -99 79.5 -141t4.5 -90l-35 -45q-11 -14 -9 -28q50 -341 44 -556q-2 -89 -29 -234q381 349 547 293q104 -35 163 -160
q14 -30 7 -78q-21 -137 -132 -234q137 -24 266 -13q55 4 67 -60q32 -146 -44 -178q-14 -6 -23 -7q-193 -15 -449 52zM681 436q-150 33 -455 -213q350 36 587 134q-51 61 -132 79zM603 1403q12 17 35 10q84 -30 150 -88q17 -17 6 -37l-98 -155q-16 -21 -37 -4.5t-148 92.5
q-21 13 -7 33zM748 1174q12 17 35 10q84 -30 150 -88q17 -17 6 -37l-98 -155q-15 -22 -34.5 -6.5t-94.5 61.5l-64 -102q-16 -21 -37 -4.5t-148 92.5q-21 13 -7 34l99 148q24 34 135 -39z" />
    <glyph glyph-name="uni06A0.init" unicode="&#x6a0;" horiz-adv-x="978" 
d="M867 508l-42 -165q-7 -27 -51 -45.5l-299 -120.5l-476 -207q-68 0 -90.5 100.5t79.5 142.5l121 51q-110 93 -79 223q65 276 295 384q58 27 138 -11t161 -122q43 -45 30.5 -71.5t-102.5 -1t-222.5 -4.5t-175.5 -121q-12 -25 57 -85q172 -148 499 58l76 47q112 71 81 -52z
M204 1503q12 17 35 10q84 -30 150 -88q17 -17 6 -37l-98 -155q-16 -21 -37 -4.5t-148 92.5q-21 13 -7 33zM349 1274q12 17 35 10q84 -30 150 -88q17 -17 6 -37l-98 -155q-15 -22 -34.5 -6.5t-94.5 61.5l-64 -102q-16 -21 -37 -4.5t-148 92.5q-21 13 -7 34l99 148
q24 34 135 -39z" />
    <glyph glyph-name="uni06A0.medi" unicode="&#x6a0;" horiz-adv-x="750" 
d="M750 215q77 -1 90 -64q4 -21 2 -43q-20 -138 -90 -138q-211 1 -384 208q-236 -208 -369 -208q-73 0 -90.5 102.5t46.5 132.5q20 9 44 10q132 4 222 57q-39 31 -169 49q-43 6 -35 58q15 84 116 163q192 148 430 12q120 -71 101 -150q-17 -76 -141 -148q66 -39 227 -41z
M163 1403q12 17 35 10q84 -30 150 -88q17 -17 6 -37l-98 -155q-16 -21 -37 -4.5t-148 92.5q-21 13 -7 33zM308 1174q12 17 35 10q84 -30 150 -88q17 -17 6 -37l-98 -155q-15 -22 -34.5 -6.5t-94.5 61.5l-64 -102q-16 -21 -37 -4.5t-148 92.5q-21 13 -7 34l99 148
q24 34 135 -39z" />
    <glyph glyph-name="uni06A1.init" unicode="&#x6a1;" horiz-adv-x="605" 
d="M158 656q-47 0 -53 -91q30 -10 78.5 -5t59.5 24q-46 72 -85 72zM209 908q62 0 103 -41q163 -165 163 -449q0 -164 -59 -242q-165 -211 -415 -206q-50 0 -66 62q-15 62 -1 120q15 60 64 63q258 18 376 128q-7 69 -16 79q-13 15 -27 -10q-39 -69 -101 -83
q-201 -48 -214 106q-15 178 52 325.5t141 147.5z" />
    <glyph glyph-name="uni06A1.medi" unicode="&#x6a1;" horiz-adv-x="775" 
d="M579 806q23 -1 36 -8q60 -38 77 -133q28 -166 -38 -310q-24 -52 -55 -103q101 -33 177 -37q45 -2 53.5 -94t-11.5 -126q-14 -22 -40 -25q-173 -17 -427 114q-74 -34 -191.5 -73.5t-162.5 -40.5t-59.5 59.5t-1.5 119t60 66.5q100 15 188 43q-7 88 29 184q67 178 241 310
q72 54 125 54zM482 530q-109 3 -179 -93q84 -172 258 -42q0 132 -79 135z" />
    <glyph glyph-name="uni06A2.init" unicode="&#x6a2;" horiz-adv-x="605" 
d="M158 656q-47 0 -53 -91q30 -10 78.5 -5t59.5 24q-46 72 -85 72zM209 908q62 0 103 -41q163 -165 163 -449q0 -164 -59 -242q-165 -211 -415 -206q-50 0 -66 62q-15 62 -1 120q15 60 64 63q258 18 376 128q-7 69 -16 79q-13 15 -27 -10q-39 -69 -101 -83
q-201 -48 -214 106q-15 178 52 325.5t141 147.5zM254 -172q12 17 35 10q84 -30 150 -88q17 -17 6 -37l-98 -155q-16 -21 -37 -4.5t-148 92.5q-21 13 -7 34z" />
    <glyph glyph-name="uni06A2.medi" unicode="&#x6a2;" horiz-adv-x="775" 
d="M579 806q23 -1 36 -8q60 -38 77 -133q28 -166 -38 -310q-24 -52 -55 -103q101 -33 177 -37q45 -2 53.5 -94t-11.5 -126q-14 -22 -40 -25q-173 -17 -427 114q-74 -34 -191.5 -73.5t-162.5 -40.5t-59.5 59.5t-1.5 119t60 66.5q100 15 188 43q-7 88 29 184q67 178 241 310
q72 54 125 54zM482 530q-109 3 -179 -93q84 -172 258 -42q0 132 -79 135zM324 -172q12 17 35 10q84 -30 150 -88q17 -17 6 -37l-98 -155q-16 -21 -37 -4.5t-148 92.5q-21 13 -7 34z" />
    <glyph glyph-name="uni06A3.init" unicode="&#x6a3;" horiz-adv-x="605" 
d="M158 656q-47 0 -53 -91q30 -10 78.5 -5t59.5 24q-46 72 -85 72zM209 908q62 0 103 -41q163 -165 163 -449q0 -164 -59 -242q-165 -211 -415 -206q-50 0 -66 62q-15 62 -1 120q15 60 64 63q258 18 376 128q-7 69 -16 79q-13 15 -27 -10q-39 -69 -101 -83
q-201 -48 -214 106q-15 178 52 325.5t141 147.5zM114 1278q12 17 35 10q84 -30 150 -88q17 -17 6 -37l-98 -155q-16 -21 -37 -4.5t-148 92.5q-21 13 -7 34zM254 -172q12 17 35 10q84 -30 150 -88q17 -17 6 -37l-98 -155q-16 -21 -37 -4.5t-148 92.5q-21 13 -7 34z" />
    <glyph glyph-name="uni06A3.medi" unicode="&#x6a3;" horiz-adv-x="775" 
d="M579 806q23 -1 36 -8q60 -38 77 -133q28 -166 -38 -310q-24 -52 -55 -103q101 -33 177 -37q45 -2 53.5 -94t-11.5 -126q-14 -22 -40 -25q-173 -17 -427 114q-74 -34 -191.5 -73.5t-162.5 -40.5t-59.5 59.5t-1.5 119t60 66.5q100 15 188 43q-7 88 29 184q67 178 241 310
q72 54 125 54zM482 530q-109 3 -179 -93q84 -172 258 -42q0 132 -79 135zM439 1328q12 17 35 10q84 -30 150 -88q17 -17 6 -37l-98 -155q-16 -21 -37 -4.5t-148 92.5q-21 13 -7 34zM324 -172q12 17 35 10q84 -30 150 -88q17 -17 6 -37l-98 -155q-16 -21 -37 -4.5t-148 92.5
q-21 13 -7 34z" />
    <glyph glyph-name="afii57505.init" unicode="&#x6a4;" horiz-adv-x="605" arabic-form="initial" 
d="M158 656q-47 0 -53 -91q30 -10 78.5 -5t59.5 24q-46 72 -85 72zM209 908q62 0 103 -41q163 -165 163 -449q0 -164 -59 -242q-165 -211 -415 -206q-50 0 -66 62q-15 62 -1 120q15 60 64 63q258 18 376 128q-7 69 -16 79q-13 15 -27 -10q-39 -69 -101 -83
q-201 -48 -214 106q-15 178 52 325.5t141 147.5zM134 1553q12 17 35 10q84 -30 150 -88q17 -17 6 -37l-98 -155q-16 -21 -37 -4.5t-148 92.5q-21 13 -7 33zM279 1324q12 17 35 10q84 -30 150 -88q17 -17 6 -37l-98 -155q-15 -22 -34.5 -6.5t-94.5 61.5l-64 -102
q-16 -21 -37 -4.5t-148 92.5q-21 13 -7 34l99 148q24 34 135 -39z" />
    <glyph glyph-name="afii57505.medi" unicode="&#x6a4;" horiz-adv-x="775" arabic-form="medial" 
d="M579 806q23 -1 36 -8q60 -38 77 -133q28 -166 -38 -310q-24 -52 -55 -103q101 -33 177 -37q45 -2 53.5 -94t-11.5 -126q-14 -22 -40 -25q-173 -17 -427 114q-74 -34 -191.5 -73.5t-162.5 -40.5t-59.5 59.5t-1.5 119t60 66.5q100 15 188 43q-7 88 29 184q67 178 241 310
q72 54 125 54zM482 530q-109 3 -179 -93q84 -172 258 -42q0 132 -79 135zM314 1603q12 17 35 10q84 -30 150 -88q17 -17 6 -37l-98 -155q-16 -21 -37 -4.5t-148 92.5q-21 13 -7 33zM459 1374q12 17 35 10q84 -30 150 -88q17 -17 6 -37l-98 -155q-15 -22 -34.5 -6.5
t-94.5 61.5l-64 -102q-16 -21 -37 -4.5t-148 92.5q-21 13 -7 34l99 148q24 34 135 -39z" />
    <glyph glyph-name="uni06A5.init" unicode="&#x6a5;" horiz-adv-x="605" 
d="M158 656q-47 0 -53 -91q30 -10 78.5 -5t59.5 24q-46 72 -85 72zM209 908q62 0 103 -41q163 -165 163 -449q0 -164 -59 -242q-165 -211 -415 -206q-50 0 -66 62q-15 62 -1 120q15 60 64 63q258 18 376 128q-7 69 -16 79q-13 15 -27 -10q-39 -69 -101 -83
q-201 -48 -214 106q-15 178 52 325.5t141 147.5zM409 -712q-12 -16 -35 -10q-84 30 -150 88q-17 16 -6 36l98 156q16 21 37 4.5t148 -92.5q21 -14 7 -34zM266 -486q-12 -16 -35 -10q-84 30 -150 88q-17 16 -6 36l98 156q15 22 34.5 6t94.5 -62l64 102q16 21 37 4.5
t148 -92.5q21 -14 7 -34l-99 -148q-24 -34 -135 40z" />
    <glyph glyph-name="uni06A5.medi" unicode="&#x6a5;" horiz-adv-x="775" 
d="M579 806q23 -1 36 -8q60 -38 77 -133q28 -166 -38 -310q-24 -52 -55 -103q101 -33 177 -37q45 -2 53.5 -94t-11.5 -126q-14 -22 -40 -25q-173 -17 -427 114q-74 -34 -191.5 -73.5t-162.5 -40.5t-59.5 59.5t-1.5 119t60 66.5q100 15 188 43q-7 88 29 184q67 178 241 310
q72 54 125 54zM482 530q-109 3 -179 -93q84 -172 258 -42q0 132 -79 135zM479 -712q-12 -16 -35 -10q-84 30 -150 88q-17 16 -6 36l98 156q16 21 37 4.5t148 -92.5q21 -14 7 -34zM336 -486q-12 -16 -35 -10q-84 30 -150 88q-17 16 -6 36l98 156q15 22 34.5 6t94.5 -62
l64 102q16 21 37 4.5t148 -92.5q21 -14 7 -34l-99 -148q-24 -34 -135 40z" />
    <glyph glyph-name="uni06A6.init" unicode="&#x6a6;" horiz-adv-x="605" arabic-form="initial" 
d="M158 656q-47 0 -53 -91q30 -10 78.5 -5t59.5 24q-46 72 -85 72zM209 908q62 0 103 -41q163 -165 163 -449q0 -164 -59 -242q-165 -211 -415 -206q-50 0 -66 62q-15 62 -1 120q15 60 64 63q258 18 376 128q-7 69 -16 79q-13 15 -27 -10q-39 -69 -101 -83
q-201 -48 -214 106q-15 178 52 325.5t141 147.5zM257 1564q12 17 35 10q84 -30 150 -88q17 -17 6 -37l-84 -132q59 -28 108 -71q17 -17 6 -37l-98 -155q-16 -21 -35.5 -5.5t-108.5 69.5l-69 -110q-16 -21 -37 -4.5t-148 92.5q-21 13 -7 34l91 136l-114 70q-21 13 -7 34
l99 148q12 17 35 10q62 -22 114 -59zM151 1271q38 -18 72 -42l56 84q-27 18 -73 45z" />
    <glyph glyph-name="uni06A6.medi" unicode="&#x6a6;" horiz-adv-x="775" arabic-form="medial" 
d="M579 806q23 -1 36 -8q60 -38 77 -133q28 -166 -38 -310q-24 -52 -55 -103q101 -33 177 -37q45 -2 53.5 -94t-11.5 -126q-14 -22 -40 -25q-173 -17 -427 114q-74 -34 -191.5 -73.5t-162.5 -40.5t-59.5 59.5t-1.5 119t60 66.5q100 15 188 43q-7 88 29 184q67 178 241 310
q72 54 125 54zM482 530q-109 3 -179 -93q84 -172 258 -42q0 132 -79 135zM437 1614q12 17 35 10q84 -30 150 -88q17 -17 6 -37l-84 -132q59 -28 108 -71q17 -17 6 -37l-98 -155q-16 -21 -35.5 -5.5t-108.5 69.5l-69 -110q-16 -21 -37 -4.5t-148 92.5q-21 13 -7 34l91 136
l-114 70q-21 13 -7 34l99 148q12 17 35 10q62 -22 114 -59zM331 1321q38 -18 72 -42l56 84q-27 18 -73 45z" />
    <glyph glyph-name="uni06A7.init" unicode="&#x6a7;" horiz-adv-x="605" 
d="M158 656q-47 0 -53 -91q30 -10 78.5 -5t59.5 24q-46 72 -85 72zM209 908q62 0 103 -41q163 -165 163 -449q0 -164 -59 -242q-165 -211 -415 -206q-50 0 -66 62q-15 62 -1 120q15 60 64 63q258 18 376 128q-7 69 -16 79q-13 15 -27 -10q-39 -69 -101 -83
q-201 -48 -214 106q-15 178 52 325.5t141 147.5zM114 1278q12 17 35 10q84 -30 150 -88q17 -17 6 -37l-98 -155q-16 -21 -37 -4.5t-148 92.5q-21 13 -7 34z" />
    <glyph glyph-name="uni06A7.medi" unicode="&#x6a7;" horiz-adv-x="775" 
d="M579 806q23 -1 36 -8q60 -38 77 -133q28 -166 -38 -310q-24 -52 -55 -103q101 -33 177 -37q45 -2 53.5 -94t-11.5 -126q-14 -22 -40 -25q-173 -17 -427 114q-74 -34 -191.5 -73.5t-162.5 -40.5t-59.5 59.5t-1.5 119t60 66.5q100 15 188 43q-7 88 29 184q67 178 241 310
q72 54 125 54zM482 530q-109 3 -179 -93q84 -172 258 -42q0 132 -79 135zM439 1328q12 17 35 10q84 -30 150 -88q17 -17 6 -37l-98 -155q-16 -21 -37 -4.5t-148 92.5q-21 13 -7 34z" />
    <glyph glyph-name="uni06A8.init" unicode="&#x6a8;" horiz-adv-x="605" 
d="M158 656q-47 0 -53 -91q30 -10 78.5 -5t59.5 24q-46 72 -85 72zM209 908q62 0 103 -41q163 -165 163 -449q0 -164 -59 -242q-165 -211 -415 -206q-50 0 -66 62q-15 62 -1 120q15 60 64 63q258 18 376 128q-7 69 -16 79q-13 15 -27 -10q-39 -69 -101 -83
q-201 -48 -214 106q-15 178 52 325.5t141 147.5zM134 1553q12 17 35 10q84 -30 150 -88q17 -17 6 -37l-98 -155q-16 -21 -37 -4.5t-148 92.5q-21 13 -7 33zM279 1324q12 17 35 10q84 -30 150 -88q17 -17 6 -37l-98 -155q-15 -22 -34.5 -6.5t-94.5 61.5l-64 -102
q-16 -21 -37 -4.5t-148 92.5q-21 13 -7 34l99 148q24 34 135 -39z" />
    <glyph glyph-name="uni06A8.medi" unicode="&#x6a8;" horiz-adv-x="775" 
d="M579 806q23 -1 36 -8q60 -38 77 -133q28 -166 -38 -310q-24 -52 -55 -103q101 -33 177 -37q45 -2 53.5 -94t-11.5 -126q-14 -22 -40 -25q-173 -17 -427 114q-74 -34 -191.5 -73.5t-162.5 -40.5t-59.5 59.5t-1.5 119t60 66.5q100 15 188 43q-7 88 29 184q67 178 241 310
q72 54 125 54zM482 530q-109 3 -179 -93q84 -172 258 -42q0 132 -79 135zM314 1603q12 17 35 10q84 -30 150 -88q17 -17 6 -37l-98 -155q-16 -21 -37 -4.5t-148 92.5q-21 13 -7 33zM459 1374q12 17 35 10q84 -30 150 -88q17 -17 6 -37l-98 -155q-15 -22 -34.5 -6.5
t-94.5 61.5l-64 -102q-16 -21 -37 -4.5t-148 92.5q-21 13 -7 34l99 148q24 34 135 -39z" />
    <glyph glyph-name="uni06A9.init" unicode="&#x6a9;" horiz-adv-x="1350" arabic-form="initial" 
d="M4 215q326 -44 506 124q-183 247 -390 326q-50 19 -55 171q-5 154 71 225q311 282 1056 507q53 16 39 -35l-49 -180q-12 -45 -47 -57q-793 -277 -987 -413q428 -230 428 -530q0 -310 -209 -362q-223 -55 -389 -24q-48 9 -56 71q-12 93 -7 111q22 75 89 66z" />
    <glyph glyph-name="uni06A9.medi" unicode="&#x6a9;" horiz-adv-x="1206" arabic-form="medial" 
d="M-86 122q0 99 112 90q317 -26 495 133q-43 149 -425 341q-40 68 -38 197q1 85 26 119q242 354 1030 693q69 30 50 -49l-42 -178q-8 -32 -43 -49q-667 -331 -918 -544q373 -162 702 -461q205 -186 344 -200q113 -12 57 -188q-18 -57 -61 -57q-170 1 -448 293
q-94 99 -163 152q-1 -78 -6 -114q-51 -344 -489 -343q-75 0 -119 10q-64 15 -64 155z" />
    <glyph glyph-name="uni06AA.init" unicode="&#x6aa;" horiz-adv-x="3346" 
d="M2 215q613 -50 1481 10q563 39 1586 150q-62 104 -191 117q-173 18 -537 -17t-906.5 -76t-998.5 4q-209 21 -252 110q-20 42 1 88q61 128 125 190q386 374 918 525q82 23 66 -53l-30 -147q-7 -36 -48 -47q-273 -78 -520 -188t-374 -221q140 -57 633.5 -56t1100 62.5
t836.5 56.5q122 -3 216.5 -90t107.5 -224q5 -49 -71 -162t-143 -118q-382 -30 -895 -80.5t-689 -62.5q-909 -62 -1420 -17q-57 5 -77 64t0.5 123t80.5 59z" />
    <glyph glyph-name="uni06AA.medi" unicode="&#x6aa;" horiz-adv-x="3320" 
d="M2 215q638 -37 1439.5 40.5t1586.5 188.5q-68 105 -164 114q-174 14 -587.5 -35.5t-912 -97t-940.5 -22.5q-243 14 -294 114q-20 43 0 88q54 120 119 191q336 356 947 548q60 15 68 -36q1 -9 -1 -16l-27 -148q-9 -35 -46 -48q-271 -84 -493.5 -196.5t-361.5 -234.5
q143 -54 621 -40.5t1082 88t835 76.5q151 0 249 -85q98 -87 112 -222q7 -60 -88 -191q-11 -50 18 -61t157 -15q63 -2 76 -72q9 -54 -11.5 -113t-65.5 -60q-155 0 -213 14q-111 26 -129 121q-7 40 4 87q-743 -98 -1579.5 -175.5t-1404.5 -46.5q-57 4 -80 66q-37 97 26 157
q25 24 58 22z" />
    <glyph glyph-name="uni06AB.init" unicode="&#x6ab;" horiz-adv-x="1350" 
d="M4 215q326 -44 506 124q-183 247 -390 326q-50 19 -55 171q-5 154 71 225q311 282 1056 507q53 16 39 -35l-49 -180q-12 -45 -47 -57q-793 -277 -987 -413q428 -230 428 -530q0 -310 -209 -362q-223 -55 -389 -24q-48 9 -56 71q-12 93 -7 111q22 75 89 66zM587 869
q-130 12 -115 162t90 207t160 -16q58 -51 60 -141t-15 -125q-49 -98 -180 -87zM722 1019q-28 122 -102 125q-46 2 -68.5 -30t-15.5 -77.5t73.5 -51.5t104.5 22q8 6 8 12z" />
    <glyph glyph-name="uni06AB.medi" unicode="&#x6ab;" horiz-adv-x="1206" 
d="M-86 122q0 99 112 90q317 -26 495 133q-43 149 -425 341q-40 68 -38 197q1 85 26 119q242 354 1030 693q69 30 50 -49l-42 -178q-8 -32 -43 -49q-667 -331 -918 -544q373 -162 702 -461q205 -186 344 -200q113 -12 57 -188q-18 -57 -61 -57q-170 1 -448 293
q-94 99 -163 152q-1 -78 -6 -114q-51 -344 -489 -343q-75 0 -119 10q-64 15 -64 155zM618 976q-130 12 -115 162t90 207t160 -16q58 -51 60 -141t-15 -125q-49 -98 -180 -87zM753 1126q-28 122 -102 125q-46 2 -68.5 -30t-15.5 -77.5t73.5 -51.5t104.5 22q8 6 8 12z" />
    <glyph glyph-name="uni06AC.init" unicode="&#x6ac;" horiz-adv-x="1350" 
d="M4 215q326 -44 506 124q-183 247 -390 326q-50 19 -55 171q-5 154 71 225q311 282 1056 507q53 16 39 -35l-49 -180q-12 -45 -47 -57q-793 -277 -987 -413q428 -230 428 -530q0 -310 -209 -362q-223 -55 -389 -24q-48 9 -56 71q-12 93 -7 111q22 75 89 66zM236 1554
q12 17 35 10q84 -30 150 -88q17 -17 6 -37l-98 -155q-16 -21 -37 -4.5t-148 92.5q-21 13 -7 34z" />
    <glyph glyph-name="uni06AC.medi" unicode="&#x6ac;" horiz-adv-x="1206" 
d="M-86 122q0 99 112 90q317 -26 495 133q-43 149 -425 341q-40 68 -38 197q1 85 26 119q242 354 1030 693q69 30 50 -49l-42 -178q-8 -32 -43 -49q-667 -331 -918 -544q373 -162 702 -461q205 -186 344 -200q113 -12 57 -188q-18 -57 -61 -57q-170 1 -448 293
q-94 99 -163 152q-1 -78 -6 -114q-51 -344 -489 -343q-75 0 -119 10q-64 15 -64 155zM169 1578q12 17 35 10q84 -30 150 -88q17 -17 6 -37l-98 -155q-16 -21 -37 -4.5t-148 92.5q-21 13 -7 34z" />
    <glyph glyph-name="uni06AD.init" unicode="&#x6ad;" horiz-adv-x="1350" arabic-form="initial" 
d="M4 215q326 -44 506 124q-183 247 -390 326q-50 19 -55 171q-5 154 71 225q311 282 1056 507q53 16 39 -35l-49 -180q-12 -45 -47 -57q-793 -277 -987 -413q428 -230 428 -530q0 -310 -209 -362q-223 -55 -389 -24q-48 9 -56 71q-12 93 -7 111q22 75 89 66zM186 1829
q12 17 35 10q84 -30 150 -88q17 -17 6 -37l-98 -155q-16 -21 -37 -4.5t-148 92.5q-21 13 -7 33zM331 1600q12 17 35 10q84 -30 150 -88q17 -17 6 -37l-98 -155q-15 -22 -34.5 -6.5t-94.5 61.5l-64 -102q-16 -21 -37 -4.5t-148 92.5q-21 13 -7 34l99 148q24 34 135 -39z" />
    <glyph glyph-name="uni06AD.medi" unicode="&#x6ad;" horiz-adv-x="1206" arabic-form="medial" 
d="M-86 122q0 99 112 90q317 -26 495 133q-43 149 -425 341q-40 68 -38 197q1 85 26 119q242 354 1030 693q69 30 50 -49l-42 -178q-8 -32 -43 -49q-667 -331 -918 -544q373 -162 702 -461q205 -186 344 -200q113 -12 57 -188q-18 -57 -61 -57q-170 1 -448 293
q-94 99 -163 152q-1 -78 -6 -114q-51 -344 -489 -343q-75 0 -119 10q-64 15 -64 155zM119 1853q12 17 35 10q84 -30 150 -88q17 -17 6 -37l-98 -155q-16 -21 -37 -4.5t-148 92.5q-21 13 -7 33zM264 1624q12 17 35 10q84 -30 150 -88q17 -17 6 -37l-98 -155
q-15 -22 -34.5 -6.5t-94.5 61.5l-64 -102q-16 -21 -37 -4.5t-148 92.5q-21 13 -7 34l99 148q24 34 135 -39z" />
    <glyph glyph-name="uni06AE.init" unicode="&#x6ae;" horiz-adv-x="1350" 
d="M4 215q326 -44 506 124q-183 247 -390 326q-50 19 -55 171q-5 154 71 225q311 282 1056 507q53 16 39 -35l-49 -180q-12 -45 -47 -57q-793 -277 -987 -413q428 -230 428 -530q0 -310 -209 -362q-223 -55 -389 -24q-48 9 -56 71q-12 93 -7 111q22 75 89 66zM369 -576
q-12 -16 -35 -10q-84 30 -150 88q-17 16 -6 36l98 156q16 21 37 4.5t148 -92.5q21 -14 7 -34zM226 -350q-12 -16 -35 -10q-84 30 -150 88q-17 16 -6 36l98 156q15 22 34.5 6t94.5 -62l64 102q16 21 37 4.5t148 -92.5q21 -14 7 -34l-99 -148q-24 -34 -135 40z" />
    <glyph glyph-name="uni06AE.medi" unicode="&#x6ae;" horiz-adv-x="1206" 
d="M-86 122q0 99 112 90q317 -26 495 133q-43 149 -425 341q-40 68 -38 197q1 85 26 119q242 354 1030 693q69 30 50 -49l-42 -178q-8 -32 -43 -49q-667 -331 -918 -544q373 -162 702 -461q205 -186 344 -200q113 -12 57 -188q-18 -57 -61 -57q-170 1 -448 293
q-94 99 -163 152q-1 -78 -6 -114q-51 -344 -489 -343q-75 0 -119 10q-64 15 -64 155zM858 -612q-12 -16 -35 -10q-84 30 -150 88q-17 16 -6 36l98 156q16 21 37 4.5t148 -92.5q21 -14 7 -34zM715 -386q-12 -16 -35 -10q-84 30 -150 88q-17 16 -6 36l98 156q15 22 34.5 6
t94.5 -62l64 102q16 21 37 4.5t148 -92.5q21 -14 7 -34l-99 -148q-24 -34 -135 40z" />
    <glyph glyph-name="afii57509.init" unicode="&#x6af;" horiz-adv-x="1350" arabic-form="initial" 
d="M4 215q326 -44 506 124q-183 247 -390 326q-50 19 -55 171q-5 154 71 225q311 282 1056 507q53 16 39 -35l-49 -180q-12 -45 -47 -57q-793 -277 -987 -413q428 -230 428 -530q0 -310 -209 -362q-223 -55 -389 -24q-48 9 -56 71q-12 93 -7 111q22 75 89 66zM231 1284
q-25 -11 -43 0q-34 22 -5 64q61 87 116 113q347 165 911 331q20 7 43 -16t-26 -81q-14 -16 -18 -20q-49 -57 -90 -69q-367 -98 -888 -322z" />
    <glyph glyph-name="afii57509.medi" unicode="&#x6af;" horiz-adv-x="1206" arabic-form="medial" 
d="M-86 122q0 99 112 90q317 -26 495 133q-43 149 -425 341q-40 68 -38 197q1 85 26 119q242 354 1030 693q69 30 50 -49l-42 -178q-8 -32 -43 -49q-667 -331 -918 -544q373 -162 702 -461q205 -186 344 -200q113 -12 57 -188q-18 -57 -61 -57q-170 1 -448 293
q-94 99 -163 152q-1 -78 -6 -114q-51 -344 -489 -343q-75 0 -119 10q-64 15 -64 155zM237 1362q-23 -13 -41 -6q-39 16 -14 63q50 94 104 127q327 202 871 426q20 8 45 -12q25 -21 -20 -84q-11 -15 -14 -20q-43 -62 -83 -79q-354 -137 -848 -415z" />
    <glyph glyph-name="uni06B0.init" unicode="&#x6b0;" horiz-adv-x="1350" 
d="M4 215q326 -44 506 124q-183 247 -390 326q-50 19 -55 171q-5 154 71 225q311 282 1056 507q53 16 39 -35l-49 -180q-12 -45 -47 -57q-793 -277 -987 -413q428 -230 428 -530q0 -310 -209 -362q-223 -55 -389 -24q-48 9 -56 71q-12 93 -7 111q22 75 89 66zM231 1284
q-25 -11 -43 0q-34 22 -5 64q61 87 116 113q347 165 911 331q20 7 43 -16t-26 -81q-14 -16 -18 -20q-49 -57 -90 -69q-367 -98 -888 -322zM587 869q-130 12 -115 162t90 207t160 -16q58 -51 60 -141t-15 -125q-49 -98 -180 -87zM722 1019q-28 122 -102 125q-46 2 -68.5 -30
t-15.5 -77.5t73.5 -51.5t104.5 22q8 6 8 12z" />
    <glyph glyph-name="uni06B0.medi" unicode="&#x6b0;" horiz-adv-x="1206" 
d="M-86 122q0 99 112 90q317 -26 495 133q-43 149 -425 341q-40 68 -38 197q1 85 26 119q242 354 1030 693q69 30 50 -49l-42 -178q-8 -32 -43 -49q-667 -331 -918 -544q373 -162 702 -461q205 -186 344 -200q113 -12 57 -188q-18 -57 -61 -57q-170 1 -448 293
q-94 99 -163 152q-1 -78 -6 -114q-51 -344 -489 -343q-75 0 -119 10q-64 15 -64 155zM618 976q-130 12 -115 162t90 207t160 -16q58 -51 60 -141t-15 -125q-49 -98 -180 -87zM753 1126q-28 122 -102 125q-46 2 -68.5 -30t-15.5 -77.5t73.5 -51.5t104.5 22q8 6 8 12z
M237 1362q-23 -13 -41 -6q-39 16 -14 63q50 94 104 127q327 202 871 426q20 8 45 -12q25 -21 -20 -84q-11 -15 -14 -20q-43 -62 -83 -79q-354 -137 -848 -415z" />
    <glyph glyph-name="uni06B1.init" unicode="&#x6b1;" horiz-adv-x="1350" arabic-form="initial" 
d="M4 215q326 -44 506 124q-183 247 -390 326q-50 19 -55 171q-5 154 71 225q311 282 1056 507q53 16 39 -35l-49 -180q-12 -45 -47 -57q-793 -277 -987 -413q428 -230 428 -530q0 -310 -209 -362q-223 -55 -389 -24q-48 9 -56 71q-12 93 -7 111q22 75 89 66zM153 1600
q12 17 35 10q84 -30 150 -88q17 -17 6 -37l-98 -155q-16 -21 -35.5 -5.5t-108.5 69.5l-69 -110q-16 -21 -37 -4.5t-148 92.5q-21 13 -7 34l99 148q12 17 35 10q62 -22 114 -59zM331 1324q-25 -11 -43 0q-34 22 -5 64q61 87 116 113q347 165 911 331q20 7 43 -16t-26 -81
q-14 -16 -18 -20q-49 -57 -90 -69q-367 -98 -888 -322z" />
    <glyph glyph-name="uni06B1.medi" unicode="&#x6b1;" horiz-adv-x="1206" arabic-form="medial" 
d="M-86 122q0 99 112 90q317 -26 495 133q-43 149 -425 341q-40 68 -38 197q1 85 26 119q242 354 1030 693q69 30 50 -49l-42 -178q-8 -32 -43 -49q-667 -331 -918 -544q373 -162 702 -461q205 -186 344 -200q113 -12 57 -188q-18 -57 -61 -57q-170 1 -448 293
q-94 99 -163 152q-1 -78 -6 -114q-51 -344 -489 -343q-75 0 -119 10q-64 15 -64 155zM153 1624q12 17 35 10q84 -30 150 -88q17 -17 6 -37l-98 -155q-16 -21 -35.5 -5.5t-108.5 69.5l-69 -110q-16 -21 -37 -4.5t-148 92.5q-21 13 -7 34l99 148q12 17 35 10q62 -22 114 -59z
M347 1411q-23 -13 -41 -6q-39 16 -14 63q50 94 104 127q327 202 871 426q20 8 45 -12q25 -21 -20 -84q-11 -15 -14 -20q-43 -62 -83 -79q-354 -137 -848 -415z" />
    <glyph glyph-name="uni06B2.init" unicode="&#x6b2;" horiz-adv-x="1350" 
d="M4 215q326 -44 506 124q-183 247 -390 326q-50 19 -55 171q-5 154 71 225q311 282 1056 507q53 16 39 -35l-49 -180q-12 -45 -47 -57q-793 -277 -987 -413q428 -230 428 -530q0 -310 -209 -362q-223 -55 -389 -24q-48 9 -56 71q-12 93 -7 111q22 75 89 66zM231 1284
q-25 -11 -43 0q-34 22 -5 64q61 87 116 113q347 165 911 331q20 7 43 -16t-26 -81q-14 -16 -18 -20q-49 -57 -90 -69q-367 -98 -888 -322zM331 -37q12 17 35 10q84 -30 150 -88q17 -17 6 -37l-98 -155q-16 -21 -35.5 -5.5t-108.5 69.5l-69 -110q-16 -21 -37 -4.5t-148 92.5
q-21 13 -7 34l99 148q12 17 35 10q62 -22 114 -59z" />
    <glyph glyph-name="uni06B2.medi" unicode="&#x6b2;" horiz-adv-x="1206" 
d="M-86 122q0 99 112 90q317 -26 495 133q-43 149 -425 341q-40 68 -38 197q1 85 26 119q242 354 1030 693q69 30 50 -49l-42 -178q-8 -32 -43 -49q-667 -331 -918 -544q373 -162 702 -461q205 -186 344 -200q113 -12 57 -188q-18 -57 -61 -57q-170 1 -448 293
q-94 99 -163 152q-1 -78 -6 -114q-51 -344 -489 -343q-75 0 -119 10q-64 15 -64 155zM820 -73q12 17 35 10q84 -30 150 -88q17 -17 6 -37l-98 -155q-16 -21 -35.5 -5.5t-108.5 69.5l-69 -110q-16 -21 -37 -4.5t-148 92.5q-21 13 -7 34l99 148q12 17 35 10q62 -22 114 -59z
M237 1362q-23 -13 -41 -6q-39 16 -14 63q50 94 104 127q327 202 871 426q20 8 45 -12q25 -21 -20 -84q-11 -15 -14 -20q-43 -62 -83 -79q-354 -137 -848 -415z" />
    <glyph glyph-name="uni06B3.init" unicode="&#x6b3;" horiz-adv-x="1350" arabic-form="initial" 
d="M4 215q326 -44 506 124q-183 247 -390 326q-50 19 -55 171q-5 154 71 225q311 282 1056 507q53 16 39 -35l-49 -180q-12 -45 -47 -57q-793 -277 -987 -413q428 -230 428 -530q0 -310 -209 -362q-223 -55 -389 -24q-48 9 -56 71q-12 93 -7 111q22 75 89 66zM231 1284
q-25 -11 -43 0q-34 22 -5 64q61 87 116 113q347 165 911 331q20 7 43 -16t-26 -81q-14 -16 -18 -20q-49 -57 -90 -69q-367 -98 -888 -322zM224 -36q12 17 35 10q84 -30 150 -88q17 -17 6 -37l-57 -91q49 -26 91 -62q17 -17 6 -37l-98 -155q-16 -21 -37 -4.5t-148 92.5
q-21 13 -7 34l65 97l-98 59q-21 13 -7 34z" />
    <glyph glyph-name="uni06B3.medi" unicode="&#x6b3;" horiz-adv-x="1206" arabic-form="medial" 
d="M-86 122q0 99 112 90q317 -26 495 133q-43 149 -425 341q-40 68 -38 197q1 85 26 119q242 354 1030 693q69 30 50 -49l-42 -178q-8 -32 -43 -49q-667 -331 -918 -544q373 -162 702 -461q205 -186 344 -200q113 -12 57 -188q-18 -57 -61 -57q-170 1 -448 293
q-94 99 -163 152q-1 -78 -6 -114q-51 -344 -489 -343q-75 0 -119 10q-64 15 -64 155zM713 -72q12 17 35 10q84 -30 150 -88q17 -17 6 -37l-57 -91q49 -26 91 -62q17 -17 6 -37l-98 -155q-16 -21 -37 -4.5t-148 92.5q-21 13 -7 34l65 97l-98 59q-21 13 -7 34zM237 1362
q-23 -13 -41 -6q-39 16 -14 63q50 94 104 127q327 202 871 426q20 8 45 -12q25 -21 -20 -84q-11 -15 -14 -20q-43 -62 -83 -79q-354 -137 -848 -415z" />
    <glyph glyph-name="uni06B4.init" unicode="&#x6b4;" horiz-adv-x="1350" 
d="M4 215q326 -44 506 124q-183 247 -390 326q-50 19 -55 171q-5 154 71 225q311 282 1056 507q53 16 39 -35l-49 -180q-12 -45 -47 -57q-793 -277 -987 -413q428 -230 428 -530q0 -310 -209 -362q-223 -55 -389 -24q-48 9 -56 71q-12 93 -7 111q22 75 89 66zM331 1324
q-25 -11 -43 0q-34 22 -5 64q61 87 116 113q347 165 911 331q20 7 43 -16t-26 -81q-14 -16 -18 -20q-49 -57 -90 -69q-367 -98 -888 -322zM5 1829q12 17 35 10q84 -30 150 -88q17 -17 6 -37l-98 -155q-16 -21 -37 -4.5t-148 92.5q-21 13 -7 33zM150 1600q12 17 35 10
q84 -30 150 -88q17 -17 6 -37l-98 -155q-15 -22 -34.5 -6.5t-94.5 61.5l-64 -102q-16 -21 -37 -4.5t-148 92.5q-21 13 -7 34l99 148q24 34 135 -39z" />
    <glyph glyph-name="uni06B4.medi" unicode="&#x6b4;" horiz-adv-x="1206" 
d="M-86 122q0 99 112 90q317 -26 495 133q-43 149 -425 341q-40 68 -38 197q1 85 26 119q242 354 1030 693q69 30 50 -49l-42 -178q-8 -32 -43 -49q-667 -331 -918 -544q373 -162 702 -461q205 -186 344 -200q113 -12 57 -188q-18 -57 -61 -57q-170 1 -448 293
q-94 99 -163 152q-1 -78 -6 -114q-51 -344 -489 -343q-75 0 -119 10q-64 15 -64 155zM5 1853q12 17 35 10q84 -30 150 -88q17 -17 6 -37l-98 -155q-16 -21 -37 -4.5t-148 92.5q-21 13 -7 33zM150 1624q12 17 35 10q84 -30 150 -88q17 -17 6 -37l-98 -155q-15 -22 -34.5 -6.5
t-94.5 61.5l-64 -102q-16 -21 -37 -4.5t-148 92.5q-21 13 -7 34l99 148q24 34 135 -39zM347 1411q-23 -13 -41 -6q-39 16 -14 63q50 94 104 127q327 202 871 426q20 8 45 -12q25 -21 -20 -84q-11 -15 -14 -20q-43 -62 -83 -79q-354 -137 -848 -415z" />
    <glyph glyph-name="uni06B5.init" unicode="&#x6b5;" horiz-adv-x="360" 
d="M174 1174q84 -604 61 -830q-35 -341 -235 -374q-51 -8 -58 62q-5 46 -1 111.5t59 71.5q113 12 145 70q-2 49 -115 896q-12 78 -19 106q-21 51 1 94l52 102q29 57 59 -27t93 -137q42 -35 8 -79zM234 1932l39 -56q18 -30 -1 -54q-99 -164 -133 -283q-2 -5 -5 -8l-19 -14
q-24 -16 -46 10q-118 146 -185 311q-21 53 19.5 66.5t59.5 -33.5q25 -66 87 -174q43 134 124 232q17 19 33.5 18.5t26.5 -15.5z" />
    <glyph glyph-name="uni06B5.medi" unicode="&#x6b5;" horiz-adv-x="405" 
d="M191 235q-43 -264 -191 -265q-38 -1 -51 43q-50 170 51 201q118 37 118 158l-35 887q-2 45 15 64l76 85q40 45 40 -51l21 -472q16 -379 32 -461q36 -184 138 -210q51 -12 56.5 -93t-17.5 -129q-11 -22 -39 -22q-139 1 -214 265zM284 1895l39 -56q18 -30 -1 -54
q-99 -164 -133 -283q-2 -5 -5 -8l-19 -14q-24 -16 -46 10q-118 146 -185 311q-21 53 19.5 66.5t59.5 -33.5q25 -66 87 -174q43 134 124 232q17 19 33.5 18.5t26.5 -15.5z" />
    <glyph glyph-name="uni06B6.init" unicode="&#x6b6;" horiz-adv-x="360" 
d="M174 1174q84 -604 61 -830q-35 -341 -235 -374q-51 -8 -58 62q-5 46 -1 111.5t59 71.5q113 12 145 70q-2 49 -115 896q-12 78 -19 106q-21 51 1 94l52 102q29 57 59 -27t93 -137q42 -35 8 -79zM34 1795q12 17 35 10q84 -30 150 -88q17 -17 6 -37l-98 -155
q-16 -21 -37 -4.5t-148 92.5q-21 13 -7 34z" />
    <glyph glyph-name="uni06B6.medi" unicode="&#x6b6;" horiz-adv-x="405" 
d="M191 235q-43 -264 -191 -265q-38 -1 -51 43q-50 170 51 201q118 37 118 158l-35 887q-2 45 15 64l76 85q40 45 40 -51l21 -472q16 -379 32 -461q36 -184 138 -210q51 -12 56.5 -93t-17.5 -129q-11 -22 -39 -22q-139 1 -214 265zM84 1758q12 17 35 10q84 -30 150 -88
q17 -17 6 -37l-98 -155q-16 -21 -37 -4.5t-148 92.5q-21 13 -7 34z" />
    <glyph glyph-name="uni06B7.init" unicode="&#x6b7;" horiz-adv-x="360" 
d="M174 1174q84 -604 61 -830q-35 -341 -235 -374q-51 -8 -58 62q-5 46 -1 111.5t59 71.5q113 12 145 70q-2 49 -115 896q-12 78 -19 106q-21 51 1 94l52 102q29 57 59 -27t93 -137q42 -35 8 -79zM-26 2070q12 17 35 10q84 -30 150 -88q17 -17 6 -37l-98 -155
q-16 -21 -37 -4.5t-148 92.5q-21 13 -7 33zM119 1841q12 17 35 10q84 -30 150 -88q17 -17 6 -37l-98 -155q-15 -22 -34.5 -6.5t-94.5 61.5l-64 -102q-16 -21 -37 -4.5t-148 92.5q-21 13 -7 34l99 148q24 34 135 -39z" />
    <glyph glyph-name="uni06B7.medi" unicode="&#x6b7;" horiz-adv-x="405" 
d="M191 235q-43 -264 -191 -265q-38 -1 -51 43q-50 170 51 201q118 37 118 158l-35 887q-2 45 15 64l76 85q40 45 40 -51l21 -472q16 -379 32 -461q36 -184 138 -210q51 -12 56.5 -93t-17.5 -129q-11 -22 -39 -22q-139 1 -214 265zM24 2033q12 17 35 10q84 -30 150 -88
q17 -17 6 -37l-98 -155q-16 -21 -37 -4.5t-148 92.5q-21 13 -7 33zM169 1804q12 17 35 10q84 -30 150 -88q17 -17 6 -37l-98 -155q-15 -22 -34.5 -6.5t-94.5 61.5l-64 -102q-16 -21 -37 -4.5t-148 92.5q-21 13 -7 34l99 148q24 34 135 -39z" />
    <glyph glyph-name="uni06B8.init" unicode="&#x6b8;" horiz-adv-x="360" 
d="M174 1174q84 -604 61 -830q-35 -341 -235 -374q-51 -8 -58 62q-5 46 -1 111.5t59 71.5q113 12 145 70q-2 49 -115 896q-12 78 -19 106q-21 51 1 94l52 102q29 57 59 -27t93 -137q42 -35 8 -79zM289 -512q-12 -16 -35 -10q-84 30 -150 88q-17 16 -6 36l98 156
q16 21 37 4.5t148 -92.5q21 -14 7 -34zM146 -286q-12 -16 -35 -10q-84 30 -150 88q-17 16 -6 36l98 156q15 22 34.5 6t94.5 -62l64 102q16 21 37 4.5t148 -92.5q21 -14 7 -34l-99 -148q-24 -34 -135 40z" />
    <glyph glyph-name="uni06B8.medi" unicode="&#x6b8;" horiz-adv-x="405" 
d="M191 235q-43 -264 -191 -265q-38 -1 -51 43q-50 170 51 201q118 37 118 158l-35 887q-2 45 15 64l76 85q40 45 40 -51l21 -472q16 -379 32 -461q36 -184 138 -210q51 -12 56.5 -93t-17.5 -129q-11 -22 -39 -22q-139 1 -214 265zM309 -562q-12 -16 -35 -10q-84 30 -150 88
q-17 16 -6 36l98 156q16 21 37 4.5t148 -92.5q21 -14 7 -34zM166 -336q-12 -16 -35 -10q-84 30 -150 88q-17 16 -6 36l98 156q15 22 34.5 6t94.5 -62l64 102q16 21 37 4.5t148 -92.5q21 -14 7 -34l-99 -148q-24 -34 -135 40z" />
    <glyph glyph-name="uni06B9.init" unicode="&#x6b9;" horiz-adv-x="390" 
d="M105 436l58 127q31 68 54 27q100 -173 46.5 -396.5t-263.5 -223.5q-42 0 -59.5 68.5t-16.5 111t44 59.5q15 6 32 6q119 -3 173 47q-11 51 -49 92t-19 82zM124 -222q12 17 35 10q84 -30 150 -88q17 -17 6 -37l-98 -155q-16 -21 -37 -4.5t-148 92.5q-21 13 -7 34zM129 1028
q12 17 35 10q84 -30 150 -88q17 -17 6 -37l-98 -155q-16 -21 -37 -4.5t-148 92.5q-21 13 -7 34z" />
    <glyph glyph-name="uni06B9.medi" unicode="&#x6b9;" horiz-adv-x="500" 
d="M372 296q61 -77 128 -82q56 -5 66 -42q6 -26 -1.5 -86t-21 -87.5t-43.5 -28.5q-119 0 -222 130q-126 -130 -278 -130q-44 1 -55 55l-18 83q-7 34 15 69t58 38q243 18 299 120q17 31 39 31q30 0 31.5 -33.5t2.5 -36.5zM204 998q12 17 35 10q84 -30 150 -88q17 -17 6 -37
l-98 -155q-16 -21 -37 -4.5t-148 92.5q-21 13 -7 34zM214 -222q12 17 35 10q84 -30 150 -88q17 -17 6 -37l-98 -155q-16 -21 -37 -4.5t-148 92.5q-21 13 -7 34z" />
    <glyph glyph-name="afii57514.init" unicode="&#x6ba;" horiz-adv-x="390" 
d="M105 436l58 127q31 68 54 27q100 -173 46.5 -396.5t-263.5 -223.5q-42 0 -59.5 68.5t-16.5 111t44 59.5q15 6 32 6q119 -3 173 47q-11 51 -49 92t-19 82zM129 1028q12 17 35 10q84 -30 150 -88q17 -17 6 -37l-98 -155q-16 -21 -37 -4.5t-148 92.5q-21 13 -7 34z" />
    <glyph glyph-name="afii57514.medi" unicode="&#x6ba;" horiz-adv-x="500" 
d="M372 296q61 -77 128 -82q56 -5 66 -42q6 -26 -1.5 -86t-21 -87.5t-43.5 -28.5q-119 0 -222 130q-126 -130 -278 -130q-44 1 -55 55l-18 83q-7 34 15 69t58 38q243 18 299 120q17 31 39 31q30 0 31.5 -33.5t2.5 -36.5zM204 998q12 17 35 10q84 -30 150 -88q17 -17 6 -37
l-98 -155q-16 -21 -37 -4.5t-148 92.5q-21 13 -7 34z" />
    <glyph glyph-name="uni06BB.init" unicode="&#x6bb;" horiz-adv-x="390" arabic-form="initial" 
d="M105 436l58 127q31 68 54 27q100 -173 46.5 -396.5t-263.5 -223.5q-42 0 -59.5 68.5t-16.5 111t44 59.5q15 6 32 6q119 -3 173 47q-11 51 -49 92t-19 82zM101 1330q34 16 42 -36q34 -247 26 -373q49 48 106 90q58 42 110 22t77 -82t-55 -164q-19 -24 -137 -60t-242 -42
h-4q-57 10 -101 49t-43 63q4 17 25 16q72 -7 146 -2l46 46q6 144 -34 391q-1 11 11.5 42.5t26.5 39.5zM277 912q-30 -12 -113 -87q103 21 201 67q-30 41 -88 20z" />
    <glyph glyph-name="uni06BB.medi" unicode="&#x6bb;" horiz-adv-x="500" arabic-form="medial" 
d="M372 296q61 -77 128 -82q56 -5 66 -42q6 -26 -1.5 -86t-21 -87.5t-43.5 -28.5q-119 0 -222 130q-126 -130 -278 -130q-44 1 -55 55l-18 83q-7 34 15 69t58 38q243 18 299 120q17 31 39 31q30 0 31.5 -33.5t2.5 -36.5zM176 1300q34 16 42 -36q34 -247 26 -373
q49 48 106 90q58 42 110 22t77 -82t-55 -164q-19 -24 -137 -60t-242 -42h-4q-57 10 -101 49t-43 63q4 17 25 16q72 -7 146 -2l46 46q6 144 -34 391q-1 11 11.5 42.5t26.5 39.5zM352 882q-30 -12 -113 -87q103 21 201 67q-30 41 -88 20z" />
    <glyph glyph-name="uni06BC.init" unicode="&#x6bc;" horiz-adv-x="390" 
d="M105 436l58 127q31 68 54 27q100 -173 46.5 -396.5t-263.5 -223.5q-42 0 -59.5 68.5t-16.5 111t44 59.5q15 6 32 6q119 -3 173 47q-11 51 -49 92t-19 82zM129 1028q12 17 35 10q84 -30 150 -88q17 -17 6 -37l-98 -155q-16 -21 -37 -4.5t-148 92.5q-21 13 -7 34zM187 -217
q-130 12 -115 162t90 207t160 -16q58 -51 60 -141t-15 -125q-49 -98 -180 -87zM322 -67q-28 122 -102 125q-46 2 -68.5 -30t-15.5 -77.5t73.5 -51.5t104.5 22q8 6 8 12z" />
    <glyph glyph-name="uni06BC.medi" unicode="&#x6bc;" horiz-adv-x="500" 
d="M372 296q61 -77 128 -82q56 -5 66 -42q6 -26 -1.5 -86t-21 -87.5t-43.5 -28.5q-119 0 -222 130q-126 -130 -278 -130q-44 1 -55 55l-18 83q-7 34 15 69t58 38q243 18 299 120q17 31 39 31q30 0 31.5 -33.5t2.5 -36.5zM204 998q12 17 35 10q84 -30 150 -88q17 -17 6 -37
l-98 -155q-16 -21 -37 -4.5t-148 92.5q-21 13 -7 34zM217 -247q-130 12 -115 162t90 207t160 -16q58 -51 60 -141t-15 -125q-49 -98 -180 -87zM352 -97q-28 122 -102 125q-46 2 -68.5 -30t-15.5 -77.5t73.5 -51.5t104.5 22q8 6 8 12z" />
    <glyph glyph-name="uni06BD.init" unicode="&#x6bd;" horiz-adv-x="390" 
d="M105 436l58 127q31 68 54 27q100 -173 46.5 -396.5t-263.5 -223.5q-42 0 -59.5 68.5t-16.5 111t44 59.5q15 6 32 6q119 -3 173 47q-11 51 -49 92t-19 82zM136 -207q12 17 35 10q84 -30 150 -88q17 -17 6 -37l-98 -155q-16 -21 -37 -4.5t-148 92.5q-21 13 -7 33zM281 -436
q12 17 35 10q84 -30 150 -88q17 -17 6 -37l-98 -155q-15 -22 -34.5 -6.5t-94.5 61.5l-64 -102q-16 -21 -37 -4.5t-148 92.5q-21 13 -7 34l99 148q24 34 135 -39z" />
    <glyph glyph-name="uni06BD.medi" unicode="&#x6bd;" horiz-adv-x="500" 
d="M372 296q61 -77 128 -82q56 -5 66 -42q6 -26 -1.5 -86t-21 -87.5t-43.5 -28.5q-119 0 -222 130q-126 -130 -278 -130q-44 1 -55 55l-18 83q-7 34 15 69t58 38q243 18 299 120q17 31 39 31q30 0 31.5 -33.5t2.5 -36.5zM176 -107q12 17 35 10q84 -30 150 -88q17 -17 6 -37
l-98 -155q-16 -21 -37 -4.5t-148 92.5q-21 13 -7 33zM321 -336q12 17 35 10q84 -30 150 -88q17 -17 6 -37l-98 -155q-15 -22 -34.5 -6.5t-94.5 61.5l-64 -102q-16 -21 -37 -4.5t-148 92.5q-21 13 -7 34l99 148q24 34 135 -39z" />
    <glyph glyph-name="uni06BE.init" unicode="&#x6be;" horiz-adv-x="926" arabic-form="initial" 
d="M79 231q-6 72 16.5 159t132.5 211q111 124 190 144q83 22 120 -125q4 -10 13 -14q197 -96 268 -172q27 -30 33.5 -92.5t-15.5 -141.5t-72 -129q-51 -50 -230 -42.5t-301 42.5q-106 -67 -226 -100q-52 -12 -72 55q-42 141 25 179q15 8 50 11.5t68 14.5zM283 294
q80 35 97 60.5t-1 86.5t-39 62q-21 0 -71 -44t-83 -108q14 -37 97 -57zM511 388q-17 -67 -57 -125q99 -12 170.5 -11t74.5 3q-53 61 -188 133z" />
    <glyph glyph-name="uni06BE.medi" unicode="&#x6be;" horiz-adv-x="800" arabic-form="medial" 
d="M593 745q60 -27 66 -111q18 -281 -152 -469q114 7 293 49q42 8 56 -39q24 -83 -1 -151q-25 -44 -55 -53q-76 -17 -137 -19q30 -81 20.5 -188t-63 -185.5t-138.5 -79.5q-224 -1 -276 417l-79 11l1 76q-77 -33 -130.5 -33t-73.5 95q-5 26 -11 75t50 68q17 5 36 7
q95 5 239 53q68 214 219 391q58 66 83.5 81.5t52.5 4.5zM538 436q-30 50 -76 34q-94 -35 -152 -180q178 76 228 146zM305 -88q44 -121 131.5 -157.5t161.5 9.5q-72 126 -293 148z" />
    <glyph glyph-name="uni06BF.init" unicode="&#x6bf;" horiz-adv-x="1343" 
d="M13 455q19 72 93 143t146 72t337 -109.5t588 -96.5q60 3 22 -80l-57 -126q-17 -38 -42 -35q-236 39 -442.5 -25.5t-370.5 -146t-287 -81.5q-33 1 -49 39q-27 73 -12 129t31 65.5t27 11.5q316 19 530 119q-293 131 -473 75q-57 -20 -41 46zM564 1078q12 17 35 10
q84 -30 150 -88q17 -17 6 -37l-98 -155q-16 -21 -37 -4.5t-148 92.5q-21 13 -7 34zM708 -614q-12 -16 -35 -10q-84 30 -150 88q-17 16 -6 36l98 156q16 21 37 4.5t148 -92.5q21 -14 7 -34zM565 -388q-12 -16 -35 -10q-84 30 -150 88q-17 16 -6 36l98 156q15 22 34.5 6
t94.5 -62l64 102q16 21 37 4.5t148 -92.5q21 -14 7 -34l-99 -148q-24 -34 -135 40z" />
    <glyph glyph-name="uni06BF.medi" unicode="&#x6bf;" horiz-adv-x="1250" 
d="M25 454q54 222 268 222q97 0 300 -97q97 -46 265 -72t327 -8q71 9 55 -45l-46 -151q-11 -36 -57 -32q-82 7 -142 9q-29 -76 256 -69q120 3 67 -174q-20 -61 -64 -67q-169 -21 -270 16q-142 52 -76 288q-166 -15 -311 -69t-328.5 -145.5t-268.5 -89.5q-48 1 -69.5 54.5
t-7.5 116.5t73 74q172 31 296.5 82t200.5 72q-288 95 -402 37q-39 -20 -59 -12t-7 60zM604 1078q12 17 35 10q84 -30 150 -88q17 -17 6 -37l-98 -155q-16 -21 -37 -4.5t-148 92.5q-21 13 -7 34zM698 -602q-12 -16 -35 -10q-84 30 -150 88q-17 16 -6 36l98 156q16 21 37 4.5
t148 -92.5q21 -14 7 -34zM555 -376q-12 -16 -35 -10q-84 30 -150 88q-17 16 -6 36l98 156q15 22 34.5 6t94.5 -62l64 102q16 21 37 4.5t148 -92.5q21 -14 7 -34l-99 -148q-24 -34 -135 40z" />
    <glyph glyph-name="uni06C1.init" unicode="&#x6c1;" horiz-adv-x="926" arabic-form="initial" 
d="M493 475q7 -77 -74 -150q188 -72 293 -74q19 0 10 24q-30 93 -229 200zM332 360q68 34 68 45q-10 118 -64 128q-82 17 -143 -61q-20 -25 15 -48q56 -38 124 -64zM278 161q-173 -190 -278 -191q-40 0 -60 48q-72 182 60 198q86 10 126 32q-61 48 -28.5 148t120.5 199
q-12 6 -36 9t-31 25.5t-4 37.5q53 203 156.5 202.5t301 -188.5t218.5 -306q25 -152 -71 -262q-56 -65 -133 -57q-153 17 -341 105z" />
    <glyph glyph-name="uni06C1.medi" unicode="&#x6c1;" horiz-adv-x="800" arabic-form="medial" 
d="M593 745q60 -27 66 -111q18 -281 -152 -469q114 7 293 49q42 8 56 -39q24 -83 -1 -151q-25 -44 -55 -53q-76 -17 -137 -19q30 -81 20.5 -188t-63 -185.5t-138.5 -79.5q-224 -1 -276 417l-79 11l1 76q-77 -33 -130.5 -33t-73.5 95q-5 26 -11 75t50 68q17 5 36 7
q95 5 239 53q68 214 219 391q58 66 83.5 81.5t52.5 4.5zM538 436q-30 50 -76 34q-94 -35 -152 -180q178 76 228 146zM305 -88q44 -121 131.5 -157.5t161.5 9.5q-72 126 -293 148z" />
    <glyph glyph-name="uni06CC.init" unicode="&#x6cc;" horiz-adv-x="390" arabic-form="initial" 
d="M105 436l58 127q31 68 54 27q100 -173 46.5 -396.5t-263.5 -223.5q-42 0 -59.5 68.5t-16.5 111t44 59.5q15 6 32 6q119 -3 173 47q-11 51 -49 92t-19 82zM291 -223q12 17 35 10q84 -30 150 -88q17 -17 6 -37l-98 -155q-16 -21 -35.5 -5.5t-108.5 69.5l-69 -110
q-16 -21 -37 -4.5t-148 92.5q-21 13 -7 34l99 148q12 17 35 10q62 -22 114 -59z" />
    <glyph glyph-name="uni06CC.medi" unicode="&#x6cc;" horiz-adv-x="500" arabic-form="medial" 
d="M372 296q61 -77 128 -82q56 -5 66 -42q6 -26 -1.5 -86t-21 -87.5t-43.5 -28.5q-119 0 -222 130q-126 -130 -278 -130q-44 1 -55 55l-18 83q-7 34 15 69t58 38q243 18 299 120q17 31 39 31q30 0 31.5 -33.5t2.5 -36.5zM331 -123q12 17 35 10q84 -30 150 -88q17 -17 6 -37
l-98 -155q-16 -21 -35.5 -5.5t-108.5 69.5l-69 -110q-16 -21 -37 -4.5t-148 92.5q-21 13 -7 34l99 148q12 17 35 10q62 -22 114 -59z" />
    <glyph glyph-name="uni06CE.init" unicode="&#x6ce;" horiz-adv-x="390" 
d="M105 436l58 127q31 68 54 27q100 -173 46.5 -396.5t-263.5 -223.5q-42 0 -59.5 68.5t-16.5 111t44 59.5q15 6 32 6q119 -3 173 47q-11 51 -49 92t-19 82zM329 1165l39 -56q18 -30 -1 -54q-99 -164 -133 -283q-2 -5 -5 -8l-19 -14q-24 -16 -46 10q-118 146 -185 311
q-21 53 19.5 66.5t59.5 -33.5q25 -66 87 -174q43 134 124 232q17 19 33.5 18.5t26.5 -15.5zM291 -223q12 17 35 10q84 -30 150 -88q17 -17 6 -37l-98 -155q-16 -21 -35.5 -5.5t-108.5 69.5l-69 -110q-16 -21 -37 -4.5t-148 92.5q-21 13 -7 34l99 148q12 17 35 10
q62 -22 114 -59z" />
    <glyph glyph-name="uni06CE.medi" unicode="&#x6ce;" horiz-adv-x="500" 
d="M372 296q61 -77 128 -82q56 -5 66 -42q6 -26 -1.5 -86t-21 -87.5t-43.5 -28.5q-119 0 -222 130q-126 -130 -278 -130q-44 1 -55 55l-18 83q-7 34 15 69t58 38q243 18 299 120q17 31 39 31q30 0 31.5 -33.5t2.5 -36.5zM331 -123q12 17 35 10q84 -30 150 -88q17 -17 6 -37
l-98 -155q-16 -21 -35.5 -5.5t-108.5 69.5l-69 -110q-16 -21 -37 -4.5t-148 92.5q-21 13 -7 34l99 148q12 17 35 10q62 -22 114 -59zM404 1105l39 -56q18 -30 -1 -54q-99 -164 -133 -283q-2 -5 -5 -8l-19 -14q-24 -16 -46 10q-118 146 -185 311q-21 53 19.5 66.5t59.5 -33.5
q25 -66 87 -174q43 134 124 232q17 19 33.5 18.5t26.5 -15.5z" />
    <glyph glyph-name="uni06D0.init" unicode="&#x6d0;" horiz-adv-x="390" arabic-form="initial" 
d="M105 436l58 127q31 68 54 27q100 -173 46.5 -396.5t-263.5 -223.5q-42 0 -59.5 68.5t-16.5 111t44 59.5q15 6 32 6q119 -3 173 47q-11 51 -49 92t-19 82zM124 -222q12 17 35 10q84 -30 150 -88q17 -17 6 -37l-57 -91q49 -26 91 -62q17 -17 6 -37l-98 -155
q-16 -21 -37 -4.5t-148 92.5q-21 13 -7 34l65 97l-98 59q-21 13 -7 34z" />
    <glyph glyph-name="uni06D0.medi" unicode="&#x6d0;" horiz-adv-x="500" arabic-form="medial" 
d="M372 296q61 -77 128 -82q56 -5 66 -42q6 -26 -1.5 -86t-21 -87.5t-43.5 -28.5q-119 0 -222 130q-126 -130 -278 -130q-44 1 -55 55l-18 83q-7 34 15 69t58 38q243 18 299 120q17 31 39 31q30 0 31.5 -33.5t2.5 -36.5zM214 -222q12 17 35 10q84 -30 150 -88q17 -17 6 -37
l-57 -91q49 -26 91 -62q17 -17 6 -37l-98 -155q-16 -21 -37 -4.5t-148 92.5q-21 13 -7 34l65 97l-98 59q-21 13 -7 34z" />
    <glyph glyph-name="uni06D1.init" unicode="&#x6d1;" horiz-adv-x="390" 
d="M105 436l58 127q31 68 54 27q100 -173 46.5 -396.5t-263.5 -223.5q-42 0 -59.5 68.5t-16.5 111t44 59.5q15 6 32 6q119 -3 173 47q-11 51 -49 92t-19 82zM329 -762q-12 -16 -35 -10q-84 30 -150 88q-17 16 -6 36l98 156q16 21 37 4.5t148 -92.5q21 -14 7 -34zM186 -536
q-12 -16 -35 -10q-84 30 -150 88q-17 16 -6 36l98 156q15 22 34.5 6t94.5 -62l64 102q16 21 37 4.5t148 -92.5q21 -14 7 -34l-99 -148q-24 -34 -135 40z" />
    <glyph glyph-name="uni06D1.medi" unicode="&#x6d1;" horiz-adv-x="500" 
d="M372 296q61 -77 128 -82q56 -5 66 -42q6 -26 -1.5 -86t-21 -87.5t-43.5 -28.5q-119 0 -222 130q-126 -130 -278 -130q-44 1 -55 55l-18 83q-7 34 15 69t58 38q243 18 299 120q17 31 39 31q30 0 31.5 -33.5t2.5 -36.5zM369 -662q-12 -16 -35 -10q-84 30 -150 88
q-17 16 -6 36l98 156q16 21 37 4.5t148 -92.5q21 -14 7 -34zM226 -436q-12 -16 -35 -10q-84 30 -150 88q-17 16 -6 36l98 156q15 22 34.5 6t94.5 -62l64 102q16 21 37 4.5t148 -92.5q21 -14 7 -34l-99 -148q-24 -34 -135 40z" />
    <glyph glyph-name="uni06FA.init" unicode="&#x6fa;" horiz-adv-x="1164" 
d="M322 424q64 -1 9 -108q57 -45 143 -46q137 -2 228 252q14 39 44 28.5t24 -47.5l-18 -71q38 -31 100 -51t100 -19q-15 61 -32 92t5 67l63 103q33 35 51 -50q29 -142 -2 -274t-104 -178q-8 -5 -29 -6q-142 -5 -246 83q-76 -148 -204 -182.5t-257 100.5q-123 -146 -197 -147
q-43 0 -58 67q-8 38 -11 68q-10 102 66 110q203 21 291 180q16 29 34 29zM553 1303q12 17 35 10q84 -30 150 -88q17 -17 6 -37l-98 -155q-16 -21 -37 -4.5t-148 92.5q-21 13 -7 33zM698 1074q12 17 35 10q84 -30 150 -88q17 -17 6 -37l-98 -155q-15 -22 -34.5 -6.5
t-94.5 61.5l-64 -102q-16 -21 -37 -4.5t-148 92.5q-21 13 -7 34l99 148q24 34 135 -39zM604 -72q12 17 35 10q84 -30 150 -88q17 -17 6 -37l-98 -155q-16 -21 -37 -4.5t-148 92.5q-21 13 -7 34z" />
    <glyph glyph-name="uni06FA.medi" unicode="&#x6fa;" horiz-adv-x="1165" 
d="M260 343q16 43 56 29q38 -14 9 -75q-8 -17 -18 -36q222 -79 318 121q19 44 54 30t16.5 -64t-17.5 -66q4 -43 80.5 -52t100.5 24t47 140q6 28 34 28t37 -24q64 -172 188 -183q47 -7 61.5 -74t-2 -119t-59.5 -52q-184 0 -250 208q-29 -93 -63 -156.5t-92 -65.5
q-141 -5 -222 92q-82 -78 -194 -77.5t-178 66.5q-80 -66 -166 -67q-57 0 -72 99q-4 25 -7 71q-3 50 47 68q17 6 32 7q220 16 260 128zM498 1180q12 17 35 10q84 -30 150 -88q17 -17 6 -37l-98 -155q-16 -21 -37 -4.5t-148 92.5q-21 13 -7 33zM643 951q12 17 35 10
q84 -30 150 -88q17 -17 6 -37l-98 -155q-15 -22 -34.5 -6.5t-94.5 61.5l-64 -102q-16 -21 -37 -4.5t-148 92.5q-21 13 -7 34l99 148q24 34 135 -39zM504 -272q12 17 35 10q84 -30 150 -88q17 -17 6 -37l-98 -155q-16 -21 -37 -4.5t-148 92.5q-21 13 -7 34z" />
    <glyph glyph-name="uni06FB.init" unicode="&#x6fb;" horiz-adv-x="1430" 
d="M156 154q-63 -187 -156 -184q-31 1 -50 41q-36 86 -16 140t59 63q111 23 179 142q24 43 60 42.5t64 -45.5q53 -85 210 -136q101 114 163 169q264 227 403 228q76 1 171 -76q75 -61 59 -149t-71 -187.5t-83 -120.5q-197 -142 -481 -143q-112 1 -232 30q-26 -53 -42 -127
q-11 -49 -50.5 -35.5t-30.5 62.5t41 132q-103 33 -197 154zM1167 262q-119 90 -266 80q-112 -7 -296 -149q103 -4 306 14.5t256 54.5zM588 1022q12 17 35 10q84 -30 150 -88q17 -17 6 -37l-98 -155q-16 -21 -37 -4.5t-148 92.5q-21 13 -7 34zM754 -272q12 17 35 10
q84 -30 150 -88q17 -17 6 -37l-98 -155q-16 -21 -37 -4.5t-148 92.5q-21 13 -7 34z" />
    <glyph glyph-name="uni06FB.medi" unicode="&#x6fb;" horiz-adv-x="1480" 
d="M1221 393q-157 108 -345.5 -2.5t-249.5 -180.5q132 7 311 57t284 126zM475 -13q-21 -54 -31 -104q-11 -57 -52 -50q-49 9 -22 107q22 77 23 79q-108 32 -184 128q-110 -176 -206 -177q-49 0 -67 55q-37 120 29 180q12 11 35 10q118 0 226 125q16 19 35 17q17 -2 44 -32
q74 -87 217 -101q119 173 283 314.5t287 170.5q94 19 182.5 -43.5t110.5 -155.5q-32 -150 -96 -253q87 -31 191 -42q46 -4 54 -94q9 -94 -12 -126q-15 -23 -40 -25q-159 -19 -406 104q-251 -150 -601 -87zM666 1115q12 17 35 10q84 -30 150 -88q17 -17 6 -37l-98 -155
q-16 -21 -37 -4.5t-148 92.5q-21 13 -7 34zM754 -272q12 17 35 10q84 -30 150 -88q17 -17 6 -37l-98 -155q-16 -21 -37 -4.5t-148 92.5q-21 13 -7 34z" />
    <glyph glyph-name="uni06FC.init" unicode="&#x6fc;" horiz-adv-x="978" 
d="M867 508l-42 -165q-7 -27 -51 -45.5l-299 -120.5l-476 -207q-68 0 -90.5 100.5t79.5 142.5l121 51q-110 93 -79 223q65 276 295 384q58 27 138 -11t161 -122q43 -45 30.5 -71.5t-102.5 -1t-222.5 -4.5t-175.5 -121q-12 -25 57 -85q172 -148 499 58l76 47q112 71 81 -52z
M254 1228q12 17 35 10q84 -30 150 -88q17 -17 6 -37l-98 -155q-16 -21 -37 -4.5t-148 92.5q-21 13 -7 34zM444 -72q12 17 35 10q84 -30 150 -88q17 -17 6 -37l-98 -155q-16 -21 -37 -4.5t-148 92.5q-21 13 -7 34z" />
    <glyph glyph-name="uni06FC.medi" unicode="&#x6fc;" horiz-adv-x="750" 
d="M750 215q77 -1 90 -64q4 -21 2 -43q-20 -138 -90 -138q-211 1 -384 208q-236 -208 -369 -208q-73 0 -90.5 102.5t46.5 132.5q20 9 44 10q132 4 222 57q-39 31 -169 49q-43 6 -35 58q15 84 116 163q192 148 430 12q120 -71 101 -150q-17 -76 -141 -148q66 -39 227 -41z
M214 1128q12 17 35 10q84 -30 150 -88q17 -17 6 -37l-98 -155q-16 -21 -37 -4.5t-148 92.5q-21 13 -7 34zM274 -72q12 17 35 10q84 -30 150 -88q17 -17 6 -37l-98 -155q-16 -21 -37 -4.5t-148 92.5q-21 13 -7 34z" />
    <glyph glyph-name="uni06FF.init" unicode="&#x6ff;" horiz-adv-x="926" 
d="M300 956q-11 -42 -48 -41t-39 37q0 12 5 28q49 173 150 330q21 28 45 14t26 -18q48 -116 162 -267q21 -24 6 -55l-32 -60q-9 -16 -26 -18t-35 15q-90 89 -147 217q-50 -115 -67 -182zM79 231q-6 72 16.5 159t132.5 211q111 124 190 144q83 22 120 -125q4 -10 13 -14
q197 -96 268 -172q27 -30 33.5 -92.5t-15.5 -141.5t-72 -129q-51 -50 -230 -42.5t-301 42.5q-106 -67 -226 -100q-52 -12 -72 55q-42 141 25 179q15 8 50 11.5t68 14.5zM283 294q80 35 97 60.5t-1 86.5t-39 62q-21 0 -71 -44t-83 -108q14 -37 97 -57zM511 388
q-17 -67 -57 -125q99 -12 170.5 -11t74.5 3q-53 61 -188 133z" />
    <glyph glyph-name="uni06FF.medi" unicode="&#x6ff;" horiz-adv-x="800" 
d="M593 745q60 -27 66 -111q18 -281 -152 -469q114 7 293 49q42 8 56 -39q24 -83 -1 -151q-25 -44 -55 -53q-76 -17 -137 -19q30 -81 20.5 -188t-63 -185.5t-138.5 -79.5q-224 -1 -276 417l-79 11l1 76q-77 -33 -130.5 -33t-73.5 95q-5 26 -11 75t50 68q17 5 36 7
q95 5 239 53q68 214 219 391q58 66 83.5 81.5t52.5 4.5zM538 436q-30 50 -76 34q-94 -35 -152 -180q178 76 228 146zM305 -88q44 -121 131.5 -157.5t161.5 9.5q-72 126 -293 148zM400 956q-11 -42 -48 -41t-39 37q0 12 5 28q49 173 150 330q21 28 45 14t26 -18
q48 -116 162 -267q21 -24 6 -55l-32 -60q-9 -16 -26 -18t-35 15q-90 89 -147 217q-50 -115 -67 -182z" />
    <glyph glyph-name="uniFDFA" unicode="&#xfdfa;" horiz-adv-x="2161" arabic-form="isolated" 
d="M948 763h-1q7 45 13 50q41 37 64.5 114.5t10.5 179.5l-26 199l-31 221q-2 17 29 146q2 9 12 8t11 -7q72 -493 130 -591t166 -93q123 6 205 87q8 14 23.5 14.5t27.5 -16.5q36 -56 122 -83q48 54 97 97q144 124 231 124q32 0 80.5 -35t48.5 -69t-33 -94t-46 -71
q-106 -76 -278 -76q-67 1 -126 16l-31 -93q-3 -10 -14 -13q-23 0 -25 23v4q6 40 29 95q-59 25 -82.5 53t-30 28t-22.5 -16q-85 -83 -209.5 -79.5t-203.5 157.5q-6 -99 -70 -214q110 -17 142.5 -42.5t33.5 -33.5q9 -100 -60 -156q-166 -131 -331 -131t-238 82
q-128 143 57 452q3 6 12 8q18 -2 10 -20q-61 -105 -69 -146q-18 -89 23 -167q55 -105 234.5 -93t315.5 130q-40 23 -201 51zM2083 1038q-60 54 -117.5 54.5t-124 -43t-89.5 -68.5q67 -10 193 4t141 48q0 2 -3 5zM845 893q-5 -8 -11 -8t-6 19q0 158 -8 219q-10 80 -24 219
l-25 225q-2 18 5 39l26 59q8 21 13.5 21t7.5 -19l27 -291q44 -388 -5 -483zM416 1652q5 14 15.5 13.5t10.5 -14.5q1 -41 28.5 -41t32 32.5t17.5 32.5q10 -2 10 -33t-17 -73t-48 -43.5t-51 21.5q-25 -43 -62 -43q-54 0 -54 54q0 43 9.5 71.5t19.5 29.5t10 -15l-1 -20
q0 -14 10.5 -32t31.5 -6.5t38 66.5zM452 1065q-47 223 -52 270.5t3 60.5l33 53q12 18 18 -7q1 1 25 -162.5t51 -204.5q48 -76 121 -54q-1 29 -35.5 175t-36.5 168t5 33l28 48q9 16 18 -11l59 -270q18 -92 13 -140q-14 -137 -79 -138q-51 0 -83 29.5t-62 88.5
q-44 -120 -142 -117.5t-116 116.5q-37 -54 -64 -60q-92 -20 -147 18q-17 14 -2 61.5t70 95.5q56 47 123 63l-1 56v1q1 32 43 94q13 18 15 -3q0 -29 2 -134q5 -186 86 -187t107 57zM204 1126q-23 -5 -64 -25t-55 -43q20 -15 64.5 -12t59.5 16q-2 15 -5 64zM197 676l-4 71
q-1 24 11 36l24 23q15 14 18 -12q-1 -8 11 -131q28 -310 408 -310q335 0 474 115q92 -121 161.5 -76t88.5 115q-52 256 -65 685q0 15 9 33l44 81q2 3 8 6q3 -1 4 -12q26 -482 45 -617q37 -282 232 -300q-38 51 -38.5 128.5t66.5 142.5q146 144 285 -11q12 -13 4 -26
q-9 -12 -24 -7q-110 38 -219 0q-55 -20 -55.5 -49t40 -92t100.5 -62q98 2 222 76q70 41 52 2l-32 -77q-6 -18 -54 -45q-169 -92 -357.5 -87.5t-245.5 171.5q-9 -23 -31 -57q-86 -133 -162 -114q-52 14 -108 72q-155 -99 -443 -99q-348 0 -429 228q-32 -61 -68.5 -75.5
t-82.5 -6.5q-84 15 -86 59q1 23 23 64.5t33 54.5q50 57 141 103zM74 523q5 -20 68.5 -18.5t80.5 16.5q-8 31 -18 85q-114 -32 -131 -83zM1019 206q2 4 29 -6q25 -9 62 -40q3 -5 2 -10l-55 -87q-3 -4 -11 2q-7 6 -65 41l-44 -69q0 4 -12 2q-28 -2 -80 51q-2 2 -2 6l56 83
q3 4 26 -3q22 -7 54 -31zM1664 -232q1 7 28 4.5t67.5 -2.5t90 11.5t141 92t109.5 135.5q-6 47 -15 52q-29 -45 -57 -44q-93 0 -94 86q0 38 20 93q39 110 94 111q32 0 66 -53.5t34 -115.5q0 -190 -120 -327q-75 -86 -126.5 -90.5t-144.5 11.5t-93 33v3zM2057 153
q-33 54 -71 6q28 -32 71 -6zM1789 44q34 2 11 77q-1 30 19 49.5t28 5t8.5 -61t-7.5 -82.5q-23 -91 -61 -94h-8q-77 0 -134 57q-49 -115 -138 -117q-58 1 -118 63q-155 -85 -426 -85q-465 1 -528 316q-6 -97 -47 -148q52 -21 74.5 -63t-24.5 -138q-12 -20 -45 -20h-1
q-72 1 -123 39q-23 -70 -62 -91q-89 -46 -191 -38q-15 1 -16 13q1 7 12 12q228 91 227 151v19q0 80 43 110q24 17 47 20q82 58 82 195v16l-35 374v1q0 10 7 24l24 49q7 13 14 12.5t20.5 -142.5t22.5 -205q22 -170 83 -259q104 -145 430 -144t472 108q16 12 21 2
q8 -13 -22 -43q34 -41 94 -37q54 6 130 157q2 7 14 7q12 -1 11 -16l-11 -49q41 -42 103 -44zM427 -107q-39 75 -116 75q-26 0 -40 -21q73 -52 156 -54zM1686 1671q40 14 21 -17l-21 -34q-10 -16 -222 -86l-282 -97q-34 -12 -9 23l15 21q14 20 35 28zM2131 1556q40 14 21 -17
l-21 -34q-9 -16 -221 -86l-283 -97q-34 -12 -9 23l15 21q15 21 35 28z" />
    <glyph glyph-name=".notdef" horiz-adv-x="748" 
d="M68 0v1365h544v-1365h-544zM136 68h408v1229h-408v-1229z" />
    <glyph glyph-name="glyph1" horiz-adv-x="0" 
 />
    <glyph glyph-name="glyph2" horiz-adv-x="682" 
 />
    <glyph glyph-name="space" unicode=" " horiz-adv-x="600" 
 />
    <glyph glyph-name="space" unicode="&#xa0;" horiz-adv-x="600" 
 />
    <glyph glyph-name="exclam" unicode="!" horiz-adv-x="540" 
d="M118 132q0 60 44 103t106 43t106 -45.5t44 -106.5q0 -60 -43.5 -104t-104.5 -44q-63 0 -107.5 45t-44.5 109zM276 1374q50 0 87 -37t37 -99q0 -40 -32 -348l-52 -448q-6 -51 -42 -51q-41 0 -47 53q-31 228 -51 424q-32 302 -32 372q0 62 38 98t94 36z" />
    <glyph glyph-name="quotedbl" unicode="&#x22;" horiz-adv-x="662" 
d="M516 1400q38 0 62 -32q0 -51 -11.5 -208.5t-22.5 -251.5q-16 -28 -48 -46q-14 0 -20 16q-84 286 -84 356q0 56 35.5 111t88.5 55zM196 1400q38 0 62 -32q0 -51 -11.5 -208.5t-22.5 -251.5q-16 -28 -48 -46q-14 0 -20 16q-84 286 -84 356q0 56 35.5 111t88.5 55z" />
    <glyph glyph-name="numbersign" unicode="#" horiz-adv-x="950" 
d="M657 430h131q12 -5 11 -32.5t-14 -61.5t-25 -40h-124l-36 -224q-2 -7 -21.5 -16.5t-40.5 -9.5q-9 0 -14.5 2t-6.5 4l-1 2l39 242h-243l-36 -224q-2 -7 -21 -16.5t-39 -9.5q-9 0 -14.5 2t-6.5 4l-1 2l39 242h-131q-10 5 -7.5 33t16 62.5t25.5 38.5h118l40 248h-136
q-10 5 -8 33t15 62.5t25 38.5h126l36 224q9 26 58 26q17 0 26 -6l-40 -244h242l36 224q9 26 58 26q17 0 26 -6l-39 -244h123q12 -5 11.5 -32.5t-13 -61.5t-24.5 -40h-119zM576 430l40 248h-241l-41 -248h242z" />
    <glyph glyph-name="dollar" unicode="$" horiz-adv-x="1036" 
d="M576 1336q78 0 78 -16l-8 -48q23 -4 42 -8q30 -6 83 -18l81 -18q8 -77 20 -318q-8 -10 -20 -10q-55 0 -58 12q-6 43 -26 91t-51 94t-78 75q-4 3 -8 5l-65 -395q40 -29 88 -60q17 -11 48.5 -29.5l50 -30t46.5 -32t44.5 -38t36.5 -45.5t30.5 -57t18 -69.5t7.5 -86.5
q0 -101 -61 -183.5t-156 -126.5t-201 -44q-38 0 -82 3l-10 -63q-22 0 -50 4.5t-28 13.5l9 54q-92 13 -203 38q-13 56 -27.5 164.5t-18.5 161.5q5 8 26 17t30 9q21 0 24 -16q7 -41 32.5 -92t63.5 -100q37 -45 90 -77l71 438q-35 24 -43 29q-116 78 -148 104q-111 93 -128 213
q-4 26 -4 55q0 95 61 176t154.5 125.5t192.5 44.5q18 0 37 -1zM518 486l-68 -421q24 -5 48 -5q31 0 60 8.5t59 27.5t48.5 58t18.5 94q0 36 -15.5 72t-34.5 61t-56.5 57t-57.5 47q-1 0 -2 1zM495 840l59 361q-7 1 -14 1q-66 0 -115 -39.5t-49 -126.5q0 -90 119 -196z" />
    <glyph glyph-name="percent" unicode="%" horiz-adv-x="1372" 
d="M374 1222q-35 0 -57.5 -20t-32.5 -56.5t-13 -69t-3 -76.5q0 -63 13.5 -120.5t46 -100.5t78.5 -43q35 0 58 19.5t33 55.5t13.5 68t3.5 75q0 63 -14 122t-47 102.5t-79 43.5zM390 1282q137 0 225.5 -85t88.5 -213q0 -127 -90.5 -218.5t-221.5 -91.5q-138 0 -226 86t-88 214
q0 127 90.5 217.5t221.5 90.5zM968 548q-35 0 -57.5 -20t-32.5 -56.5t-13 -69t-3 -76.5q0 -63 13.5 -120.5t46 -100.5t78.5 -43q35 0 58 19.5t33 55.5t13.5 68t3.5 75q0 63 -14 122t-47 102.5t-79 43.5zM984 608q137 0 225.5 -85t88.5 -213q0 -127 -90.5 -218.5
t-221.5 -91.5q-138 0 -226 86t-88 214q0 127 90.5 217.5t221.5 90.5zM1246 1270l-1032 -1280q-7 -10 -32.5 -20t-49.5 -10q-13 0 -20.5 6t-8.5 12l-1 6l1032 1280q30 26 80 26q13 0 22.5 -6t9.5 -14z" />
    <glyph glyph-name="ampersand" unicode="&#x26;" horiz-adv-x="1392" 
d="M764 190l-316 436q-76 -66 -76 -186q0 -51 16 -102t47 -95t83.5 -71.5t117.5 -27.5q74 0 128 46zM624 1218q-52 0 -83 -46.5t-31 -119.5q0 -105 98 -238q130 68 130 212q0 27 -5.5 57.5t-17.5 62t-35.5 52t-55.5 20.5zM590 1290q154 0 254 -64t100 -168q0 -64 -26.5 -119
t-71 -93t-90 -63t-96.5 -43l137.5 -186l142.5 -192l21.5 25l24 28l22.5 26.5t21.5 27l16 22.5t12.5 20t4 13q0 20 -20 28t-48.5 8h-29.5q-6 9 -5.5 35t7.5 29l136 -2q74 -2 256 6q6 -3 5.5 -30t-9.5 -36q-1 0 -22 -1.5t-40 -3.5t-41.5 -8.5t-34.5 -16.5t-54.5 -57.5
l-93.5 -105t-72 -79.5l12 -14l22.5 -26.5t28 -30t31 -29.5t29 -21t25.5 -9q13 0 27.5 6.5t25.5 14.5t24 22t20 22.5l18 23t13 17.5q13 0 27.5 -10.5t22.5 -25.5q-4 -11 -31 -47t-66.5 -79.5t-91.5 -76.5t-95 -33q-51 0 -94.5 20.5t-66.5 42t-59 63.5q-134 -128 -344 -128
q-63 0 -126.5 22t-116.5 61.5t-86 101.5t-33 135q0 63 18 119t42 92.5t64 73t68.5 55.5l69.5 45q12 7 18 11q-4 6 -27 37.5t-32.5 48.5t-25.5 48.5t-22.5 65.5t-6.5 72q0 136 86 223t226 87z" />
    <glyph glyph-name="quotesingle" unicode="'" horiz-adv-x="362" 
d="M212 1422q55 0 76 -44q-25 -319 -46 -438q-17 -25 -52 -38q-15 0 -24 12q-5 14 -22 57.5l-24 62.5l-20 56.5t-18.5 60.5t-10.5 51.5t-5 51.5q0 68 42 118t104 50z" />
    <glyph glyph-name="parenleft" unicode="(" horiz-adv-x="940" 
d="M530 342q0 -463 187 -835q87 -172 169 -244l-24 -55q-168 90 -311 273q-279 358 -279 861q0 501 279 859q143 183 311 273l24 -55q-82 -72 -169 -244q-187 -372 -187 -833z" />
    <glyph glyph-name="parenright" unicode=")" horiz-adv-x="940" 
d="M410 342q0 461 -187 833q-87 172 -169 244l24 55q168 -90 311 -273q279 -358 279 -859q0 -503 -279 -861q-143 -183 -311 -273l-24 55q82 72 169 244q187 372 187 835z" />
    <glyph glyph-name="asterisk" unicode="*" horiz-adv-x="882" 
d="M575 1236q30 34 73.5 36.5t64.5 -20.5q26 -26 27 -63t-29 -75q-27 -31 -63.5 -45t-72 -24.5t-58.5 -32.5q-14 -16 -14 -26t16 -16q33 -15 99.5 -16.5t112.5 -21.5q41 -17 57 -57t1 -71q-16 -32 -52 -44t-80 4q-30 13 -52.5 35t-34 42t-30.5 41.5t-41 33.5q-2 1 -5.5 2.5
t-12 4.5t-10.5 -1q-6 -3 -8 -16q-4 -36 14.5 -99t13.5 -113q-4 -44 -36.5 -70.5t-65.5 -23.5q-36 6 -60 37t-20 75q5 52 47.5 108t48.5 90q2 20 -4 28q-2 5 -18 2q-35 -8 -90 -44.5t-104 -47.5q-44 -10 -78.5 12.5t-41.5 55.5q-5 36 16.5 68t65.5 42q40 9 77.5 -0.5
t73.5 -21.5t67 -8q24 2 26 12q2 6 -8 22q-18 31 -70 71.5t-78 84.5q-22 42 -11.5 81t39.5 55q29 17 68 5.5t62 -49.5q21 -36 23.5 -75t1.5 -76t13 -65q10 -20 20 -22q10 0 18 8q25 27 47 89t55 99z" />
    <glyph glyph-name="plus" unicode="+" horiz-adv-x="1084" 
d="M482 948q14 11 42 16.5t42 5.5q32 0 32 -18l-2 -402h408q8 0 13 -9t5 -19q0 -53 -28 -88h-396v-396q-33 -22 -94 -22q-9 0 -15.5 5t-6.5 11v402h-408q-12 0 -12 32q0 54 20 84h398z" />
    <glyph glyph-name="comma" unicode="," horiz-adv-x="448" 
d="M238 278q44 0 88 -32q28 -52 28 -130q0 -136 -81 -255t-193 -175q-15 4 -28.5 21t-13.5 27q44 28 93 88t49 124q0 18 -10 32t-24 26.5t-28 27t-24 41.5t-10 63q0 15 7 36t23 46.5t48.5 42.5t75.5 17z" />
    <glyph glyph-name="hyphen" unicode="-" horiz-adv-x="750" 
d="M142 534q416 22 482 24q14 0 14 -18q0 -56 -30 -120q-41 -3 -482 -22q-14 0 -14 22q0 50 30 114z" />
    <glyph glyph-name="period" unicode="." horiz-adv-x="468" 
d="M84 132q0 60 44 103t106 43t106 -45.5t44 -106.5q0 -60 -43.5 -104t-104.5 -44q-63 0 -107.5 45t-44.5 109z" />
    <glyph glyph-name="slash" unicode="/" horiz-adv-x="706" 
d="M644 1457q34 0 38 -16l-517 -1814q-4 -15 -29 -28.5t-71 -13.5q-13 0 -22 3.5t-11 7.5l-3 3l517 1814q8 16 33 30t65 14z" />
    <glyph glyph-name="zero" unicode="0" horiz-adv-x="1090" 
d="M552 1166q-63 0 -106 -76.5t-62.5 -200t-19.5 -285.5q0 -231 55 -378.5t133 -147.5q47 0 81.5 45.5t54.5 127t29 182t9 223.5q0 237 -46 373.5t-128 136.5zM550 1250q90 0 169.5 -42.5t138.5 -121t93.5 -198.5t34.5 -266q0 -171 -58.5 -315.5t-159 -228.5t-218.5 -84
q-91 0 -171.5 42.5t-141.5 121t-97 198.5t-36 266q0 170 61 315.5t164 229t221 83.5z" />
    <glyph glyph-name="one" unicode="1" horiz-adv-x="1090" 
d="M446 290v674q0 65 -8.5 85.5t-33.5 20.5q-16 0 -65.5 -15t-78.5 -31q-11 6 -18.5 17t-7.5 21q0 23 4 24l214 93l179.5 79.5t64.5 27.5h4q8 0 15 -13.5t9 -24.5q-18 -58 -18 -188v-770q0 -148 16 -188q10 -27 128 -36q7 -11 6.5 -38t-6.5 -36q-136 14 -274 14t-274 -14
q-6 9 -6.5 36t6.5 38q118 9 128 36q16 40 16 188z" />
    <glyph glyph-name="two" unicode="2" horiz-adv-x="1090" 
d="M978 384q-8 -32 -27 -95l-36.5 -117.5l-36 -109.5t-20.5 -62h-728q-14 14 -18 36l104 113t115.5 127.5t88 111t108.5 154.5q116 184 116 356q0 96 -65 163t-149 67q-39 0 -75 -12.5t-62.5 -33.5t-44.5 -39t-32.5 -37t-15.5 -20q-10 0 -26 14t-16 34q15 33 46.5 72t81 81
t121.5 69.5t151 27.5q150 0 249 -89.5t99 -246.5q0 -170 -152 -348q-210 -245 -376 -396h344q18 0 34 3.5t28.5 8t25 14l21 16t18.5 21t15.5 21.5t14 24t11 23.5t10.5 24.5t10 22q6 14 28 14q25 0 40 -12z" />
    <glyph glyph-name="three" unicode="3" horiz-adv-x="1090" 
d="M576 1284q32 0 68.5 -7t79 -25.5t76 -46.5t56 -74t22.5 -103q0 -59 -26 -111.5t-65 -87t-70.5 -55t-56.5 -30.5q24 -1 56 -9.5t76 -30.5t80 -54t61 -87t25 -123q0 -102 -47.5 -189t-124 -143.5t-171 -88t-191.5 -31.5q-89 0 -160.5 22.5t-107.5 51.5q-10 12 -17 40.5
t-7 45.5q0 40 28 73t76 33q9 0 17.5 -1.5t17 -6l15 -8t15.5 -11.5t14 -12t14 -14.5t12 -13t12.5 -14.5t10.5 -13q75 -88 140 -88q92 0 140 74t48 210q0 118 -59.5 203t-156.5 85q-45 0 -112 -18q-16 20 -16 48v18q38 7 75 17.5t78 29.5t72 42.5t51 58.5t20 76
q0 95 -50.5 157.5t-137.5 62.5q-69 0 -132.5 -38.5t-87.5 -65.5q-10 3 -17 22t-7 34q63 83 158 139.5t206 56.5z" />
    <glyph glyph-name="four" unicode="4" horiz-adv-x="1090" 
d="M824 1288q11 0 31.5 -20t20.5 -36v-748h92q11 0 19.5 -26t8.5 -68q0 -13 -5 -23.5t-10 -14.5l-5 -4h-100v-340q-52 -18 -136 -18q-116 0 -116 26v332h-508q-20 10 -20 50l362 453l326 409q24 28 40 28zM624 932l-356 -448h356v448z" />
    <glyph glyph-name="five" unicode="5" horiz-adv-x="1090" 
d="M554 846q97 0 189.5 -52t151.5 -142t59 -192t-46 -192t-120 -150.5t-168 -95t-190 -34.5q-89 0 -162 23t-108 51q-10 12 -17 40.5t-7 45.5q0 40 28 73t76 33q9 0 17.5 -1.5t17 -6l15 -8t15.5 -11.5t14 -12t14 -14.5t12 -13t12.5 -14.5t10.5 -13q75 -88 142 -88
q92 0 140 74t48 210q0 86 -46 157t-108.5 107t-121.5 36q-114 0 -184 -28q-8 0 -14 14.5t-6 25.5q1 3 25.5 131l52 277t34.5 194h356q81 0 184 22q1 0 5 -1.5t6 -2.5t5.5 -3t5 -4.5t3 -7t1.5 -9.5q0 -22 -29 -92t-45 -100q-124 -12 -300 -16q-64 -2 -134 -2l-46 -234
q108 26 212 26z" />
    <glyph glyph-name="six" unicode="6" horiz-adv-x="1090" 
d="M406 654q-14 -98 -14 -212q0 -68 8.5 -129.5t27 -117.5t52.5 -89.5t80 -33.5q60 0 99 80t39 212q0 91 -17.5 161.5t-62 118.5t-112.5 48q-22 0 -51.5 -9.5t-48.5 -28.5zM594 810q76 0 139.5 -21.5t115.5 -67t81.5 -124t29.5 -183.5q0 -114 -61 -213t-158.5 -156
t-202.5 -57q-109 0 -204 69.5t-149.5 184t-54.5 242.5q0 154 66 293.5t166 244.5q81 85 179.5 145.5t177 86.5t155.5 36q21 -16 14 -52q-353 -146 -458 -478q87 50 164 50z" />
    <glyph glyph-name="seven" unicode="7" horiz-adv-x="1090" 
d="M780 1274q31 0 73 2t73 4t34 2q14 0 14 -30q0 -5 -2.5 -12.5t-8 -19.5l-10.5 -23t-15.5 -31.5t-17.5 -35.5l-544 -1146q-8 -6 -34 -6q-22 0 -55 12t-33 36q64 91 241.5 426t312.5 620h-462q-36 0 -62.5 -14t-45 -43.5t-28 -50.5t-22.5 -60q-3 -10 -24 -12q-29 -3 -48 16
q39 147 88 364z" />
    <glyph glyph-name="eight" unicode="8" horiz-adv-x="1090" 
d="M552 72q71 0 110.5 46.5t39.5 117.5q0 44 -18.5 88.5t-41 75t-60 66t-55 49l-47.5 35.5q-12 10 -18 10q-9 0 -10 -2q-64 -79 -64 -246q0 -61 15.5 -113t54 -89.5t94.5 -37.5zM536 1184q-54 0 -88 -46t-34 -114q0 -48 19 -93t49 -76t55.5 -51t48.5 -32q15 -10 24 -10
q6 0 12 6q42 63 42 204q0 49 -12.5 95.5t-43 81.5t-72.5 35zM540 1266q95 0 178.5 -31.5t139.5 -98.5t56 -158q0 -89 -64 -159.5t-158 -110.5q-3 -2 -3 -5t3 -5q28 -16 57.5 -37.5t70 -58t71 -75.5t52 -90.5t21.5 -102.5q0 -103 -63 -183.5t-159.5 -121.5t-205.5 -41
q-80 0 -150 16.5t-130 52t-95 99.5t-35 150q0 115 76.5 195t179.5 111q6 3 -4 10l-29 24.5l-35.5 29.5t-36 33t-37 40t-32 45t-28 52.5t-17.5 58.5t-7 67q0 85 57 153.5t144.5 104.5t182.5 36z" />
    <glyph glyph-name="nine" unicode="9" horiz-adv-x="1090" 
d="M684 624q14 68 14 212q0 68 -8.5 129.5t-27 117.5t-52.5 89.5t-80 33.5q-60 0 -99 -80t-39 -212q0 -91 17.5 -161.5t62 -118.5t112.5 -48q22 0 51.5 9.5t48.5 28.5zM202 40q353 146 458 478q-87 -50 -164 -50q-76 0 -139.5 21.5t-115.5 67t-81.5 124t-29.5 183.5
q0 114 61 213t158.5 156t202.5 57q109 0 204 -69.5t149.5 -184t54.5 -242.5q0 -154 -66 -293.5t-166 -244.5q-81 -85 -179.5 -145.5t-177 -86.5t-155.5 -36q-21 16 -14 52z" />
    <glyph glyph-name="colon" unicode=":" horiz-adv-x="524" 
d="M112 716q0 60 44 103t106 43t106 -45.5t44 -106.5q0 -60 -43.5 -104t-104.5 -44q-63 0 -107.5 45t-44.5 109zM112 132q0 60 44 103t106 43t106 -45.5t44 -106.5q0 -60 -43.5 -104t-104.5 -44q-63 0 -107.5 45t-44.5 109z" />
    <glyph glyph-name="semicolon" unicode=";" horiz-adv-x="508" 
d="M278 278q44 0 88 -32q28 -52 28 -130q0 -136 -81 -255t-193 -175q-15 4 -28.5 21t-13.5 27q44 28 93 88t49 124q0 18 -10 32t-24 26.5t-28 27t-24 41.5t-10 63q0 15 7 36t23 46.5t48.5 42.5t75.5 17zM98 718q0 60 45 103t107 43q60 0 101 -43t41 -103q0 -62 -41 -109
t-101 -47q-62 0 -107 47.5t-45 108.5z" />
    <glyph glyph-name="less" unicode="&#x3c;" horiz-adv-x="990" 
d="M888 90q0 -15 -12 -67.5t-20 -52.5q-2 0 -10 4l-750 380q-36 19 -36 80q0 30 36 48l746 374q8 4 10 4q12 0 34 -114q1 -5 -0.5 -9.5t-3.5 -6.5l-2 -2l-636 -310l638 -316q6 -2 6 -12z" />
    <glyph glyph-name="equal" unicode="=" horiz-adv-x="1118" 
d="M953 268h-812q-10 4 -8.5 28.5t14.5 54.5t26 35h806q12 -4 11.5 -27.5t-12.5 -53.5t-25 -37zM953 556h-812q-10 4 -8.5 28.5t14.5 54.5t26 35h806q12 -4 11.5 -27.5t-12.5 -53.5t-25 -37z" />
    <glyph glyph-name="greater" unicode="&#x3e;" horiz-adv-x="990" 
d="M102 90q0 4 2 7q0 3 2 4l2 1l638 316l-636 310l-2 2t-3 6t-1 10q22 114 34 114q2 0 10 -4l746 -374q36 -18 36 -48q0 -61 -36 -80l-750 -380q-8 -4 -10 -4q-8 0 -20 52.5t-12 67.5z" />
    <glyph glyph-name="question" unicode="?" horiz-adv-x="798" 
d="M134 132q0 62 43 104t101 42q63 0 106.5 -42.5t43.5 -103.5q0 -62 -41.5 -108t-100.5 -46q-58 0 -105 44.5t-47 109.5zM232 1036q-55 0 -89.5 40t-34.5 92q0 25 9.5 54t20.5 38q60 34 180 34q32 0 78 -9.5t105.5 -35t109.5 -63t84.5 -101.5t34.5 -143q0 -32 -7 -61.5
t-16.5 -51.5t-29 -45.5t-33 -37.5t-41 -34t-40.5 -28l-44.5 -27t-40.5 -25l-42 -25.5l-48.5 -29.5t-39.5 -29.5t-34 -35.5q-4 -6 -6.5 -14t-3 -18.5t-1 -18.5t0 -19t0.5 -14q-3 -10 -13 -23t-17 -13q-22 0 -46 24q-14 31 -27 88.5t-13 111.5q0 41 13.5 76.5t40.5 64
t49.5 46.5t56.5 41q212 140 212 220q0 36 -29 66t-79 30q-24 0 -53 -19.5t-52.5 -42.5t-55 -42.5t-59.5 -19.5z" />
    <glyph glyph-name="at" unicode="@" horiz-adv-x="1534" 
d="M892 1156q143 0 254 -45.5t179.5 -125.5t103.5 -183t35 -222q0 -150 -61 -288t-164 -222t-217 -84q-81 0 -138.5 43t-57.5 129q0 37 8 58q-38 -73 -120.5 -149.5t-163.5 -76.5q-42 0 -74 10.5t-60.5 36t-44 77t-15.5 126.5q0 142 93.5 294t238 252t282.5 100q54 0 122 -8
t96 -18l-112 -606q-6 -24 -6 -50q0 -2 -0.5 -14t0 -17.5l1.5 -17t4 -18t8 -13.5t13.5 -10.5t19.5 -3.5q38 0 83 37t84.5 96.5t66 146.5t26.5 176q0 105 -27.5 194.5t-83.5 161.5t-151.5 113t-221.5 41q-99 0 -193.5 -30.5t-170.5 -83t-140.5 -124t-108 -153t-67.5 -170.5
t-24 -175q0 -166 77 -296t193 -198q70 -41 154 -54q0 -12 -28 -26t-52 -14q-43 0 -90 18q-146 54 -248 206t-102 354q0 117 38 236t110.5 224.5t169 187.5t222 130t260.5 48zM886 778q-80 0 -146.5 -73t-102 -183t-35.5 -226q0 -53 22 -80.5t58 -27.5q64 0 123.5 98.5
t92.5 261.5l40 204q-14 16 -23.5 21t-28.5 5z" />
    <glyph glyph-name="A" unicode="A" horiz-adv-x="1350" 
d="M188 268l426 980q10 22 34.5 49t39.5 27q13 0 26 -4.5t16 -9.5l410 -1014q14 -33 31 -78.5l25 -65.5q12 -28 36 -47.5t51 -26.5t43 -9.5t28 -2.5q7 -13 8.5 -40.5t-4.5 -33.5q-18 1 -117 8.5t-151 7.5q-41 0 -97 -3t-121 -7.5t-84 -5.5q-8 8 -8 41t8 33q29 0 63.5 9.5
t54.5 26.5q18 15 18 34q0 8 -30 84l-60 148l-30 72q-8 8 -14 8q-38 2 -192 2q-138 0 -208 -2q-9 0 -14 -10q-50 -112 -72 -168q-44 -110 -44 -136q0 -18 21.5 -32.5t50 -21.5t51 -10.5t31.5 -3.5q8 -12 7.5 -39.5t-5.5 -34.5q-140 16 -216 16q-78 0 -218 -16q-6 6 -8 30.5
t4 41.5q22 0 74 21t66 43q34 56 70 140zM590 952l-170 -392q0 -8 4 -8q60 -6 166 -6q98 0 160 4q2 0 4 2q2 4 2 6v2z" />
    <glyph glyph-name="B" unicode="B" horiz-adv-x="1238" 
d="M501 664v-446q0 -92 16 -116q17 -24 126 -24q37 0 72.5 14.5t67.5 44.5t52 86t20 129q0 60 -13 112.5t-40.5 99t-78 73.5t-118.5 27h-104zM501 742h104q77 0 124.5 61t47.5 171q0 266 -166 266q-89 0 -100 -24q-10 -24 -10 -122v-352zM669 1320q74 0 142.5 -17.5
t128.5 -53t96.5 -99t36.5 -146.5q0 -56 -25.5 -106t-63.5 -83.5t-70 -53.5t-57 -29q-16 -7 -10 -12q32 -4 72 -19.5t84.5 -44.5t81 -67t60.5 -92t24 -113q0 -96 -57 -181.5t-153 -142.5q-55 -33 -132.5 -48.5t-131 -17t-152.5 -0.5h-466q-6 9 -6.5 36t6.5 38q118 9 128 34
q16 40 16 188v736q0 148 -16 188q-9 23 -128 32q-7 11 -6.5 38t6.5 36q90 -6 286 -6q38 0 141 3t165 3z" />
    <glyph glyph-name="C" unicode="C" horiz-adv-x="1348" 
d="M772 1334q229 0 416 -38q0 -1 34 -144.5t34 -157.5q0 -9 -17 -19.5t-35 -10.5q-20 0 -28 8q-7 29 -20 59t-43.5 71t-70.5 71.5t-106 52.5t-146 22q-102 0 -179.5 -45t-122 -123t-66.5 -172.5t-22 -203.5q0 -121 25.5 -230.5t75.5 -200.5t135 -145t194 -54q155 0 248 86
q38 34 72.5 94.5t49 98.5t18.5 55q43 0 70 -24q0 -28 -31.5 -162t-50.5 -142q-87 -32 -133.5 -47t-132.5 -31t-172 -16q-186 0 -343.5 84.5t-251 236.5t-93.5 337q0 142 55 270t148 220t221 146t268 54z" />
    <glyph glyph-name="D" unicode="D" horiz-adv-x="1522" 
d="M501 1094v-812q0 -118 16 -158q9 -20 47 -33t79 -13q244 0 360 139.5t116 432.5q0 285 -139 437.5t-369 152.5q-89 0 -100 -24q-10 -24 -10 -122zM669 1320q231 0 403.5 -76t268.5 -223t96 -349q0 -137 -40 -250t-111 -191.5t-169.5 -132.5t-214 -79t-247.5 -25h-578
q-6 9 -6.5 36t6.5 38q118 9 128 34q16 40 16 188v736q0 148 -16 188q-9 23 -128 32q-7 11 -6.5 38t6.5 36q90 -6 286 -6q48 0 157.5 2.5t148.5 3.5z" />
    <glyph glyph-name="E" unicode="E" horiz-adv-x="1204" 
d="M363 1314q48 0 330.5 6.5t319.5 7.5q6 -45 16 -95l23.5 -112.5t18.5 -88.5q-10 -10 -46 -10q-26 0 -32 16q-18 47 -35 79t-42.5 62.5t-60 45.5t-78.5 15h-166q-89 0 -100 -24q-10 -24 -10 -122v-358q0 -9 26.5 -15.5t59.5 -6.5h106q88 0 120 26t56 114q3 16 24 16
q28 0 38 -10v-384q-8 -8 -36 -8q-25 0 -28 16q-26 102 -70 122q-34 14 -152 14q-144 0 -144 -28v-310q0 -118 16 -158q8 -19 47 -29.5t83 -10.5h132q120 0 186 66q58 58 108 190q3 12 28 12q16 0 36 -4t24 -8q-4 -12 -23.5 -66l-28 -79l-22.5 -68t-22 -74.5t-12 -56.5
q-898 0 -976 -2q-6 9 -6.5 36t6.5 38q118 9 128 34q16 40 16 188v736q0 148 -16 188q-9 23 -128 32q-7 11 -6.5 38t6.5 36q90 -6 286 -6z" />
    <glyph glyph-name="F" unicode="F" horiz-adv-x="1098" 
d="M363 1314q48 0 330.5 6.5t319.5 7.5q6 -45 16 -95l23.5 -112.5t18.5 -88.5q-10 -10 -46 -10q-26 0 -32 16q-18 47 -35 79t-42.5 62.5t-60 45.5t-78.5 15h-166q-89 0 -100 -24q-10 -24 -10 -122v-366q0 -9 26.5 -15.5t59.5 -6.5h106q88 0 120 26t56 114q3 16 24 16
q28 0 38 -10v-384q-8 -8 -36 -8q-25 0 -28 16q-26 102 -70 122q-34 14 -152 14q-144 0 -144 -28v-294q0 -148 16 -188q10 -26 146 -36q7 -11 6.5 -38t-6.5 -36q-137 14 -304 14q-145 0 -282 -14q-6 9 -6.5 36t6.5 38q118 9 128 36q16 40 16 188v736q0 148 -16 188
q-9 23 -128 32q-7 11 -6.5 38t6.5 36q90 -6 286 -6z" />
    <glyph glyph-name="G" unicode="G" horiz-adv-x="1444" 
d="M998 366q0 65 -10 102q-6 23 -36 36t-52.5 15.5t-43.5 2.5q-8 0 -8.5 33t6.5 41q34 -1 96.5 -4.5t113.5 -5.5t96 -2q37 0 78.5 2t91.5 5.5t76 4.5q4 -12 4.5 -30t-1.5 -31t-5 -13q-15 0 -53 -8.5t-53 -17.5q-9 -6 -16.5 -32t-7.5 -54v-214q0 -10 6 -32t6 -26
q0 -25 -70 -52q-84 -32 -135 -49t-139 -34t-174 -17q-187 0 -344.5 85t-250.5 236.5t-93 336.5q0 184 93 343t253 253t346 94q229 0 416 -38q0 -1 34 -144.5t34 -157.5q0 -9 -17 -19.5t-35 -10.5q-20 0 -28 8q-8 30 -20 59.5t-42 71t-69 71.5t-105 52t-146 22
q-86 0 -154.5 -31t-112.5 -83t-73 -124.5t-41.5 -150t-12.5 -165.5q0 -119 27 -229t78.5 -198.5t134 -141.5t184.5 -53q84 0 156 32q18 9 18 30v232z" />
    <glyph glyph-name="H" unicode="H" horiz-adv-x="1482" 
d="M363 1310q145 0 282 14q6 -9 6.5 -36t-6.5 -38q-118 -9 -128 -36q-16 -40 -16 -188v-284l4 -6q234 -6 242 -6q18 0 234 6q4 4 4 8l-2 282q0 148 -16 188q-10 27 -128 36q-7 11 -6.5 38t6.5 36q137 -14 286 -14q145 0 282 14q6 -9 6.5 -36t-6.5 -38q-118 -9 -128 -36
q-16 -40 -16 -188v-736q0 -148 16 -188q10 -27 128 -36q7 -11 6.5 -38t-6.5 -36q-137 14 -286 14q-145 0 -282 -14q-6 9 -6.5 36t6.5 38q118 9 128 36q16 40 16 188v330l-4 10q-148 4 -232 4q-232 0 -244 -8l-2 -8v-328q0 -148 16 -188q10 -27 128 -36q7 -11 6.5 -38
t-6.5 -36q-137 14 -286 14q-145 0 -282 -14q-6 9 -6.5 36t6.5 38q118 9 128 36q16 40 16 188v736q0 148 -16 188q-10 27 -128 36q-7 11 -6.5 38t6.5 36q137 -14 286 -14z" />
    <glyph glyph-name="I" unicode="I" horiz-adv-x="720" 
d="M363 1310q145 0 282 14q6 -9 6.5 -36t-6.5 -38q-118 -9 -128 -36q-16 -40 -16 -188v-736q0 -148 16 -188q10 -27 128 -36q7 -11 6.5 -38t-6.5 -36q-137 14 -286 14q-145 0 -282 -14q-6 9 -6.5 36t6.5 38q118 9 128 36q16 40 16 188v736q0 148 -16 188q-10 27 -128 36
q-7 11 -6.5 38t6.5 36q137 -14 286 -14z" />
    <glyph glyph-name="J" unicode="J" horiz-adv-x="690" 
d="M350 1310q146 0 282 14q6 -9 6.5 -36t-6.5 -38q-118 -9 -128 -36q-16 -40 -16 -188v-740q0 -340 -158.5 -531t-433.5 -191q-27 0 -63 12t-51 24q-1 2 -6 9t-6.5 10.5t-5.5 10.5t-6 12t-4 12.5t-3 15t-1 16.5q0 52 36.5 93t83.5 41q48 0 114 -66q2 -2 9.5 -10l10 -10.5
l9 -9t10 -9t9.5 -8t9.5 -7.5t9 -5.5t9.5 -5t8.5 -2.5t9.5 -1q23 0 41.5 10.5t32 35t23 51t15.5 72t10 84t5.5 101t2 109t0.5 121.5v756q0 148 -16 188q-10 27 -128 36q-7 11 -6.5 38t6.5 36q136 -14 286 -14z" />
    <glyph glyph-name="K" unicode="K" horiz-adv-x="1438" 
d="M363 1310q145 0 282 14q6 -9 6.5 -36t-6.5 -38q-118 -9 -128 -36q-16 -40 -16 -188v-352q141 112 208 182l63.5 63.5l57.5 58.5l44 47t49.5 56t45.5 59q20 26 20 66q0 27 -37 36.5t-75 9.5q-7 11 -8 35t4 37q23 -1 79 -5t102 -6.5t79 -2.5q119 0 248 14q5 -10 4 -35.5
t-8 -34.5q-155 -17 -226 -88l-376 -388q-15 -17 -6 -32l360 -486q42 -53 90.5 -92t85.5 -58t75 -29.5t54 -12.5t27 -2q6 -13 4.5 -40.5t-4.5 -33.5q-116 -8 -262 -8q-105 0 -183 44.5t-123 105.5l-90 121l-148.5 197.5l-113.5 151.5q-8 8 -20 8q-14 0 -20 -12v-310
q0 -148 16 -188q10 -27 128 -36q7 -11 6.5 -38t-6.5 -36q-137 14 -286 14q-145 0 -282 -14q-6 9 -6.5 36t6.5 38q118 9 128 36q16 40 16 188v736q0 148 -16 188q-10 27 -128 36q-7 11 -6.5 38t6.5 36q137 -14 286 -14z" />
    <glyph glyph-name="L" unicode="L" horiz-adv-x="1158" 
d="M501 282q0 -118 16 -158q8 -19 47 -29.5t83 -10.5h132q120 0 186 66q58 58 108 190q3 12 28 12q16 0 36 -4t24 -8q-4 -12 -23.5 -66l-28 -79l-22.5 -68t-22 -74.5t-12 -56.5q-422 0 -691 -1q-258 0 -285 -1q-6 9 -6.5 36t6.5 38q118 9 128 34q16 40 16 188v736
q0 148 -16 188q-10 27 -128 36q-7 11 -6.5 38t6.5 36q137 -14 286 -14q145 0 282 14q6 -9 6.5 -36t-6.5 -38q-118 -9 -128 -36q-18 -44 -16 -188v-744z" />
    <glyph glyph-name="M" unicode="M" horiz-adv-x="1814" 
d="M342 1312q39 0 113 5.5t97 6.5l378 -848q6 -4 8 -4q1 0 4.5 5t3.5 7q150 368 236 608q14 38 30 94l26 93l10 37q54 -6 216 -6q39 0 124.5 6.5t109.5 7.5q7 -7 11 -35t-3 -41q-18 0 -54.5 -6.5t-49.5 -15.5q-17 -12 -23 -28t-5 -54q2 -43 12.5 -368t17.5 -472q0 -4 1 -25
t1.5 -26.5t1.5 -23.5t2 -24.5t2.5 -21.5t3 -23t3.5 -20t5 -21t6 -17q8 -18 54 -27t72 -9q6 -14 7 -36.5t-3 -37.5q-17 1 -118.5 8.5t-153.5 7.5q-54 0 -174 -7.5t-140 -8.5q-6 6 -7.5 34t3.5 40q30 0 79 10t61 28q16 26 16 70q0 86 -2 122l-20 698q0 52 -14 52q-4 0 -10 -14
l-352 -952q-7 -20 -34.5 -52t-51.5 -32q-6 0 -18 4l-446 1046l-9.5 -303t-8 -240l-8.5 -235q-1 -31 2 -79t6 -59q8 -27 77 -45.5t97 -18.5q5 -11 6.5 -34.5t-2.5 -39.5q-23 1 -110 8.5t-138 7.5q-52 0 -133.5 -7t-116.5 -9q-6 10 -6.5 33.5t4.5 38.5q33 0 94.5 19t75.5 53
q5 13 13.5 79t10.5 97q5 103 12.5 291l14 361t7.5 198q0 30 -10 44q-11 15 -56.5 29.5t-73.5 14.5q-8 13 -6 41.5t6 32.5q33 -1 98.5 -6.5t117.5 -5.5z" />
    <glyph glyph-name="N" unicode="N" horiz-adv-x="1520" 
d="M301 1310q106 0 218 14q27 -55 102.5 -157.5l150 -194.5l200.5 -244.5l189 -231.5q4 14 4 82v374q0 67 -6 151t-16 105q-10 23 -67 33.5t-95 10.5q-2 0 -4 14.5t-1.5 33t5.5 26.5q36 -2 114.5 -9t129.5 -7t140 7.5t112 8.5q4 -12 4 -37.5t-8 -38.5q-19 0 -48 -2
t-70 -13.5t-48 -30.5q-7 -20 -13.5 -104t-6.5 -142v-680q0 -72 8 -280q-8 -8 -50 -8q-27 0 -62 46l-814 1002v-724q0 -52 7 -112t15 -82q9 -24 71.5 -38t92.5 -14q8 -13 8 -38.5t-4 -37.5q-23 1 -112 8.5t-140 7.5t-129.5 -7t-114.5 -9q-5 8 -5.5 26.5t1.5 33t4 14.5
q32 0 91 14.5t69 37.5q10 22 17 82.5t7 119.5v708q0 127 -36 180q-12 17 -59.5 29.5t-72.5 12.5q-8 0 -9.5 33t5.5 41q18 -1 61 -5t83.5 -6.5t81.5 -2.5z" />
    <glyph glyph-name="O" unicode="O" horiz-adv-x="1520" 
d="M712 1248q-68 0 -122.5 -31.5t-89.5 -82.5t-58 -120t-32.5 -140.5t-9.5 -147.5q0 -79 9.5 -155.5t28.5 -151.5t51.5 -138t75.5 -111.5t104 -76t133 -27.5q69 0 124.5 31t91 81.5t59 119t33.5 139.5t10 147q0 95 -13.5 186.5t-44.5 179t-77 153t-116.5 105.5t-156.5 40z
M760 1334q130 0 254.5 -54t218 -144t150.5 -216.5t57 -263.5t-57 -263t-150.5 -216t-218 -143.5t-254.5 -53.5t-254.5 53.5t-218 143.5t-150.5 216t-57 263t57 263.5t150.5 216.5t218 144t254.5 54z" />
    <glyph glyph-name="P" unicode="P" horiz-adv-x="1170" 
d="M1131 964q0 -115 -59 -206t-149.5 -137.5t-193.5 -46.5q-48 0 -85.5 15.5t-52.5 30.5t-15 50q0 14 7 14q27 -8 82 -8q74 0 121 72.5t47 187.5q0 123 -62.5 213.5t-159.5 90.5q-89 0 -100 -24q-10 -24 -10 -122v-804q0 -148 16 -188q10 -27 128 -36q7 -11 6.5 -38
t-6.5 -36q-137 14 -286 14q-145 0 -282 -14q-6 9 -6.5 36t6.5 38q118 9 128 36q16 40 16 188v736q0 148 -16 188q-9 23 -128 32q-7 11 -6.5 38t6.5 36q90 -6 286 -6q38 0 141.5 3t166.5 3q127 0 230 -40.5t166.5 -123t63.5 -192.5z" />
    <glyph glyph-name="Q" unicode="Q" horiz-adv-x="1520" 
d="M760 1334q130 0 254.5 -54t218 -144t150.5 -216.5t57 -263.5q0 -219 -136 -396.5t-340 -245.5q47 -23 115.5 -61.5t103 -55t95 -31t132.5 -14.5q35 0 67 4t51.5 8t23.5 4q10 0 24.5 -7.5t21.5 -18.5l4 -10q-89 -47 -206.5 -82.5t-203.5 -35.5q-61 0 -123.5 23t-118.5 59
t-109 74t-117 75t-122 55q-221 58 -371.5 241t-150.5 415q0 137 57 263.5t150.5 216.5t218 144t254.5 54zM712 1248q-68 0 -122.5 -31.5t-89.5 -82.5t-58 -120t-32.5 -140.5t-9.5 -147.5q0 -79 9.5 -155.5t28.5 -151.5t51.5 -138t75.5 -111.5t104 -76t133 -27.5
q69 0 124.5 31t91 81.5t59 119t33.5 139.5t10 147q0 95 -13.5 186.5t-44.5 179t-77 153t-116.5 105.5t-156.5 40z" />
    <glyph glyph-name="R" unicode="R" horiz-adv-x="1386" 
d="M671 1320q195 0 316.5 -95t121.5 -269q0 -58 -28.5 -115.5t-71.5 -99.5t-88.5 -71t-83.5 -38l137 -180l113 -142l40 -50q42 -53 90.5 -92t85.5 -58t75 -29.5t54 -12.5t27 -2q6 -13 4.5 -40.5t-4.5 -33.5q-116 -8 -262 -8q-105 0 -183 44.5t-123 105.5l-324 434
q-20 30 -36 30h-30v-308q0 -148 16 -188q10 -27 128 -36q7 -11 6.5 -38t-6.5 -36q-137 14 -286 14q-145 0 -282 -14q-6 9 -6.5 36t6.5 38q118 9 128 36q16 40 16 188v736q0 148 -16 188q-9 23 -128 32q-7 11 -6.5 38t6.5 36q90 -6 286 -6q38 0 141.5 3t166.5 3zM811 936
q0 65 -8.5 115t-29.5 95t-62 69.5t-100 24.5q-89 0 -100 -24q-10 -24 -10 -122v-418h92q88 0 153 74t65 186z" />
    <glyph glyph-name="S" unicode="S" horiz-adv-x="1042" 
d="M534 1340q42 0 88 -6t75.5 -12t88 -19l84.5 -19q12 -126 22 -332q-9 -12 -22 -12q-56 0 -60 14q-6 45 -27 95t-53.5 97.5t-81.5 78.5t-104 31q-69 0 -119.5 -41t-50.5 -133q0 -36 20 -74t45.5 -67.5t71.5 -67t74.5 -58t78.5 -53.5l40 -26l42 -28l39 -28t40.5 -32.5
l34.5 -34.5t33 -40.5l25.5 -44.5t22 -52.5t12 -58t5.5 -67.5q0 -106 -63.5 -192.5t-162.5 -132t-210 -45.5q-157 0 -380 52q-14 60 -29 174.5t-19 165.5q6 8 27.5 18t30.5 10q23 0 26 -16q7 -43 33.5 -96t67 -104t100 -85.5t123.5 -34.5q84 0 139 47t55 147q0 26 -9.5 52.5
t-21.5 48t-37 47.5l-41.5 42t-49.5 41t-47.5 35l-49 33l-40.5 27q-123 82 -164 120q-119 107 -127 250q-1 12 -1 24q0 99 63.5 184t161.5 131.5t201 46.5z" />
    <glyph glyph-name="T" unicode="T" horiz-adv-x="1268" 
d="M966 1314q63 0 106.5 9.5t66.5 19t35 9.5t24 -6l54 -368q-4 -4 -24 -9t-34 -5q-18 0 -20 10q-15 100 -77 176t-137 76h-186v-936q0 -148 16 -188q10 -27 128 -36q7 -11 6.5 -38t-6.5 -36q-136 14 -286 14q-146 0 -282 -14q-6 9 -6.5 36t6.5 38q118 9 128 36q16 40 16 188
v936h-186q-75 0 -137 -76t-77 -176q-2 -10 -20 -10q-14 0 -34 5t-24 9l54 368q12 6 24 6t34.5 -9.5t66.5 -19t107 -9.5h664z" />
    <glyph glyph-name="U" unicode="U" horiz-adv-x="1460" 
d="M331 1310q145 0 282 14q6 -9 6.5 -36t-6.5 -38q-118 -9 -128 -36q-16 -40 -16 -188v-366q0 -119 9 -194t41 -148q83 -192 304 -192q62 0 118.5 28.5t103.5 85.5t74.5 154.5t27.5 223.5v340q0 67 -8 141t-20 103q-16 38 -150 48q-7 11 -6.5 38t6.5 36q165 -14 250 -14
q51 0 131 6.5t103 7.5q6 -9 6.5 -36t-6.5 -38q-1 0 -11.5 -0.5t-17 -1.5t-19.5 -2t-22 -3t-21.5 -4.5t-21.5 -6t-18 -8t-14.5 -10t-8.5 -12.5q-12 -29 -20 -102t-8 -140v-388q0 -119 -29.5 -217.5t-80.5 -166.5t-121 -115t-149.5 -69t-167.5 -22q-131 0 -241.5 44.5
t-180.5 131.5q-112 141 -112 444v424q0 148 -16 188q-10 27 -128 36q-7 11 -6.5 38t6.5 36q137 -14 286 -14z" />
    <glyph glyph-name="V" unicode="V" horiz-adv-x="1368" 
d="M281 1310q145 0 282 14q6 -9 6.5 -36t-6.5 -38q-1 0 -11 -0.5t-15 -1t-17 -2t-19 -3.5t-17.5 -4.5t-17 -6.5t-13 -9t-9.5 -12t-3 -15q0 -38 48 -150l298 -674q244 614 264 670q2 5 11 31t12.5 37l9.5 31t8.5 34.5t2.5 26.5q0 36 -160 48q-7 11 -6.5 38t6.5 36
q165 -14 238 -14q51 0 124.5 6.5t99.5 7.5q6 -9 6.5 -36t-6.5 -38q-2 0 -14.5 -1t-21 -1.5t-23 -2.5t-25 -4.5t-22.5 -6t-20.5 -8.5t-13.5 -12q-27 -36 -82 -166l-228 -546l-186 -442q-12 -27 -45 -54.5t-51 -27.5q-8 0 -12.5 3.5t-8.5 12t-7 12.5l-436 1014
q-43 105 -70 164q-11 24 -41 39.5t-52.5 20t-42.5 6.5q-7 11 -6.5 38t6.5 36q137 -14 286 -14z" />
    <glyph glyph-name="W" unicode="W" horiz-adv-x="1902" 
d="M282 1310q146 0 282 14q6 -9 6.5 -36t-6.5 -38q-1 0 -11 -0.5t-15 -1t-17 -2t-19 -3.5t-17.5 -4.5t-17 -6.5t-13 -9t-9.5 -12t-3 -15q0 -9 2.5 -21t8.5 -29.5t10.5 -29.5l13.5 -36l13 -34l196 -544l266 748q11 30 28.5 52t33.5 22q12 0 24 -32l342 -864l196 614l10 31.5
l11 36t9 32t7.5 33.5t2.5 27q0 36 -156 48q-7 11 -6.5 38t6.5 36q164 -14 238 -14q51 0 124.5 6.5t99.5 7.5q6 -9 6.5 -36t-6.5 -38q-2 0 -14.5 -1t-21 -1.5t-23 -2.5t-25 -4.5t-22.5 -6t-20.5 -8.5t-13.5 -12q-51 -68 -82 -166l-328 -968q-14 -39 -38 -70.5t-42 -31.5
t-38 28l-330 830l-254 -748q-11 -30 -32.5 -70t-37.5 -40q-18 0 -38 28l-360 1014q-11 33 -70 164q-11 24 -41 39.5t-52.5 20t-42.5 6.5q-8 11 -7.5 37.5t7.5 36.5q136 -14 286 -14z" />
    <glyph glyph-name="X" unicode="X" horiz-adv-x="1420" 
d="M352 1312q48 0 288 12q4 -9 3.5 -41.5t-7.5 -32.5q-30 0 -67.5 -11t-38.5 -31q0 -20 16 -44l222 -336q25 33 94 116.5l111 138.5t55 85q6 12 6 20q0 25 -47.5 43.5t-100.5 18.5q-8 0 -8.5 33t6.5 41q122 -14 266 -14q138 0 240 14q5 -10 5 -42t-7 -32q-13 0 -31.5 -2.5
t-53 -11.5t-72 -33t-67.5 -59l-342 -406l254 -377t148 -209q38 -45 99.5 -65.5t98.5 -20.5q6 -14 6.5 -37.5t-6.5 -36.5q-240 12 -320 12q-66 0 -182 -5.5t-134 -6.5q-7 8 -5.5 41t9.5 33q26 0 69 16t43 40q0 13 -6 22l-266 402q-230 -304 -276 -380q-16 -27 -16 -34
q0 -32 54.5 -49t111.5 -17q7 -10 9 -34t-3 -40q-198 12 -264 12q-46 0 -89.5 -2t-93 -5.5t-73.5 -4.5q-8 9 -8 36.5t8 37.5q13 0 33 2.5t56.5 10t71.5 28.5t57 51l356 486l-280 430l-21.5 33l-24.5 37l-21.5 30.5t-22.5 28.5t-18 17q-19 13 -65 21.5t-71 8.5q-8 0 -8 33
t8 41q294 -12 312 -12z" />
    <glyph glyph-name="Y" unicode="Y" horiz-adv-x="1248" 
d="M467 290v278q0 13 -12 40q-23 48 -85 164l-114 210l-51 92q-33 62 -62 110q-19 32 -61 47.5t-75 18.5q-7 11 -6.5 38t6.5 36q137 -14 286 -14q145 0 282 14q6 -9 6.5 -36t-6.5 -38q-1 0 -11 -0.5t-15 -1t-17 -2t-19 -3.5t-17.5 -4.5t-17 -6.5t-13 -9t-9.5 -12t-3 -15
t14 -32l240 -442q7 -7 85.5 131.5l166.5 302.5q10 20 10 46q0 37 -148 48q-7 11 -6.5 38t6.5 36q165 -14 226 -14q51 0 124.5 6.5t99.5 7.5q6 -9 6.5 -36t-6.5 -38l-13 -1q-12 -1 -17.5 -1.5t-19.5 -2t-23 -4l-21.5 -6t-21.5 -8.5t-18 -12t-14 -15l-191.5 -305t-174.5 -299
q-10 -20 -10 -38v-268q-2 -144 16 -188q10 -27 128 -36q7 -11 6.5 -38t-6.5 -36q-137 14 -286 14q-145 0 -282 -14q-6 9 -6.5 36t6.5 38q118 9 128 36q3 7 5 14t3.5 16.5t2.5 16.5t2 20l1.5 20t0.5 23.5t0.5 23.5t0.5 27v27z" />
    <glyph glyph-name="Z" unicode="Z" horiz-adv-x="1280" 
d="M467 1220q-31 0 -58.5 -4.5t-48.5 -11t-40.5 -20t-33 -24t-27 -30.5l-21.5 -32.5t-18.5 -36.5t-15 -36.5l-14 -39l-13.5 -37.5q-4 -12 -26 -12q-48 0 -58 10q7 38 22.5 114l28 141.5t21.5 122.5q21 -5 123 -9.5t139 -4.5l280 2q221 3 464 20q6 -1 13 -25.5t7 -40.5
q-3 -7 -197 -300l-388 -582l-193 -290h432q120 0 190 70q33 33 57.5 72t48.5 104q3 12 28 12q16 0 36 -4t24 -8q-9 -31 -53.5 -159.5t-54.5 -178.5l-1028 -2q-12 0 -26 9.5t-21.5 20t-4.5 14.5l792 1176h-366z" />
    <glyph glyph-name="bracketleft" unicode="[" horiz-adv-x="740" 
d="M258 1460q246 0 410 32q8 0 11 -11q1 -4 1 -7q0 -14 -18 -50q-1 -2 -2 -2q-39 -20 -185 -46q-28 -5 -41 -8v-2060q15 -3 54 -10q119 -20 172 -44q11 -5 17 -30q3 -12 3 -22q-1 -15 -12 -18q-166 32 -410 32q-31 2 -37 36q-1 5 -1 10v2152q0 32 29 44q5 2 9 2z" />
    <glyph glyph-name="backslash" unicode="\" horiz-adv-x="706" 
d="M62 1457q40 0 65 -14t33 -30l517 -1814l-3 -3q-2 -4 -11 -7.5t-22 -3.5q-46 0 -71 13.5t-29 28.5l-517 1814q4 16 38 16z" />
    <glyph glyph-name="bracketright" unicode="]" horiz-adv-x="740" 
d="M482 1460q4 0 9 -2q29 -12 29 -44v-2152q0 -5 -1 -10q-6 -34 -37 -36q-244 0 -410 -32q-11 3 -12 18q0 10 3 22q6 25 17 30q53 24 172 44q39 7 54 10v2060q-13 3 -41 8q-146 26 -185 46q-1 0 -2 2q-18 36 -18 50q0 3 1 7q3 11 11 11q164 -32 410 -32z" />
    <glyph glyph-name="asciicircum" unicode="^" horiz-adv-x="782" 
d="M372 1338q24 0 40 -28l81 -144.5l87.5 -153.5t85.5 -138q0 -15 -12.5 -25.5t-25.5 -10.5q-52 48 -116 116l-102 114l-38 44q-140 -166 -256 -274q-14 0 -27 10.5t-13 25.5l75 119.5l53 89l65 113.5l65 114q16 28 38 28z" />
    <glyph glyph-name="underscore" unicode="_" horiz-adv-x="986" 
d="M16 -66q10 92 30 92h898q8 0 8 -10q0 -17 -20 -90q-2 -5 -5 -8.5t-5 -3.5h-2h-890q-14 0 -14 20z" />
    <glyph glyph-name="grave" unicode="`" horiz-adv-x="498" 
d="M88 1316q0 18 23 38t69 20q50 0 68 -18q34 -39 79.5 -105.5t76 -116t30.5 -54.5q0 -9 -12 -22.5t-22 -13.5q-12 0 -87.5 51t-150 118.5t-74.5 102.5z" />
    <glyph glyph-name="a" unicode="a" horiz-adv-x="944" 
d="M454 124q34 0 58 15.5t24 26.5v280q-6 -3 -57 -26t-75 -38q-76 -49 -72 -134q1 -59 39 -91.5t83 -32.5zM496 898q126 0 213 -86.5t87 -219.5v-374q0 -39 13.5 -60.5t34.5 -21.5q10 0 20 3t16 5q6 4 14 8l8 4q14 -7 14 -34q0 -17 -8 -30q-21 -19 -47.5 -39.5t-73.5 -42.5
t-85 -22q-48 0 -93 31t-59 69q-25 -22 -102 -63t-124 -41q-110 0 -186 75.5t-76 168.5q0 56 31.5 101.5t72.5 58.5q33 11 101 36.5l150.5 57.5l118.5 46v42v52q0 78 -33.5 139t-84.5 61q-22 0 -39.5 -9.5t-28.5 -23t-20.5 -38.5t-15 -44.5t-12.5 -52.5q-19 -88 -112 -88
q-42 0 -73 27.5t-31 68.5q0 33 28 82q38 38 153.5 96t228.5 58z" />
    <glyph glyph-name="b" unicode="b" horiz-adv-x="1084" 
d="M487 -16q-59 0 -146 23t-106 23q-41 0 -74 -14q-6 0 -27 20.5t-21 29.5q24 62 24 238v812q0 62 -14 96q-7 16 -50 26t-70 10q-4 0 -6 14.5t-0.5 30t6.5 19.5q63 6 125 16t106.5 20.5t79.5 20t54.5 15.5t20.5 6q8 -1 18 -13.5t12 -20.5q-22 -90 -22 -202v-324v-9.5
t1.5 -11t3.5 -7.5t7 2q37 30 95.5 62t102.5 32q175 0 295.5 -121.5t120.5 -304.5q0 -93 -31 -173t-83 -137t-121 -98t-145.5 -60.5t-155.5 -19.5zM507 750q-64 0 -104 -44q-6 -6 -6 -18v-492q0 -53 35.5 -88.5t96.5 -35.5t109.5 49.5t72.5 122t24 148.5q0 192 -62.5 275
t-165.5 83z" />
    <glyph glyph-name="c" unicode="c" horiz-adv-x="894" 
d="M826 764q0 -47 -32.5 -85.5t-83.5 -38.5q-15 0 -29 5t-28 17t-22 20t-22 25.5t-19 22.5q-55 62 -136 62q-42 0 -75 -44t-49 -106.5t-16 -125.5q0 -100 26.5 -174.5t70 -114.5t91.5 -58.5t100 -18.5q133 0 224 100q10 -3 17 -14.5t7 -21.5q0 -29 -6 -38q-16 -25 -46 -54.5
t-76 -62.5t-109.5 -55t-130.5 -22q-113 0 -208 49t-153.5 145.5t-58.5 223.5q0 90 43 180t114 159.5t167.5 113t197.5 43.5q74 0 127.5 -11.5t74.5 -24.5q40 -44 40 -96z" />
    <glyph glyph-name="d" unicode="d" horiz-adv-x="1094" 
d="M588 892q48 0 80 -4q10 0 10 46v182q0 62 -14 96q-7 16 -50 26t-70 10q-4 0 -6 14.5t-0.5 30t6.5 19.5q63 6 125 16t106.5 20.5t79.5 20t54.5 15.5t20.5 6q8 -1 18 -13.5t12 -20.5q-22 -90 -22 -202v-938q0 -56 18 -76t90 -20q6 -6 6 -26t-12 -38q-51 -5 -132 -22.5
t-141.5 -32.5t-70.5 -15q-7 0 -12.5 13.5t-5.5 34.5v32q0 14 -6 10q-134 -92 -246 -92q-146 0 -254 121t-108 295q0 97 37 181t95 139.5t129 95.5t138.5 58t124.5 18zM522 790q-61 0 -101.5 -44t-56.5 -109.5t-16 -150.5q0 -167 55 -270.5t147 -103.5q40 0 84 26.5t44 47.5
v514q0 29 -48 59.5t-108 30.5z" />
    <glyph glyph-name="e" unicode="e" horiz-adv-x="920" 
d="M326 564q13 -1 117.5 5t140.5 11q26 2 26 32q0 80 -30 140t-92 60q-41 0 -74.5 -28.5t-51.5 -70.5t-27 -81t-9 -68zM324 484q0 -80 21 -142t51.5 -97t70.5 -57.5t73 -30t64 -7.5q133 0 224 100q10 -3 17 -14.5t7 -21.5q0 -29 -6 -38q-16 -25 -46 -54.5t-76 -62.5
t-109.5 -55t-130.5 -22q-113 0 -208 49t-153.5 145.5t-58.5 223.5q0 124 62.5 238.5t166 185t215.5 70.5q75 0 136.5 -20.5t100 -52.5t65 -73t37.5 -80t11 -76q0 -33 -16 -58t-38 -26q-180 -16 -480 -24z" />
    <glyph glyph-name="f" unicode="f" horiz-adv-x="710" 
d="M612 1396q196 0 206 -112q4 -47 -28 -96q-28 -42 -80 -42q-50 0 -98 52q-12 12 -28 24q-37 30 -80 30q-24 0 -42 -57.5t-18 -126.5q0 -118 8 -242h234q12 0 12 -26q0 -13 -15 -35t-31 -33h-194v-442q0 -145 16 -188q10 -27 128 -36q7 -11 6.5 -38t-6.5 -36
q-136 14 -274 14t-274 -14q-6 9 -6.5 36t6.5 38q118 9 128 36q16 40 16 188v442h-142q-10 4 -10 26q26 36 64 68h88v60q0 98 43.5 194.5t107 164t135 109.5t128.5 42z" />
    <glyph glyph-name="g" unicode="g" horiz-adv-x="956" 
d="M430 812q-37 0 -60.5 -17t-33.5 -50t-13 -61t-3 -70q0 -61 13 -113.5t46.5 -91.5t82.5 -39q22 0 38.5 7t27 16.5t18 28.5t11 31.5t5.5 39t2 38v39.5q0 61 -11 112.5t-42.5 90.5t-80.5 39zM520 -28h-220q-32 -37 -32 -88q0 -97 66.5 -152.5t173.5 -55.5q68 0 117 16
t73.5 42.5t35 53t10.5 54.5q0 61 -62.5 95.5t-161.5 34.5zM652 192q65 -4 118.5 -29t84 -59.5t47 -69.5t16.5 -62q0 -117 -77.5 -212t-199.5 -145.5t-259 -50.5q-147 0 -240.5 64t-93.5 166q0 55 52.5 108.5t117.5 85.5q-50 13 -85 72t-35 124q0 25 51.5 68t114.5 78
q-86 35 -136 104t-50 154q0 125 104.5 211.5t257.5 86.5q140 0 214 -50q6 -6 12 -6l250 24q22 -7 22 -22q0 -12 -18 -51t-32 -49q-38 3 -112 12q-12 0 -12 -6q42 -58 42 -140q0 -126 -104.5 -214t-257.5 -88q-51 0 -104 10q-48 -39 -48 -62q0 -22 29 -36t67 -14
q229 0 264 -2z" />
    <glyph glyph-name="h" unicode="h" horiz-adv-x="1166" 
d="M735 892q68 0 116 -19.5t78.5 -55t47.5 -95.5t23.5 -130.5t6.5 -171.5v-130q0 -148 16 -188q10 -27 128 -36q7 -11 6.5 -38t-6.5 -36q-137 14 -274 14q-113 0 -250 -14q-6 9 -6.5 36t6.5 38q93 7 104 36q16 40 16 188v158q0 282 -134 282q-57 0 -116.5 -40t-59.5 -72
v-328q0 -148 16 -188q11 -28 114 -36q7 -11 6.5 -38t-6.5 -36q-137 14 -260 14q-137 0 -274 -14q-6 9 -6.5 36t6.5 38q118 9 128 36q16 40 16 188v826q0 62 -14 96q-7 16 -50 26t-70 10q-4 0 -6 14.5t-0.5 30t6.5 19.5q63 6 125 16t106.5 20.5t79.5 20t54.5 15.5t20.5 6
q8 -1 18 -13.5t12 -20.5q-22 -124 -22 -204v-408q0 -10 2 -12q4 0 14 10q46 53 131.5 101.5t150.5 48.5z" />
    <glyph glyph-name="i" unicode="i" horiz-adv-x="630" 
d="M463 618v-328q0 -148 16 -188q11 -28 114 -36q7 -11 6.5 -38t-6.5 -36q-137 14 -260 14q-137 0 -274 -14q-6 9 -6.5 36t6.5 38q118 9 128 36q16 40 16 188v230q0 130 -18 164q-10 19 -56.5 29.5t-69.5 10.5q-5 3 -5 32.5t7 29.5q104 8 213.5 40t176.5 66q10 -3 22 -16
t12 -18q-4 -12 -11 -52.5t-9 -61.5q-2 -44 -2 -126zM169 1232q0 60 42 102t102 42t103 -42t43 -102t-43 -102t-103 -42t-102 42t-42 102z" />
    <glyph glyph-name="j" unicode="j" horiz-adv-x="572" 
d="M178 128v392q0 130 -18 164q-10 19 -56.5 29.5t-69.5 10.5q-5 3 -5 32.5t7 29.5q104 8 213.5 40t176.5 66q10 -3 22 -16t12 -18q-4 -12 -11 -52.5t-9 -61.5q-2 -44 -2 -126v-378q0 -304 -96 -444q-65 -95 -173 -163.5t-165 -68.5q-28 16 -28 34q0 12 2 14q10 5 24.5 15
t48.5 50t59.5 92t46.5 147.5t21 211.5zM144 1232q0 62 43 105t105 43t105 -43t43 -105t-43 -105t-105 -43t-105 43t-43 105z" />
    <glyph glyph-name="k" unicode="k" horiz-adv-x="1180" 
d="M437 290q0 -148 16 -188q10 -27 128 -36q7 -11 6.5 -38t-6.5 -36q-137 14 -274 14t-274 -14q-6 9 -6.5 36t6.5 38q118 9 128 36q16 40 16 188v826q0 62 -14 96q-7 16 -50 26t-70 10q-4 0 -6 14.5t-0.5 30t6.5 19.5q63 6 125 16t106.5 20.5t79.5 20t54.5 15.5t20.5 6
q8 -1 18 -13.5t12 -20.5q-22 -124 -22 -204l-2 -680q53 19 150 102q103 88 139.5 128.5t36.5 63.5q0 16 -46 29t-82 15q-5 13 -4 39t8 29q178 -8 262 -8q32 0 65.5 1.5t79 4.5t77.5 4q9 -15 6 -40t-12 -30q-126 -12 -198 -62q-18 -13 -55.5 -46.5l-99.5 -90.5l-109 -99
l166 -187l118 -129q39 -44 73 -70.5t65 -37.5t50 -13.5t50 -2.5q7 -21 5.5 -37t-5.5 -23q-25 -9 -85.5 -16.5t-116.5 -7.5q-85 0 -156.5 32t-117.5 86q-138 148 -236 270q-4 5 -10.5 11.5l-10.5 10.5l-5 4v-112z" />
    <glyph glyph-name="l" unicode="l" horiz-adv-x="612" 
d="M177 1116q0 62 -14 96q-7 16 -50 26t-70 10q-4 0 -6 14.5t-0.5 30t6.5 19.5q63 6 125 16t106.5 20.5t79.5 20t54.5 15.5t20.5 6q8 -1 18 -13.5t12 -20.5q-22 -124 -22 -204v-862q0 -148 16 -188q10 -27 128 -36q7 -11 6.5 -38t-6.5 -36q-137 14 -274 14t-274 -14
q-6 9 -6.5 36t6.5 38q118 9 128 36q16 40 16 188v826z" />
    <glyph glyph-name="m" unicode="m" horiz-adv-x="1766" 
d="M761 892q97 0 153.5 -38.5t92.5 -133.5q68 67 164.5 119.5t163.5 52.5q68 0 116 -19.5t78.5 -55t47.5 -95.5t23.5 -130.5t6.5 -171.5v-130q0 -148 16 -188q10 -27 128 -36q7 -11 6.5 -38t-6.5 -36q-137 14 -274 14q-113 0 -250 -14q-6 9 -6.5 36t6.5 38q93 7 104 36
q16 40 16 188v158q0 282 -134 282q-58 0 -123 -39.5t-65 -70.5v-12q8 -112 8 -188v-130q0 -148 16 -188q10 -27 124 -36q7 -11 6.5 -38t-6.5 -36q-137 14 -270 14q-117 0 -254 -14q-6 9 -6.5 36t6.5 38q97 7 108 36q16 40 16 188v158q0 282 -134 282q-57 0 -116.5 -40
t-59.5 -72v-328q0 -148 16 -188q11 -28 114 -36q7 -11 6.5 -38t-6.5 -36q-137 14 -260 14q-137 0 -274 -14q-6 9 -6.5 36t6.5 38q118 9 128 36q16 40 16 188v230q0 130 -18 164q-10 19 -56.5 29.5t-69.5 10.5q-5 3 -5 32.5t7 29.5q104 8 213.5 40t176.5 66q10 -3 22 -16
t12 -18q-4 -11 -13 -61.5t-7 -52.5q0 -10 2 -12q4 0 14 10q47 53 131.5 101.5t148.5 48.5z" />
    <glyph glyph-name="n" unicode="n" horiz-adv-x="1192" 
d="M761 892q68 0 116 -19.5t78.5 -55t47.5 -95.5t23.5 -130.5t6.5 -171.5v-130q0 -148 16 -188q10 -27 128 -36q7 -11 6.5 -38t-6.5 -36q-137 14 -274 14q-113 0 -250 -14q-6 9 -6.5 36t6.5 38q93 7 104 36q16 40 16 188v158q0 282 -134 282q-57 0 -116.5 -40t-59.5 -72
v-328q0 -148 16 -188q11 -28 114 -36q7 -11 6.5 -38t-6.5 -36q-137 14 -260 14q-137 0 -274 -14q-6 9 -6.5 36t6.5 38q118 9 128 36q16 40 16 188v230q0 130 -18 164q-10 19 -56.5 29.5t-69.5 10.5q-5 3 -5 32.5t7 29.5q104 8 213.5 40t176.5 66q9 0 21.5 -13t12.5 -21
q-2 -7 -7 -35t-9 -53t-4 -26q0 -10 2 -12q4 0 14 10q47 53 131.5 101.5t148.5 48.5z" />
    <glyph glyph-name="o" unicode="o" horiz-adv-x="1064" 
d="M508 812q-52 0 -86 -30.5t-49 -86t-20 -105.5t-5 -116q0 -95 20 -183.5t68.5 -154.5t117.5 -66q42 0 73 21.5t47.5 53.5t26.5 80t12.5 88t2.5 91q0 96 -20.5 185.5t-69.5 156t-118 66.5zM530 894q206 0 338 -126t132 -318q0 -125 -61 -231.5t-168.5 -169.5t-236.5 -63
q-206 0 -338 128.5t-132 319.5q0 190 135.5 325t330.5 135z" />
    <glyph glyph-name="p" unicode="p" horiz-adv-x="1106" 
d="M651 896q117 0 208 -61t137.5 -158t46.5 -209q0 -110 -45.5 -204t-117.5 -153.5t-157.5 -93t-169.5 -33.5q-25 0 -52 4.5t-44.5 9t-19.5 4.5q-6 0 -6 -32v-108q0 -148 16 -188q10 -27 128 -36q7 -11 6.5 -38t-6.5 -36q-137 14 -274 14t-274 -14q-6 9 -6.5 36t6.5 38
q118 9 128 36q16 40 16 188v658q0 130 -18 164q-10 19 -56.5 29.5t-69.5 10.5q-5 3 -5 32.5t7 29.5q104 8 213.5 40t176.5 66q10 -3 22 -16t12 -18q0 -1 -6 -14.5t-9 -26.5t-3 -27t5 -14q1 0 3 2q47 50 105 84t103 34zM541 750q-34 0 -61 -12.5t-38 -24.5t-11 -19v-502
q0 -57 40 -88.5t96 -31.5q27 0 57.5 19t60.5 56t50 103t20 148q0 352 -214 352z" />
    <glyph glyph-name="q" unicode="q" horiz-adv-x="1068" 
d="M524 788q-50 0 -86 -26.5t-55 -72t-27 -95.5t-8 -108q0 -67 10.5 -129.5t33 -119t64 -91t96.5 -34.5q33 0 62.5 10.5t43.5 21.5t14 16v528q0 9 -9 24.5t-25.5 33t-47 30t-66.5 12.5zM600 892q40 0 124 -23t112 -23q30 0 72 14q10 -3 29 -21.5t19 -28.5q-24 -58 -24 -228
v-720q0 -148 16 -188q10 -27 128 -36q7 -11 6.5 -38t-6.5 -36q-136 14 -274 14t-274 -14q-6 9 -6.5 36t6.5 38q118 9 128 36q16 40 16 188v172v10.5t-1.5 10.5t-4 7t-6.5 -2q-32 -24 -99 -50t-129 -26q-151 0 -259.5 118.5t-108.5 281.5q0 113 48 211t125 161.5t172 99.5
t191 36z" />
    <glyph glyph-name="r" unicode="r" horiz-adv-x="898" 
d="M727 894q89 0 126 -34q7 -11 14.5 -40t7.5 -58q0 -55 -36 -106.5t-84 -51.5q-13 0 -26.5 6t-20 10.5t-22.5 18.5t-17 15l-12 11.5t-13.5 12t-12.5 9t-16 7.5t-18 2q-55 0 -94.5 -60t-39.5 -102v-244q0 -148 16 -188q10 -25 147 -36q7 -11 6.5 -38t-6.5 -36
q-136 14 -293 14q-137 0 -274 -14q-6 9 -6.5 36t6.5 38q118 9 128 36q16 40 16 188v230q0 130 -18 164q-10 19 -56.5 29.5t-69.5 10.5q-5 3 -5 32.5t7 29.5q104 8 213.5 40t176.5 66q10 -3 22 -16t12 -18q-4 -12 -12 -74t-8 -84q0 -5 2.5 -7t5.5 -1.5t4 2.5q22 39 42.5 68.5
t52 62.5t71 51t84.5 18z" />
    <glyph glyph-name="s" unicode="s" horiz-adv-x="808" 
d="M448 896q42 0 78.5 -5.5t85.5 -18t60 -14.5q13 -55 27.5 -138.5t14.5 -107.5q0 -6 -12 -10t-24 -4q-14 0 -38 16q-45 202 -212 202q-51 0 -82.5 -28t-31.5 -80q0 -25 9.5 -46.5t23 -36t37 -29.5t41.5 -23.5t48 -21.5t45 -21q96 -48 129 -75q87 -70 87 -195
q0 -72 -32 -127t-87.5 -86.5t-124.5 -47t-150 -15.5q-31 0 -69 5.5t-60.5 10.5t-61.5 15l-43 11q-5 30 -10.5 131.5t-5.5 128.5q0 14 30 14q12 0 26 -6t18 -14q10 -62 33.5 -106.5t55.5 -67t63 -32.5t64 -10q51 0 82.5 32t31.5 76q0 29 -11.5 51.5t-35 40t-45 29.5t-58 29
t-56.5 28q-50 27 -83.5 51t-65 56.5t-47.5 73t-16 89.5q0 71 35.5 126.5t92 87t119 47t125.5 15.5z" />
    <glyph glyph-name="t" unicode="t" horiz-adv-x="684" 
d="M424 856h228q12 0 12 -26q0 -13 -15 -35t-31 -33h-194v-496q0 -79 26 -115.5t82 -36.5q31 0 62.5 18t43.5 30q14 -14 14 -28q0 -7 -6 -20.5t-10 -17.5q-16 -18 -40 -38.5t-74.5 -46t-97.5 -25.5q-39 0 -74.5 8.5t-70 30t-59.5 54t-40.5 83.5t-15.5 116v484h-142
q-10 4 -10 26q26 36 64 68h88v106q45 38 126 123.5t84 88.5q17 10 32.5 9.5t17.5 -9.5v-318z" />
    <glyph glyph-name="u" unicode="u" horiz-adv-x="1132" 
d="M711 520q0 130 -18 164q-10 19 -56.5 29.5t-69.5 10.5q-5 3 -5 32.5t7 29.5q104 8 213.5 40t176.5 66q10 -3 22 -16t12 -18q-4 -12 -11 -52.5t-9 -61.5q-2 -44 -2 -126v-402q0 -56 18 -76t90 -20q6 -6 6 -26t-12 -38q-51 -5 -132 -22.5t-141.5 -32.5t-70.5 -15
q-7 0 -12.5 13.5t-5.5 34.5v32q0 14 -6 10q-24 -16 -56.5 -33t-97 -35t-128.5 -18q-70 0 -121.5 29t-80 80.5t-41.5 113t-13 135.5v172q0 130 -18 164q-10 19 -56.5 29.5t-69.5 10.5q-5 3 -5 32.5t7 29.5q104 8 213.5 40t176.5 66q10 -3 22 -16t12 -18q-4 -12 -11 -52.5
t-9 -61.5q-2 -44 -2 -126v-180q0 -169 33.5 -247.5t122.5 -78.5q41 0 84.5 25.5t43.5 48.5v334z" />
    <glyph glyph-name="v" unicode="v" horiz-adv-x="1066" 
d="M270 872q135 0 252 14q8 -8 8 -36.5t-8 -37.5q-27 0 -72.5 -16t-45.5 -38q0 -20 4 -30l206 -394l158 350q22 44 22 74q0 17 -19 29t-47 17t-46 6.5t-30 1.5q-7 7 -7.5 35.5t5.5 38.5q105 -14 210 -14q103 0 208 14q6 -8 6.5 -35.5t-6.5 -38.5q-20 0 -47.5 -3.5t-64.5 -20
t-50 -42.5l-308 -656q-57 -112 -90 -112q-8 0 -24 16l-159 330.5l-199 411.5q-17 39 -59.5 57.5t-66.5 18.5q-8 13 -7.5 38.5t7.5 35.5q121 -14 270 -14z" />
    <glyph glyph-name="w" unicode="w" horiz-adv-x="1578" 
d="M256 872q149 0 266 14q8 -8 8 -36.5t-8 -37.5q-27 0 -72.5 -16t-45.5 -38q0 -20 4 -30l194 -384q132 296 132 326t-18 66q-19 37 -61.5 56.5t-64.5 19.5q-10 13 -9.5 38.5t7.5 35.5q71 -9 270 -14q135 0 252 14q8 -8 8 -36.5t-8 -37.5q-27 0 -72.5 -16t-45.5 -38
q0 -20 4 -30l168 -368l136 324q22 55 22 74q0 17 -19 29t-47 17t-46 6.5t-30 1.5q-7 7 -7.5 35.5t5.5 38.5q105 -14 210 -14q85 0 190 14q6 -8 6.5 -35.5t-6.5 -38.5q-109 0 -136 -62l-294 -662q-24 -53 -53.5 -81.5t-46.5 -28.5q-8 0 -24 16q-156 402 -222 558l-78 -185
l-84 -197l-36 -82q-23 -52 -53 -81t-47 -29q-8 0 -24 16l-354 742q-18 39 -60.5 57.5t-65.5 18.5q-8 13 -7.5 38.5t7.5 35.5q121 -14 256 -14z" />
    <glyph glyph-name="x" unicode="x" horiz-adv-x="1116" 
d="M311 872q135 0 252 14q7 -8 7 -36.5t-7 -37.5q-28 0 -62 -11t-34 -33q0 -3 20 -28l128 -164q154 165 154 182t-19 29t-47 17t-46 6.5t-30 1.5q-7 7 -7.5 35.5t5.5 38.5q105 -14 210 -14q137 0 242 14q6 -8 6.5 -35.5t-6.5 -38.5q-104 0 -166 -64q-79 -83 -230 -256
l137 -173.5l147 -186.5q26 -34 69 -50t65 -16q10 -13 9.5 -38.5t-7.5 -35.5q-69 9 -278 14q-137 0 -254 -14q-7 8 -7 36.5t7 37.5q28 0 62 11t34 33q0 3 -20 28l-142 174l-49 -51l-61.5 -64t-40.5 -47q-15 -20 -15 -30q0 -17 19 -29t47 -17t46 -6.5t30 -1.5q7 -7 7.5 -35.5
t-5.5 -38.5q-105 14 -210 14q-149 0 -254 -14q-6 8 -6.5 35.5t6.5 38.5q33 0 84 18.5t84 49.5q57 55 143.5 148l108.5 116l-84.5 114.5l-89 120l-88.5 115.5q-26 33 -70 48.5t-68 15.5q-10 13 -9.5 38.5t7.5 35.5q70 -9 276 -14z" />
    <glyph glyph-name="y" unicode="y" horiz-adv-x="1068" 
d="M270 872q135 0 252 14q8 -8 8 -36.5t-8 -37.5q-27 0 -72.5 -16t-45.5 -38q0 -20 4 -30l206 -394l158 350q22 44 22 74q0 17 -19 29t-47 17t-46 6.5t-30 1.5q-7 7 -7.5 35.5t5.5 38.5q105 -14 210 -14q103 0 208 14q6 -8 6.5 -35.5t-6.5 -38.5q-20 0 -47.5 -3.5t-64.5 -20
t-50 -42.5l-330 -696l-40 -86t-41.5 -86.5t-38.5 -67t-56 -79.5q-134 -167 -254 -167q-60 0 -97 31.5t-37 74.5q0 62 46 94q129 0 200.5 30t129.5 126q30 51 70 142l-332 674q-17 39 -59.5 57.5t-66.5 18.5q-8 13 -7.5 38.5t7.5 35.5q121 -14 270 -14z" />
    <glyph glyph-name="z" unicode="z" horiz-adv-x="920" 
d="M300 856h276q127 0 258 16q6 -10 6 -48l-486 -732h228q82 0 138.5 65.5t71.5 136.5q3 14 26 14q10 0 22 -5t19 -9t9 -6q-12 -35 -32 -107l-34 -127l-14 -54h-710q-20 16 -20 34t8 34l448 694q-144 2 -208 2q-29 0 -54 -14t-40.5 -31.5t-30.5 -47t-21.5 -48t-15.5 -47.5
q-4 -14 -46 -14q-24 0 -24 8q27 146 36 298q118 -12 190 -12z" />
    <glyph glyph-name="braceleft" unicode="{" horiz-adv-x="814" 
d="M265 314v52q170 97 143 234q-10 52 -68 207q-53 139 -50 284q5 273 173 406q47 37 72 6q29 -36 -7 -73q-131 -137 -124 -289q3 -52 70 -165q106 -174 70 -374q-32 -182 -171 -262q139 -80 171 -262q36 -200 -70 -374q-67 -113 -70 -165q-7 -152 124 -289q36 -37 7 -73
q-25 -31 -72 6q-168 133 -173 406q-3 145 50 284q58 155 68 207q27 137 -143 234z" />
    <glyph glyph-name="bar" unicode="|" horiz-adv-x="404" 
d="M255 -757q0 -11 -89 -29q-5 -1 -7 -1q-10 0 -11 7q0 1 0.5 4.5t0.5 4.5v2215l2 11q4 3 8 5q34 10 78 10q17 -1 16 -12z" />
    <glyph glyph-name="braceright" unicode="}" horiz-adv-x="814" 
d="M544 314q-170 -97 -143 -234q10 -52 68 -207q53 -139 50 -284q-5 -273 -173 -406q-47 -37 -72 -6q-29 36 7 73q131 137 124 289q-3 52 -70 165q-106 174 -70 374q32 182 171 262q-139 80 -171 262q-36 200 70 374q67 113 70 165q7 152 -124 289q-36 37 -7 73q25 31 72 -6
q168 -133 173 -406q3 -145 -50 -284q-58 -155 -68 -207q-27 -137 143 -234v-52z" />
    <glyph glyph-name="asciitilde" unicode="~" horiz-adv-x="1100" 
d="M522 546l-34.5 14l-40 16t-37 13t-43 12.5t-40 7t-45.5 3.5q-52 0 -100 -31t-72 -63q-11 4 -14 16q0 62 80 130t166 68q43 0 94 -12.5t76 -22.5t78 -33q4 -1 25.5 -10.5t28.5 -12t27.5 -10.5t31 -11l29.5 -8.5t32.5 -7.5t31.5 -4t34 -2q52 0 100 31t72 63q11 -4 14 -16
q0 -62 -80 -130t-166 -68q-23 0 -47.5 3.5t-42 7.5t-44.5 13t-38.5 13.5l-40.5 16.5t-35 14z" />
    <glyph glyph-name="exclamdown" unicode="&#xa1;" horiz-adv-x="494" 
d="M98 738q0 60 43.5 104t104.5 44q63 0 107.5 -45t44.5 -109q0 -60 -44 -103t-106 -43t-106 45.5t-44 106.5zM240 -420q-50 0 -87 37t-37 99q0 40 31.5 302.5t52.5 403.5q13 43 40 52q8 0 23 -10t23 -24q20 -122 53 -389.5t33 -336.5q0 -61 -38 -97.5t-94 -36.5z" />
    <glyph glyph-name="cent" unicode="&#xa2;" horiz-adv-x="964" 
d="M852 764q0 -47 -32.5 -85.5t-83.5 -38.5q-15 0 -29 5t-28 17t-22 20t-22 25.5t-19 22.5q-55 62 -136 62q-42 0 -75 -44t-49 -106.5t-16 -125.5q0 -100 26.5 -174.5t70 -114.5t91.5 -58.5t100 -18.5q133 0 224 100q10 -3 17 -14.5t7 -21.5q0 -29 -6 -38q-16 -25 -46 -54.5
t-76 -62.5t-109.5 -55t-130.5 -22q-113 0 -208 49t-153.5 145.5t-58.5 223.5q0 90 43 180t114 159.5t167.5 113t197.5 43.5q74 0 127.5 -11.5t74.5 -24.5q40 -44 40 -96zM562 962q70 0 70 -16l-166 -1022q-18 0 -42 5t-28 13z" />
    <glyph glyph-name="sterling" unicode="&#xa3;" horiz-adv-x="956" 
d="M633 1272q47 0 76.5 -11t65.5 -33q6 -6 12 -27.5t6 -36.5q0 -53 -28 -85.5t-70 -32.5q-38 0 -60 13t-42 39q-16 20 -25.5 30.5t-26.5 21t-34 10.5q-29 0 -49 -17.5t-30.5 -52t-14.5 -75.5t-4 -97q0 -78 40 -189q6 -16 11 -31h307q14 -12 10 -30t-13.5 -33.5t-16.5 -20.5
h-264q6 -28 6 -48q0 -100 -46 -188t-96 -134q54 30 130 30q35 0 113 -43t133 -43q27 0 48 9t36.5 28.5t21 28t16.5 28.5q6 3 16 -1.5t16 -12.5q10 -12 10 -38q-10 -30 -30.5 -66.5t-53.5 -79.5t-82 -71.5t-104 -28.5q-45 0 -89.5 18.5t-75 40.5t-77.5 40.5t-96 18.5
q-18 0 -42.5 -14.5t-40.5 -29t-41 -40.5t-30 -30q-12 0 -22 15t-10 29q0 16 7 34.5t20.5 37t24.5 31.5l27.5 31t20.5 22q35 39 51.5 116t16.5 160q0 51 -26 150h-140q-9 9 9 46.5t31 37.5h78q-14 55 -14 70q0 98 41.5 193t105 162t140.5 108t147 41z" />
    <glyph glyph-name="currency" unicode="&#xa4;" horiz-adv-x="1126" 
d="M576 320q73 0 117.5 76.5t44.5 191.5q0 137 -55.5 230.5t-134.5 93.5q-74 0 -121 -79.5t-47 -194.5q0 -135 58 -226.5t138 -91.5zM786 910l118 110q8 8 25 -4.5t33.5 -36.5t23.5 -47l-120 -112q58 -97 58 -206q0 -119 -66 -216l108 -116q8 -8 -4.5 -25t-36.5 -33.5
t-47 -23.5l-104 110q-95 -70 -212 -70q-129 0 -228 80l-106 -100q-8 -8 -25 4.5t-33.5 36.5t-23.5 47l108 102q-60 95 -60 204q0 131 76 232l-104 112q-8 8 4.5 25t36.5 33.5t47 23.5l104 -110q90 62 204 62q126 0 224 -82z" />
    <glyph glyph-name="yen" unicode="&#xa5;" horiz-adv-x="1384" 
d="M523 458h-198q-9 9 9 46.5t31 37.5h156q-1 8 -5 18q-18 42 -82 161l-118 217l-55 98q-33 62 -62 110q-19 32 -61 47.5t-75 18.5q-7 11 -6.5 38t6.5 36q137 -14 286 -14q145 0 282 14q6 -9 6.5 -36t-6.5 -38q-1 0 -11 -0.5t-15 -1t-17 -2t-19 -3.5t-17.5 -4.5t-17 -6.5
t-13 -9t-9.5 -12t-3 -15t14 -32l240 -442q7 -7 85.5 131.5l166.5 302.5q10 20 10 46q0 37 -148 48q-7 11 -6.5 38t6.5 36q165 -14 226 -14q51 0 124.5 6.5t99.5 7.5q6 -9 6.5 -36t-6.5 -38l-13 -1q-12 -1 -17.5 -1.5t-19.5 -2t-23 -4l-21.5 -6t-21.5 -8.5t-18 -12t-14 -15
q-45 -66 -187 -298t-178 -308q-3 -7 -5 -14h188q14 -12 10 -30t-13.5 -33.5t-16.5 -20.5h-173v-76h193q14 -12 10 -30t-13.5 -33.5t-16.5 -20.5h-174v-8q-2 -144 16 -188q10 -27 128 -36q7 -11 6.5 -38t-6.5 -36q-137 14 -286 14q-145 0 -282 -14q-6 9 -6.5 36t6.5 38
q118 9 128 36q3 7 5 14t3.5 16.5t2.5 16.5t2 20l1.5 20t0.5 23.5t0.5 23.5t0.5 27v27v8h-198q-9 9 9 46.5t31 37.5h158v76z" />
    <glyph glyph-name="brokenbar" unicode="&#xa6;" horiz-adv-x="420" 
d="M255 490q-1 -10 -43 -20t-53 -10q-5 0 -7.5 1.5t-3 3t0 6t0.5 5.5v968q-2 12 10 16q34 10 80 10q8 0 12 -3t4 -6v-3v-968zM149 -770v958q-2 12 10 16q34 10 80 10q8 0 12 -3t4 -6v-3v-958q-1 -10 -43 -20t-53 -10q-5 0 -7.5 1.5t-3 3t0 6t0.5 5.5z" />
    <glyph glyph-name="section" unicode="&#xa7;" horiz-adv-x="934" 
d="M292 -184q162 0 277 104l13 13v-1q31 21 76.5 68.5t92 108.5t79 132.5t32.5 126.5q0 39 -7.5 75t-16.5 63t-31.5 60.5l-35 51.5t-47 52.5l-47.5 47l-55 50.5q-256 234 -256 330q0 52 48.5 80t103.5 28q49 0 78 -26q45 -40 82 -40q78 0 78 80q0 32 -14 60q-61 26 -100 26
q-162 0 -277 -104l-13 -13v1q-31 -21 -76.5 -68.5t-92 -108.5t-79 -132.5t-32.5 -126.5q0 -39 7.5 -75t16.5 -63t31.5 -60.5l35 -51.5t47 -52.5l47.5 -47l55 -50.5q256 -234 256 -330q0 -52 -48.5 -80t-103.5 -28q-50 0 -72 22q-44 44 -86 44q-41 0 -60.5 -24.5t-19.5 -61.5
q0 -28 14 -52q56 -28 100 -28zM683 129q1 11 1 21q0 33 -12.5 67t-28 59t-46.5 58.5t-50 51.5l-57 51.5l-50 44.5l-66 62.5t-59 65.5t-53.5 76t-33.5 81.5t-14 94.5q0 61 16 96q8 16 21 35q-1 -11 -1 -21q0 -33 12.5 -67t28 -59t46.5 -58.5t50 -51.5l57 -51.5l50 -44.5
l66 -62.5t59 -65.5t53.5 -76t33.5 -81.5t14 -94.5q0 -60 -18 -98q-7 -15 -19 -33z" />
    <glyph glyph-name="dieresis" unicode="&#xa8;" horiz-adv-x="814" 
d="M592 1166q57 0 98.5 -40.5t41.5 -97.5t-41.5 -98.5t-98.5 -41.5t-97.5 41.5t-40.5 98.5t40.5 97.5t97.5 40.5zM216 1166q57 0 97.5 -40.5t40.5 -97.5t-40.5 -98.5t-97.5 -41.5t-98.5 41.5t-41.5 98.5t41.5 97.5t98.5 40.5z" />
    <glyph glyph-name="copyright" unicode="&#xa9;" horiz-adv-x="1306" 
d="M882 504q0 -12 -13 -67.5t-21 -58.5q-12 -4 -40 -15l-47 -18t-47.5 -13t-55.5 -6q-129 0 -209.5 77t-80.5 207t88.5 215t209.5 85q24 0 54 -5t70 -15t50 -12q1 -3 8 -33l13.5 -58.5t6.5 -32.5q0 -3 -11 -7.5t-19 -4.5q-10 0 -12 2q-4 16 -11.5 32t-24 36.5t-47 33
t-71.5 12.5q-55 0 -92.5 -36.5t-52.5 -88t-15 -113.5q0 -103 44 -173.5t126 -70.5q67 0 104 34q35 33 58 102q30 0 38 -8zM196 620q0 -189 133.5 -322.5t322.5 -133.5t322.5 133.5t133.5 322.5t-133.5 322.5t-322.5 133.5t-322.5 -133.5t-133.5 -322.5zM106 622
q0 226 160 386t386 160q149 0 275 -73t199.5 -199t73.5 -274t-73.5 -274t-199.5 -199t-275 -73q-226 0 -386 160t-160 386z" />
    <glyph glyph-name="ordfeminine" unicode="&#xaa;" horiz-adv-x="774" 
d="M372 592q20 0 39 11.5t19 18.5v176q-77 -28 -98 -40q-50 -30 -50 -84q1 -40 29 -61t61 -21zM402 1114q91 0 154.5 -60t63.5 -150v-250q0 -25 10.5 -37.5t25.5 -12.5q9 0 19 4t18 9t9 5q4 -1 9 -11.5t5 -16.5q0 -12 -8 -24q-25 -22 -70.5 -47t-85.5 -25q-35 0 -68 18.5
t-44 43.5q-20 -15 -74.5 -39.5t-87.5 -24.5q-80 0 -136 51t-56 113q0 37 23.5 69t52.5 43l268 98v20v36q0 52 -23.5 90t-60.5 38q-38 0 -54.5 -26.5t-29.5 -81.5q-15 -58 -82 -58q-31 0 -53.5 18t-22.5 46t20 58q25 25 110 64.5t168 39.5z" />
    <glyph glyph-name="guillemotleft" unicode="&#xab;" horiz-adv-x="850" 
d="M400 683q-170 -137 -170 -338.5t170 -347.5q35 -29 12 -71t-72 -18q-127 65 -199 181q-71 117 -70.5 252t73 252.5t196.5 178.5q50 24 73 -17t-13 -72zM758 683q-170 -137 -170 -338.5t170 -347.5q35 -29 12 -71t-72 -18q-127 65 -199 181q-71 117 -70.5 252t73 252.5
t196.5 178.5q50 24 73 -17t-13 -72z" />
    <glyph glyph-name="logicalnot" unicode="&#xac;" horiz-adv-x="1178" 
d="M1040 840v-502q-1 -1 -20.5 -5.5t-48.5 -8.5t-49 -4q-9 0 -15.5 3t-8.5 7l-2 4v390h-792q-12 0 -12 20q10 96 30 96h918z" />
    <glyph glyph-name="uni00AD" unicode="&#xad;" horiz-adv-x="748" 
d="M114 408q0 44 5 74.5t10 41t9 10.5h2l482 24h2q12 0 12 -18q0 -44 -6 -77q-8 -33 -14 -44l-6 -11l-482 -22h-4t-6 5.5t-4 16.5z" />
    <glyph glyph-name="registered" unicode="&#xae;" horiz-adv-x="1306" 
d="M650 1002q79 0 131.5 -39.5t52.5 -108.5q0 -44 -42.5 -82t-79.5 -48q26 -35 57 -71.5l49 -56.5l18 -20q26 -30 54 -48t41 -22t19 -4q1 -2 1.5 -7.5t-0.5 -11t-1 -10.5v-5q-48 -4 -90 -4q-44 0 -73.5 17.5t-58.5 54.5l-120 162q-8 12 -14 12h-12v-120q0 -58 6 -74
q3 -7 22 -11.5t30 -4.5q3 -4 3 -16.5t-3 -15.5q-48 6 -116 6q-70 0 -118 -6q-3 3 -3 15.5t3 16.5q11 0 30 4.5t22 11.5q6 16 6 74v292q0 58 -6 74q-5 12 -52 12q-3 4 -3 17.5t3 16.5q36 -2 120 -2q15 0 56.5 1t67.5 1zM710 848q0 50 -22.5 83t-61.5 33q-36 0 -40 -8
q-4 -10 -4 -50v-158h32q40 0 68 27.5t28 72.5zM196 722q0 -189 133.5 -322.5t322.5 -133.5t322.5 133.5t133.5 322.5t-133.5 322.5t-322.5 133.5t-322.5 -133.5t-133.5 -322.5zM106 724q0 226 160 386t386 160q149 0 275 -73t199.5 -199t73.5 -274t-73.5 -274t-199.5 -199
t-275 -73q-226 0 -386 160t-160 386z" />
    <glyph glyph-name="macron" unicode="&#xaf;" horiz-adv-x="938" 
d="M1124 1112q0 5 1 15t3 27t7 28.5t13 11.5h430q10 0 10 -14q0 -29 -12 -72q-2 -5 -6 -8.5t-6 -4.5l-2 -1h-426h-3t-5.5 4.5t-3.5 13.5z" />
    <glyph glyph-name="degree" unicode="&#xb0;" horiz-adv-x="580" 
d="M162 1074q0 -54 37 -93t91 -39t92 39t38 93t-38 92t-92 38t-91 -38t-37 -92zM68 1074q0 91 65 155.5t157 64.5t157 -64.5t65 -155.5q0 -92 -65.5 -158t-156.5 -66t-156.5 66t-65.5 158z" />
    <glyph glyph-name="plusminus" unicode="&#xb1;" horiz-adv-x="1164" 
d="M122 134h922q8 0 13 -9t5 -19q0 -50 -30 -88h-920q-12 0 -12 32q0 12 6 40.5t16 43.5zM122 728h398v398q14 11 42 16.5t42 5.5q32 0 32 -18v-402h408q8 0 13 -9t5 -19q0 -50 -30 -88h-396v-396q-33 -22 -94 -22q-9 0 -15.5 5t-6.5 11v402h-408q-12 0 -12 32q0 12 6 40.5
t16 43.5z" />
    <glyph glyph-name="uni00B2" unicode="&#xb2;" horiz-adv-x="704" 
d="M620 764q-9 -39 -38.5 -137t-37.5 -119h-454q-7 7 -14 28q136 150 238 282q51 66 72.5 120t21.5 112t-37.5 93t-90.5 35q-30 0 -58 -14.5t-42 -30t-28 -34.5l-14 -19q-5 0 -11.5 1.5t-13.5 8.5t-7 18q10 21 31 47.5t54 57t79.5 51t95.5 20.5q108 0 170 -53.5t62 -154.5
q0 -73 -44.5 -138t-117.5 -132q-102 -92 -190 -156h224q14 0 27 6t21 12t17.5 21t13 22t12 26.5t9.5 22.5q3 10 22 10t28 -6z" />
    <glyph glyph-name="uni00B3" unicode="&#xb3;" horiz-adv-x="676" 
d="M358 1284q67 0 129.5 -43t62.5 -125q0 -43 -16 -75t-41.5 -49.5t-46.5 -25.5t-42 -12q14 -1 36.5 -7t52.5 -21.5t55 -37t42.5 -57t17.5 -77.5q0 -64 -32.5 -116t-85 -83.5t-113 -48t-121.5 -16.5q-56 0 -101 12.5t-65 29.5q-18 27 -18 54q0 25 17.5 47.5t46.5 22.5
q40 0 80 -62q14 -23 39.5 -36.5t50.5 -13.5q58 0 90 41.5t32 122.5q0 71 -42 124.5t-102 53.5q-44 0 -64 -6q-12 18 -12 30q0 16 4 24q27 4 54.5 12t57 24t48 43.5t18.5 62.5q0 50 -33 83t-87 33q-30 0 -60.5 -15.5t-45.5 -28.5t-22 -22q-10 2 -20.5 11.5t-7.5 22.5
q37 49 106.5 86.5t137.5 37.5z" />
    <glyph glyph-name="acute" unicode="&#xb4;" horiz-adv-x="472" 
d="M310 1374q46 0 69 -20t23 -38q0 -35 -74.5 -102.5t-150 -118.5t-87.5 -51q-10 0 -22 13.5t-12 22.5q0 5 30.5 54.5t76 116t79.5 105.5q18 18 68 18z" />
    <glyph glyph-name="uni00B5" unicode="&#xb5;" horiz-adv-x="1022" 
d="M460 440q5 -35 15.5 -68.5t28.5 -67.5t47 -55t65 -21q88 0 158 64t70 142q-14 112 -14 224q0 34 -4 186q30 48 60 48q20 0 92 -31.5t72 -48.5q0 -22 -5.5 -55.5t-11.5 -57.5l-18.5 -70.5t-16.5 -64.5q-8 -32 -23.5 -87l-24.5 -87q-1 -58 9.5 -97t28.5 -56t33.5 -23
t32.5 -6q27 0 50 10.5t41 31t26.5 32.5t20.5 32q8 0 20 -21t16 -35q4 -16 -4 -40q-75 -226 -162 -226q-46 1 -83 38t-58.5 92t-30.5 122q-32 -114 -92.5 -187t-139.5 -73q-71 0 -137 95.5t-79 194.5q1 -7 5 -93.5t9 -177.5t17 -209.5t27 -199.5q-9 -15 -34.5 -31.5
t-49.5 -16.5q-27 0 -74.5 42t-47.5 62q0 49 17 348.5t33 433.5q0 24 -16 164.5t-16 163.5q0 64 6 88q16 44 50 44q20 0 89 -31.5t69 -48.5q0 -65 -28 -196q-9 -46 -22.5 -106t-15.5 -70z" />
    <glyph glyph-name="paragraph" unicode="&#xb6;" horiz-adv-x="1058" 
d="M710 676v520q-10 10 -58 10q-44 0 -56 -12v-528q18 0 63.5 3t50.5 7zM708 584q-8 -1 -32 -2.5t-45 -3l-35 -2.5v-340q0 -104 10 -132q3 -10 46 -10q40 0 44 8q12 26 12 122v360zM808 598v-364q0 -86 10 -114q9 -24 64 -38t82 -14q8 -13 8 -38.5t-4 -37.5q-252 14 -312 14
q-54 0 -110 -2.5t-118 -6.5t-84 -5q-5 8 -5.5 26.5t1.5 33t4 14.5q29 0 79.5 14.5t60.5 37.5q12 26 12 114v342q-197 0 -313.5 94t-116.5 270q0 80 25 144.5t64.5 105t91.5 67.5t103.5 38t103.5 11q59 0 108 -4t108 -4q60 0 120 3t90 5l30 2q7 -8 6.5 -38.5t-8.5 -35.5
q-25 0 -55 -11.5t-37 -28.5q-6 -21 -6 -128v-376q4 -1 29 5.5t47 13.5l22 7q8 0 8 -20q-2 -15 -19 -43.5t-27 -32.5q-37 -17 -62 -20z" />
    <glyph glyph-name="periodcentered" unicode="&#xb7;" horiz-adv-x="482" 
d="M94 530q0 60 43.5 103t104.5 43q60 0 103 -43t43 -103q0 -61 -41.5 -106.5t-100.5 -45.5q-62 0 -107 45.5t-45 106.5z" />
    <glyph glyph-name="cedilla" unicode="&#xb8;" horiz-adv-x="908" 
d="M466 -50q32 4 44 4q40 0 70 -29.5t30 -68.5q0 -73 -52.5 -120.5t-141.5 -47.5q-30 0 -57 10t-39 22q-8 12 -8 40q0 14 6 14q60 -30 96 -30q47 0 67.5 17.5t20.5 42.5q0 26 -12 46t-40 20q-17 0 -52 -14q-5 0 -15.5 11t-10.5 19q36 60 56 110h64z" />
    <glyph glyph-name="uni00B9" unicode="&#xb9;" horiz-adv-x="582" 
d="M228 1022q0 41 -10 67.5t-28 26.5q-20 0 -90 -32q-7 1 -14.5 14.5t-7.5 25.5t2 14q62 26 140 62.5l124.5 59t47.5 22.5h2q5 0 17.5 -17t14.5 -23q-24 -88 -24 -170v-380q0 -90 20 -110q10 -12 44.5 -19t49.5 -7q3 0 2.5 -25t-2.5 -27q-192 8 -200 8q-12 0 -204 -8
q-4 4 -4 28t4 24q16 0 51.5 8.5t44.5 19.5q7 8 13.5 49t6.5 61v328z" />
    <glyph glyph-name="ordmasculine" unicode="&#xba;" horiz-adv-x="812" 
d="M388 1046q-26 0 -45.5 -9t-31.5 -27t-20 -37.5t-11.5 -47t-4.5 -49.5t-1 -50q0 -63 14 -120t49 -99.5t85 -42.5q38 0 62.5 19.5t35.5 54.5t14.5 67t3.5 75q0 63 -14.5 121t-50 101.5t-85.5 43.5zM404 1106q147 0 242.5 -84.5t95.5 -211.5t-97.5 -217.5t-238.5 -90.5
q-147 0 -241.5 85.5t-94.5 212.5t97 216.5t237 89.5z" />
    <glyph glyph-name="guillemotright" unicode="&#xbb;" horiz-adv-x="850" 
d="M450 -3q171 148 170.5 349t-170.5 337q-36 29 -13.5 71t73.5 18q125 -62 197.5 -179.5t72 -252.5t-72 -251.5t-197.5 -180.5q-48 -24 -72 17t12 72zM92 -3q171 148 170.5 349t-170.5 337q-36 29 -13.5 71.5t73.5 17.5q125 -62 197.5 -179.5t72 -252.5t-72 -251.5
t-197.5 -180.5q-48 -24 -72 17t12 72z" />
    <glyph glyph-name="onequarter" unicode="&#xbc;" horiz-adv-x="1474" 
d="M1288 772q8 0 24 -12.5t16 -25.5v-458h50q39 -36 20 -92h-70v-180q-40 -10 -94 -10q-80 0 -80 16v174h-306q-9 3 -16.5 13t-7.5 21l438 538q13 16 26 16zM1154 276v248l-109.5 -133l-94.5 -115v0v0v0v0v0v0v0v0h1v0v0h1v0h1v0h1v0h1h1v0h1h1h1h1h1h1h1h1h1h1h1h1h1h1h1h1
h1h1h1h1h1h1h1h1h1h1h1h1h1h1h1h1h1h1h1h1h1h1h1h1h1h1h1h1h1h1h1h1h1h1h1h1h1h1h1h1h1h1h1h1h1h1h1h1h1h1h1h1h1h1h1h1h2h1h1h1h1h1h1h1h1h1h1h1h1h1h1h1h2h1h1h1h1h1h1h1h1h1h2h1h1h1h1h1h1h1h1h2h1h1h1h1h1h1h1h2h1h1h1h1h1h1h1h2h1h1h1h1h1h1h2h1h1h1h1h1h1h2h1h1h1h1h1
h1h1h2h1h1h1h1h1h1h2h1h1h1h1h1h1h1h1h2h1h1h1h1h1h1h1h1h1h1h2h1h1h1h1h9zM388 1072v-380q0 -90 20 -110q10 -12 44.5 -19t49.5 -7q3 0 2.5 -25t-2.5 -27q-192 8 -200 8q-12 0 -204 -8q-4 4 -4 28t4 24q16 0 51.5 8.5t44.5 19.5q7 8 13.5 49t6.5 61v328q0 41 -10 67.5
t-28 26.5q-20 0 -90 -32q-7 1 -14.5 26.5t-5.5 27.5q62 26 140.5 62.5l125.5 59t48 22.5q30 -34 32 -40q-24 -88 -24 -170zM438 -68q-13 -3 -21.5 1.5t-10.5 10.5l-2 6l690 1376q20 30 72 42q13 3 23.5 -1.5t12.5 -12.5l-690 -1376q-5 -11 -27.5 -25.5t-46.5 -20.5z" />
    <glyph glyph-name="onehalf" unicode="&#xbd;" horiz-adv-x="1496" 
d="M1175 772q108 0 170 -53.5t62 -154.5q0 -73 -44.5 -138t-117.5 -132q-102 -92 -190 -156h224q14 0 27 6t21 12t17.5 21t13 22t12 26.5t9.5 22.5q3 10 22 10t28 -6q-9 -39 -38.5 -137t-37.5 -119h-454q-7 7 -14 28q136 150 238 282q51 66 72.5 120t21.5 112t-37.5 93
t-90.5 35q-30 0 -58 -14.5t-42 -30t-28 -34.5l-14 -19q-5 0 -11.5 1.5t-13.5 8.5t-7 18q10 21 31 47.5t54 57t79.5 51t95.5 20.5zM391 1072v-380q0 -90 20 -110q10 -12 44.5 -19t49.5 -7q3 0 2.5 -25t-2.5 -27q-192 8 -200 8q-12 0 -204 -8q-5 4 -5 28t5 24q16 0 51.5 8.5
t44.5 19.5q7 8 13.5 49t6.5 61v328q0 41 -10 67.5t-28 26.5q-20 0 -90 -32q-7 1 -15 22t-5 32q62 26 140.5 62.5l125.5 59t48 22.5q28 -28 32 -40q-24 -88 -24 -170zM1161 1354l-690 -1376q-5 -11 -27.5 -25.5t-46.5 -20.5q-13 -3 -21.5 1.5t-10.5 10.5l-2 6l690 1376
q20 30 72 42q13 3 23.5 -1.5t12.5 -12.5z" />
    <glyph glyph-name="threequarters" unicode="&#xbe;" horiz-adv-x="1480" 
d="M1294 772q8 0 24 -12.5t16 -25.5v-458h50q39 -36 20 -92h-70v-180q-40 -10 -94 -10q-80 0 -80 16v174h-306q-9 3 -16.5 13t-7.5 21l438 538q13 16 26 16zM1160 276v248l-109.5 -133l-94.5 -115v0v0v0v0v0v0v0v0h1v0v0h1v0h1v0h1v0h1h1v0h1h1h1h1h1h1h1h1h1h1h1h1h1h1h1h1
h1h1h1h1h1h1h1h1h1h1h1h1h1h1h1h1h1h1h1h1h1h1h1h1h1h1h1h1h1h1h1h1h1h1h1h1h1h1h1h1h1h1h1h1h1h1h1h1h1h1h1h1h1h1h1h1h2h1h1h1h1h1h1h1h1h1h1h1h1h1h1h1h2h1h1h1h1h1h1h1h1h1h2h1h1h1h1h1h1h1h1h2h1h1h1h1h1h1h1h2h1h1h1h1h1h1h1h2h1h1h1h1h1h1h2h1h1h1h1h1h1h2h1h1h1h1h1
h1h1h2h1h1h1h1h1h1h2h1h1h1h1h1h1h1h1h2h1h1h1h1h1h1h1h1h1h1h2h1h1h1h1h9zM354 1284q67 0 129.5 -43t62.5 -125q0 -43 -16 -75t-41.5 -49.5t-46.5 -25.5t-42 -12q14 -1 36.5 -7t52.5 -21.5t55 -37t42.5 -57t17.5 -77.5q0 -64 -32.5 -116t-85 -83.5t-113 -48t-121.5 -16.5
q-56 0 -101 12.5t-65 29.5q-18 27 -18 54q0 25 17.5 47.5t46.5 22.5q40 0 80 -62q14 -23 39.5 -36.5t50.5 -13.5q58 0 90 41.5t32 122.5q0 71 -42 124.5t-102 53.5q-44 0 -64 -6q-12 18 -12 30q0 16 4 24q27 4 54.5 12t57 24t48 43.5t18.5 62.5q0 50 -33 83t-87 33
q-30 0 -60.5 -15.5t-45.5 -28.5t-22 -22q-10 2 -20.5 11.5t-7.5 22.5q37 49 106.5 86.5t137.5 37.5zM1228 1354l-690 -1376q-5 -11 -27.5 -25.5t-46.5 -20.5q-13 -3 -21.5 1.5t-10.5 10.5l-2 6l690 1376q20 30 72 42q13 3 23.5 -1.5t12.5 -12.5z" />
    <glyph glyph-name="questiondown" unicode="&#xbf;" horiz-adv-x="776" 
d="M660 734q0 -62 -43 -104t-101 -42q-63 0 -106.5 42.5t-43.5 103.5q0 62 41.5 108t100.5 46q58 0 105 -44.5t47 -109.5zM566 450q14 -31 27 -88.5t13 -111.5q0 -41 -13.5 -76.5t-40.5 -64t-49.5 -46.5t-56.5 -41q-212 -140 -212 -220q0 -36 29 -66t79 -30q24 0 53 19.5
t52.5 42.5t55 42.5t59.5 19.5q55 0 89.5 -40t34.5 -92q0 -25 -9.5 -54t-20.5 -38q-60 -34 -180 -34q-32 0 -78 9.5t-105.5 35t-109.5 63t-84.5 101.5t-34.5 143q0 32 7 61.5t16.5 51.5t29 45.5t33 37.5t41 34t40.5 28l44.5 27t40.5 25l42 25.5l48.5 29.5t39.5 29.5t34 35.5
q4 6 6.5 14t3 18.5t1 18.5t0 19t-0.5 14q3 10 13 23t17 13q22 0 46 -24z" />
    <glyph glyph-name="Agrave" unicode="&#xc0;" horiz-adv-x="1350" 
d="M766 1496q0 -10 -9 -25t-19 -15q-17 0 -103.5 35t-171.5 86.5t-85 84.5q0 37 38 56.5t74 19.5q20 0 36 -8q65 -50 152.5 -136.5t87.5 -97.5zM188 268l426 980q10 22 34.5 49t39.5 27q13 0 26 -4.5t16 -9.5l410 -1014q14 -33 31 -78.5l25 -65.5q12 -28 36 -47.5t51 -26.5
t43 -9.5t28 -2.5q7 -13 8.5 -40.5t-4.5 -33.5q-18 1 -117 8.5t-151 7.5q-41 0 -97 -3t-121 -7.5t-84 -5.5q-8 8 -8 41t8 33q29 0 63.5 9.5t54.5 26.5q18 15 18 34q0 8 -30 84l-60 148l-30 72q-8 8 -14 8q-38 2 -192 2q-138 0 -208 -2q-9 0 -14 -10q-50 -112 -72 -168
q-44 -110 -44 -136q0 -18 21.5 -32.5t50 -21.5t51 -10.5t31.5 -3.5q8 -12 7.5 -39.5t-5.5 -34.5q-140 16 -216 16q-78 0 -218 -16q-6 6 -8 30.5t4 41.5q22 0 74 21t66 43q34 56 70 140zM590 952l-170 -392q0 -8 4 -8q60 -6 166 -6q98 0 160 4q2 0 4 2q2 4 2 6v2z" />
    <glyph glyph-name="Aacute" unicode="&#xc1;" horiz-adv-x="1350" 
d="M578 1496q0 11 87.5 97.5t152.5 136.5q16 8 36 8q36 0 74 -19.5t38 -56.5q0 -33 -85 -84.5t-171.5 -86.5t-103.5 -35q-10 0 -19 15t-9 25zM188 268l426 980q10 22 34.5 49t39.5 27q13 0 26 -4.5t16 -9.5l410 -1014q14 -33 31 -78.5l25 -65.5q12 -28 36 -47.5t51 -26.5
t43 -9.5t28 -2.5q7 -13 8.5 -40.5t-4.5 -33.5q-18 1 -117 8.5t-151 7.5q-41 0 -97 -3t-121 -7.5t-84 -5.5q-8 8 -8 41t8 33q29 0 63.5 9.5t54.5 26.5q18 15 18 34q0 8 -30 84l-60 148l-30 72q-8 8 -14 8q-38 2 -192 2q-138 0 -208 -2q-9 0 -14 -10q-50 -112 -72 -168
q-44 -110 -44 -136q0 -18 21.5 -32.5t50 -21.5t51 -10.5t31.5 -3.5q8 -12 7.5 -39.5t-5.5 -34.5q-140 16 -216 16q-78 0 -218 -16q-6 6 -8 30.5t4 41.5q22 0 74 21t66 43q34 56 70 140zM590 952l-170 -392q0 -8 4 -8q60 -6 166 -6q98 0 160 4q2 0 4 2q2 4 2 6v2z" />
    <glyph glyph-name="Acircumflex" unicode="&#xc2;" horiz-adv-x="1350" 
d="M936 1460q-20 5 -108 48.5t-132 71.5q-44 -29 -130 -71.5t-110 -48.5q-20 10 -20 34q22 16 144 130q41 37 90 96q17 20 26 20q6 0 26 -20l84 -88q112 -109 150 -138q0 -27 -20 -34zM188 268l426 980q10 22 34.5 49t39.5 27q13 0 26 -4.5t16 -9.5l410 -1014
q14 -33 31 -78.5l25 -65.5q12 -28 36 -47.5t51 -26.5t43 -9.5t28 -2.5q7 -13 8.5 -40.5t-4.5 -33.5q-18 1 -117 8.5t-151 7.5q-41 0 -97 -3t-121 -7.5t-84 -5.5q-8 8 -8 41t8 33q29 0 63.5 9.5t54.5 26.5q18 15 18 34q0 8 -30 84l-60 148l-30 72q-8 8 -14 8q-38 2 -192 2
q-138 0 -208 -2q-9 0 -14 -10q-50 -112 -72 -168q-44 -110 -44 -136q0 -18 21.5 -32.5t50 -21.5t51 -10.5t31.5 -3.5q8 -12 7.5 -39.5t-5.5 -34.5q-140 16 -216 16q-78 0 -218 -16q-6 6 -8 30.5t4 41.5q22 0 74 21t66 43q34 56 70 140zM590 952l-170 -392q0 -8 4 -8
q60 -6 166 -6q98 0 160 4q2 0 4 2q2 4 2 6v2z" />
    <glyph glyph-name="Atilde" unicode="&#xc3;" horiz-adv-x="1350" 
d="M550 1708q35 0 69 -9.5t55 -19.5t56 -29q116 -64 166 -64q37 0 69.5 15t50.5 32.5t33.5 35t20.5 19.5q7 0 11.5 -9.5t4.5 -18.5q0 -45 -38 -96q-79 -98 -186 -98q-35 0 -69 9.5t-55 19.5t-56 29q-5 3 -24 13.5l-25.5 14t-22.5 11.5t-25 11.5t-22 8t-24.5 6t-22.5 1.5
q-37 0 -69.5 -15t-50.5 -33t-33.5 -36t-20.5 -20q-7 0 -11.5 10.5t-4.5 19.5q0 45 38 96q77 96 186 96zM188 268l426 980q10 22 34.5 49t39.5 27q13 0 26 -4.5t16 -9.5l410 -1014q14 -33 31 -78.5l25 -65.5q12 -28 36 -47.5t51 -26.5t43 -9.5t28 -2.5q7 -13 8.5 -40.5
t-4.5 -33.5q-18 1 -117 8.5t-151 7.5q-41 0 -97 -3t-121 -7.5t-84 -5.5q-8 8 -8 41t8 33q29 0 63.5 9.5t54.5 26.5q18 15 18 34q0 8 -30 84l-60 148l-30 72q-8 8 -14 8q-38 2 -192 2q-138 0 -208 -2q-9 0 -14 -10q-50 -112 -72 -168q-44 -110 -44 -136q0 -18 21.5 -32.5
t50 -21.5t51 -10.5t31.5 -3.5q8 -12 7.5 -39.5t-5.5 -34.5q-140 16 -216 16q-78 0 -218 -16q-6 6 -8 30.5t4 41.5q22 0 74 21t66 43q34 56 70 140zM590 952l-170 -392q0 -8 4 -8q60 -6 166 -6q98 0 160 4q2 0 4 2q2 4 2 6v2z" />
    <glyph glyph-name="Adieresis" unicode="&#xc4;" horiz-adv-x="1350" 
d="M752 1594q0 57 39.5 95.5t96.5 38.5t96.5 -38.5t39.5 -95.5t-39.5 -96.5t-96.5 -39.5t-96.5 39.5t-39.5 96.5zM342 1594q0 57 38.5 95.5t95.5 38.5t96.5 -38.5t39.5 -95.5t-39.5 -96.5t-96.5 -39.5t-95.5 39.5t-38.5 96.5zM188 268l426 980q10 22 34.5 49t39.5 27
q13 0 26 -4.5t16 -9.5l410 -1014q14 -33 31 -78.5l25 -65.5q12 -28 36 -47.5t51 -26.5t43 -9.5t28 -2.5q7 -13 8.5 -40.5t-4.5 -33.5q-18 1 -117 8.5t-151 7.5q-41 0 -97 -3t-121 -7.5t-84 -5.5q-8 8 -8 41t8 33q29 0 63.5 9.5t54.5 26.5q18 15 18 34q0 8 -30 84l-60 148
l-30 72q-8 8 -14 8q-38 2 -192 2q-138 0 -208 -2q-9 0 -14 -10q-50 -112 -72 -168q-44 -110 -44 -136q0 -18 21.5 -32.5t50 -21.5t51 -10.5t31.5 -3.5q8 -12 7.5 -39.5t-5.5 -34.5q-140 16 -216 16q-78 0 -218 -16q-6 6 -8 30.5t4 41.5q22 0 74 21t66 43q34 56 70 140z
M590 952l-170 -392q0 -8 4 -8q60 -6 166 -6q98 0 160 4q2 0 4 2q2 4 2 6v2z" />
    <glyph glyph-name="Aring" unicode="&#xc5;" horiz-adv-x="1350" 
d="M592 1518q0 -45 30.5 -76.5t75.5 -31.5t75.5 31.5t30.5 76.5t-30.5 76.5t-75.5 31.5t-75.5 -31.5t-30.5 -76.5zM500 1518q0 81 58.5 138.5t139.5 57.5t138.5 -57.5t57.5 -138.5t-57.5 -139.5t-138.5 -58.5t-139.5 58.5t-58.5 139.5zM188 268l426 980q10 22 34.5 49
t39.5 27q13 0 26 -4.5t16 -9.5l410 -1014q14 -33 31 -78.5l25 -65.5q12 -28 36 -47.5t51 -26.5t43 -9.5t28 -2.5q7 -13 8.5 -40.5t-4.5 -33.5q-18 1 -117 8.5t-151 7.5q-41 0 -97 -3t-121 -7.5t-84 -5.5q-8 8 -8 41t8 33q29 0 63.5 9.5t54.5 26.5q18 15 18 34q0 8 -30 84
l-60 148l-30 72q-8 8 -14 8q-38 2 -192 2q-138 0 -208 -2q-9 0 -14 -10q-50 -112 -72 -168q-44 -110 -44 -136q0 -18 21.5 -32.5t50 -21.5t51 -10.5t31.5 -3.5q8 -12 7.5 -39.5t-5.5 -34.5q-140 16 -216 16q-78 0 -218 -16q-6 6 -8 30.5t4 41.5q22 0 74 21t66 43
q34 56 70 140zM590 952l-170 -392q0 -8 4 -8q60 -6 166 -6q98 0 160 4q2 0 4 2q2 4 2 6v2z" />
    <glyph glyph-name="AE" unicode="&#xc6;" horiz-adv-x="1802" 
d="M818 550v490l-302 -480q-2 -8 2 -8q60 -6 152 -6q94 0 148 4zM960 1314q48 0 330.5 6.5t319.5 7.5q6 -45 16 -95l23.5 -112.5t18.5 -88.5q-10 -10 -46 -10q-26 0 -32 16q-18 47 -35 79t-42.5 62.5t-60 45.5t-78.5 15h-166q-89 0 -100 -24q-10 -24 -10 -122v-358
q0 -9 26 -15.5t60 -6.5h106q88 0 120 26t56 114q3 16 24 16q28 0 38 -10v-384q-8 -8 -36 -8q-25 0 -28 16q-26 102 -70 122q-34 14 -152 14q-144 0 -144 -28v-310q0 -118 16 -158q8 -19 47 -29.5t83 -10.5h132q120 0 186 66q58 58 108 190q3 12 28 12q16 0 36 -4t24 -8
q-4 -12 -23.5 -66l-28 -79l-22.5 -68t-22 -74.5t-12 -56.5q-412 0 -680 -1q-268 0 -296 -1q-6 9 -6.5 36t6.5 38q118 9 128 34q16 40 16 188v160h-158q-126 0 -196 -2q-11 0 -16 -10q-78 -118 -110 -174q-64 -108 -68 -132q-3 -18 13.5 -32t41.5 -20.5t44.5 -10t28.5 -3.5
q7 -10 7.5 -39t-5.5 -35q-136 16 -222 16q-74 0 -218 -16q-5 7 -5.5 30.5t7.5 41.5q23 0 80.5 21t75.5 43q50 61 98 140l588 940q0 4 -2 6q-3 6 -10 10.5t-17.5 7.5t-20.5 5.5t-23.5 4t-22 2t-20.5 1.5t-14 1q-7 11 -6.5 38t6.5 36q90 -6 286 -6z" />
    <glyph glyph-name="Ccedilla" unicode="&#xc7;" horiz-adv-x="1348" 
d="M794 -52q36 4 48 4q44 0 76 -31t32 -73q0 -77 -56.5 -128.5t-151.5 -51.5q-70 0 -104 34q-8 12 -8 42q0 16 6 16q64 -32 102 -32q50 0 73 19t23 45q0 70 -56 70q-18 0 -56 -14q-5 0 -16.5 12t-11.5 20q39 63 60 118h68q-18 -30 -28 -50zM774 1334q229 0 416 -38
q0 -1 34 -144.5t34 -157.5q0 -9 -17 -19.5t-35 -10.5q-20 0 -28 8q-7 29 -20 59t-43.5 71t-70.5 71.5t-106 52.5t-146 22q-102 0 -179.5 -45t-122 -123t-66.5 -172.5t-22 -203.5q0 -121 25.5 -230.5t75.5 -200.5t135 -145t194 -54q155 0 248 86q38 34 72.5 94.5t49 98.5
t18.5 55q43 0 70 -24q0 -28 -31.5 -162t-50.5 -142q-87 -32 -133.5 -47t-132.5 -31t-172 -16q-186 0 -343.5 84.5t-251 236.5t-93.5 337q0 142 55 270t148 220t221 146t268 54z" />
    <glyph glyph-name="Egrave" unicode="&#xc8;" horiz-adv-x="1204" 
d="M747 1496q0 -10 -9 -25t-19 -15q-17 0 -103.5 35t-171.5 86.5t-85 84.5q0 37 38 56.5t74 19.5q20 0 36 -8q65 -50 152.5 -136.5t87.5 -97.5zM363 1314q48 0 330.5 6.5t319.5 7.5q6 -45 16 -95l23.5 -112.5t18.5 -88.5q-10 -10 -46 -10q-26 0 -32 16q-18 47 -35 79
t-42.5 62.5t-60 45.5t-78.5 15h-166q-89 0 -100 -24q-10 -24 -10 -122v-358q0 -9 26.5 -15.5t59.5 -6.5h106q88 0 120 26t56 114q3 16 24 16q28 0 38 -10v-384q-8 -8 -36 -8q-25 0 -28 16q-26 102 -70 122q-34 14 -152 14q-144 0 -144 -28v-310q0 -118 16 -158
q8 -19 47 -29.5t83 -10.5h132q120 0 186 66q58 58 108 190q3 12 28 12q16 0 36 -4t24 -8q-4 -12 -23.5 -66l-28 -79l-22.5 -68t-22 -74.5t-12 -56.5q-898 0 -976 -2q-6 9 -6.5 36t6.5 38q118 9 128 34q16 40 16 188v736q0 148 -16 188q-9 23 -128 32q-7 11 -6.5 38t6.5 36
q90 -6 286 -6z" />
    <glyph glyph-name="Eacute" unicode="&#xc9;" horiz-adv-x="1204" 
d="M459 1496q0 11 87.5 97.5t152.5 136.5q16 8 36 8q36 0 74 -19.5t38 -56.5q0 -33 -85 -84.5t-171.5 -86.5t-103.5 -35q-10 0 -19 15t-9 25zM363 1314q48 0 330.5 6.5t319.5 7.5q6 -45 16 -95l23.5 -112.5t18.5 -88.5q-10 -10 -46 -10q-26 0 -32 16q-18 47 -35 79
t-42.5 62.5t-60 45.5t-78.5 15h-166q-89 0 -100 -24q-10 -24 -10 -122v-358q0 -9 26.5 -15.5t59.5 -6.5h106q88 0 120 26t56 114q3 16 24 16q28 0 38 -10v-384q-8 -8 -36 -8q-25 0 -28 16q-26 102 -70 122q-34 14 -152 14q-144 0 -144 -28v-310q0 -118 16 -158
q8 -19 47 -29.5t83 -10.5h132q120 0 186 66q58 58 108 190q3 12 28 12q16 0 36 -4t24 -8q-4 -12 -23.5 -66l-28 -79l-22.5 -68t-22 -74.5t-12 -56.5q-898 0 -976 -2q-6 9 -6.5 36t6.5 38q118 9 128 34q16 40 16 188v736q0 148 -16 188q-9 23 -128 32q-7 11 -6.5 38t6.5 36
q90 -6 286 -6z" />
    <glyph glyph-name="Ecircumflex" unicode="&#xca;" horiz-adv-x="1204" 
d="M837 1460q-20 5 -108 48.5t-132 71.5q-44 -29 -130 -71.5t-110 -48.5q-20 10 -20 34q22 16 144 130q41 37 90 96q17 20 26 20q6 0 26 -20l84 -88q112 -109 150 -138q0 -27 -20 -34zM363 1314q48 0 330.5 6.5t319.5 7.5q6 -45 16 -95l23.5 -112.5t18.5 -88.5
q-10 -10 -46 -10q-26 0 -32 16q-18 47 -35 79t-42.5 62.5t-60 45.5t-78.5 15h-166q-89 0 -100 -24q-10 -24 -10 -122v-358q0 -9 26.5 -15.5t59.5 -6.5h106q88 0 120 26t56 114q3 16 24 16q28 0 38 -10v-384q-8 -8 -36 -8q-25 0 -28 16q-26 102 -70 122q-34 14 -152 14
q-144 0 -144 -28v-310q0 -118 16 -158q8 -19 47 -29.5t83 -10.5h132q120 0 186 66q58 58 108 190q3 12 28 12q16 0 36 -4t24 -8q-4 -12 -23.5 -66l-28 -79l-22.5 -68t-22 -74.5t-12 -56.5q-898 0 -976 -2q-6 9 -6.5 36t6.5 38q118 9 128 34q16 40 16 188v736q0 148 -16 188
q-9 23 -128 32q-7 11 -6.5 38t6.5 36q90 -6 286 -6z" />
    <glyph glyph-name="Edieresis" unicode="&#xcb;" horiz-adv-x="1204" 
d="M653 1594q0 57 39.5 95.5t96.5 38.5t96.5 -38.5t39.5 -95.5t-39.5 -96.5t-96.5 -39.5t-96.5 39.5t-39.5 96.5zM243 1594q0 57 38.5 95.5t95.5 38.5t96.5 -38.5t39.5 -95.5t-39.5 -96.5t-96.5 -39.5t-95.5 39.5t-38.5 96.5zM363 1314q48 0 330.5 6.5t319.5 7.5
q6 -45 16 -95l23.5 -112.5t18.5 -88.5q-10 -10 -46 -10q-26 0 -32 16q-18 47 -35 79t-42.5 62.5t-60 45.5t-78.5 15h-166q-89 0 -100 -24q-10 -24 -10 -122v-358q0 -9 26.5 -15.5t59.5 -6.5h106q88 0 120 26t56 114q3 16 24 16q28 0 38 -10v-384q-8 -8 -36 -8q-25 0 -28 16
q-26 102 -70 122q-34 14 -152 14q-144 0 -144 -28v-310q0 -118 16 -158q8 -19 47 -29.5t83 -10.5h132q120 0 186 66q58 58 108 190q3 12 28 12q16 0 36 -4t24 -8q-4 -12 -23.5 -66l-28 -79l-22.5 -68t-22 -74.5t-12 -56.5q-898 0 -976 -2q-6 9 -6.5 36t6.5 38q118 9 128 34
q16 40 16 188v736q0 148 -16 188q-9 23 -128 32q-7 11 -6.5 38t6.5 36q90 -6 286 -6z" />
    <glyph glyph-name="Igrave" unicode="&#xcc;" horiz-adv-x="720" 
d="M503 1496q0 -10 -9 -25t-19 -15q-17 0 -103.5 35t-171.5 86.5t-85 84.5q0 37 38 56.5t74 19.5q20 0 36 -8q65 -50 152.5 -136.5t87.5 -97.5zM363 1310q145 0 282 14q6 -9 6.5 -36t-6.5 -38q-118 -9 -128 -36q-16 -40 -16 -188v-736q0 -148 16 -188q10 -27 128 -36
q7 -11 6.5 -38t-6.5 -36q-137 14 -286 14q-145 0 -282 -14q-6 9 -6.5 36t6.5 38q118 9 128 36q16 40 16 188v736q0 148 -16 188q-10 27 -128 36q-7 11 -6.5 38t6.5 36q137 -14 286 -14z" />
    <glyph glyph-name="Iacute" unicode="&#xcd;" horiz-adv-x="720" 
d="M219 1496q0 11 87.5 97.5t152.5 136.5q16 8 36 8q36 0 74 -19.5t38 -56.5q0 -33 -85 -84.5t-171.5 -86.5t-103.5 -35q-10 0 -19 15t-9 25zM363 1310q145 0 282 14q6 -9 6.5 -36t-6.5 -38q-118 -9 -128 -36q-16 -40 -16 -188v-736q0 -148 16 -188q10 -27 128 -36
q7 -11 6.5 -38t-6.5 -36q-137 14 -286 14q-145 0 -282 -14q-6 9 -6.5 36t6.5 38q118 9 128 36q16 40 16 188v736q0 148 -16 188q-10 27 -128 36q-7 11 -6.5 38t6.5 36q137 -14 286 -14z" />
    <glyph glyph-name="Icircumflex" unicode="&#xce;" horiz-adv-x="720" 
d="M605 1460q-20 5 -108 48.5t-132 71.5q-44 -29 -130 -71.5t-110 -48.5q-20 10 -20 34q22 16 144 130q41 37 90 96q17 20 26 20q6 0 26 -20l84 -88q112 -109 150 -138q0 -27 -20 -34zM363 1310q145 0 282 14q6 -9 6.5 -36t-6.5 -38q-118 -9 -128 -36q-16 -40 -16 -188v-736
q0 -148 16 -188q10 -27 128 -36q7 -11 6.5 -38t-6.5 -36q-137 14 -286 14q-145 0 -282 -14q-6 9 -6.5 36t6.5 38q118 9 128 36q16 40 16 188v736q0 148 -16 188q-10 27 -128 36q-7 11 -6.5 38t6.5 36q137 -14 286 -14z" />
    <glyph glyph-name="Idieresis" unicode="&#xcf;" horiz-adv-x="720" 
d="M428 1594q0 57 39.5 95.5t96.5 38.5t96.5 -38.5t39.5 -95.5t-39.5 -96.5t-96.5 -39.5t-96.5 39.5t-39.5 96.5zM18 1594q0 57 38.5 95.5t95.5 38.5t96.5 -38.5t39.5 -95.5t-39.5 -96.5t-96.5 -39.5t-95.5 39.5t-38.5 96.5zM364 1310q145 0 282 14q6 -9 6.5 -36t-6.5 -38
q-118 -9 -128 -36q-16 -40 -16 -188v-736q0 -148 16 -188q10 -27 128 -36q7 -11 6.5 -38t-6.5 -36q-137 14 -286 14q-145 0 -282 -14q-6 9 -6.5 36t6.5 38q118 9 128 36q16 40 16 188v736q0 148 -16 188q-10 27 -128 36q-7 11 -6.5 38t6.5 36q137 -14 286 -14z" />
    <glyph glyph-name="Eth" unicode="&#xd0;" horiz-adv-x="1530" 
d="M509 1094v-812q0 -118 16 -158q9 -20 47 -33t79 -13q244 0 360 139.5t116 432.5q0 285 -139 437.5t-369 152.5q-89 0 -100 -24q-10 -24 -10 -122zM677 1320q231 0 403.5 -76t268.5 -223t96 -349q0 -137 -40 -250t-111 -191.5t-169.5 -132.5t-214 -79t-247.5 -25h-578
q-6 9 -6.5 36t6.5 38q118 9 128 34q16 40 16 188v736q0 148 -16 188q-9 23 -128 32q-7 11 -6.5 38t6.5 36q90 -6 286 -6q48 0 157.5 2.5t148.5 3.5zM766 616h-700q-4 0 -6 16t0 36t8 28h698q6 0 6 -33t-6 -47z" />
    <glyph glyph-name="Ntilde" unicode="&#xd1;" horiz-adv-x="1520" 
d="M623 1708q35 0 69 -9.5t55 -19.5t56 -29q116 -64 166 -64q37 0 69.5 15t50.5 32.5t33.5 35t20.5 19.5q7 0 11.5 -9.5t4.5 -18.5q0 -45 -38 -96q-79 -98 -186 -98q-35 0 -69 9.5t-55 19.5t-56 29q-5 3 -24 13.5l-25.5 14t-22.5 11.5t-25 11.5t-22 8t-24.5 6t-22.5 1.5
q-37 0 -69.5 -15t-50.5 -33t-33.5 -36t-20.5 -20q-7 0 -11.5 10.5t-4.5 19.5q0 45 38 96q77 96 186 96zM301 1310q106 0 218 14q27 -55 102.5 -157.5l150 -194.5l200.5 -244.5l189 -231.5q4 14 4 82v374q0 67 -6 151t-16 105q-10 23 -67 33.5t-95 10.5q-2 0 -4 14.5t-1.5 33
t5.5 26.5q36 -2 114.5 -9t129.5 -7t140 7.5t112 8.5q4 -12 4 -37.5t-8 -38.5q-19 0 -48 -2t-70 -13.5t-48 -30.5q-7 -20 -13.5 -104t-6.5 -142v-680q0 -72 8 -280q-8 -8 -50 -8q-27 0 -62 46l-814 1002v-724q0 -52 7 -112t15 -82q9 -24 71.5 -38t92.5 -14q8 -13 8 -38.5
t-4 -37.5q-23 1 -112 8.5t-140 7.5t-129.5 -7t-114.5 -9q-5 8 -5.5 26.5t1.5 33t4 14.5q32 0 91 14.5t69 37.5q10 22 17 82.5t7 119.5v708q0 127 -36 180q-12 17 -59.5 29.5t-72.5 12.5q-8 0 -9.5 33t5.5 41q18 -1 61 -5t83.5 -6.5t81.5 -2.5z" />
    <glyph glyph-name="Ograve" unicode="&#xd2;" horiz-adv-x="1520" 
d="M858 1496q0 -10 -9 -25t-19 -15q-17 0 -103.5 35t-171.5 86.5t-85 84.5q0 37 38 56.5t74 19.5q20 0 36 -8q65 -50 152.5 -136.5t87.5 -97.5zM712 1248q-68 0 -122.5 -31.5t-89.5 -82.5t-58 -120t-32.5 -140.5t-9.5 -147.5q0 -79 9.5 -155.5t28.5 -151.5t51.5 -138
t75.5 -111.5t104 -76t133 -27.5q69 0 124.5 31t91 81.5t59 119t33.5 139.5t10 147q0 95 -13.5 186.5t-44.5 179t-77 153t-116.5 105.5t-156.5 40zM760 1334q130 0 254.5 -54t218 -144t150.5 -216.5t57 -263.5t-57 -263t-150.5 -216t-218 -143.5t-254.5 -53.5t-254.5 53.5
t-218 143.5t-150.5 216t-57 263t57 263.5t150.5 216.5t218 144t254.5 54z" />
    <glyph glyph-name="Oacute" unicode="&#xd3;" horiz-adv-x="1520" 
d="M638 1496q0 11 87.5 97.5t152.5 136.5q16 8 36 8q36 0 74 -19.5t38 -56.5q0 -33 -85 -84.5t-171.5 -86.5t-103.5 -35q-10 0 -19 15t-9 25zM712 1248q-68 0 -122.5 -31.5t-89.5 -82.5t-58 -120t-32.5 -140.5t-9.5 -147.5q0 -79 9.5 -155.5t28.5 -151.5t51.5 -138
t75.5 -111.5t104 -76t133 -27.5q69 0 124.5 31t91 81.5t59 119t33.5 139.5t10 147q0 95 -13.5 186.5t-44.5 179t-77 153t-116.5 105.5t-156.5 40zM760 1334q130 0 254.5 -54t218 -144t150.5 -216.5t57 -263.5t-57 -263t-150.5 -216t-218 -143.5t-254.5 -53.5t-254.5 53.5
t-218 143.5t-150.5 216t-57 263t57 263.5t150.5 216.5t218 144t254.5 54z" />
    <glyph glyph-name="Ocircumflex" unicode="&#xd4;" horiz-adv-x="1520" 
d="M1004 1460q-20 5 -108 48.5t-132 71.5q-44 -29 -130 -71.5t-110 -48.5q-20 10 -20 34q22 16 144 130q41 37 90 96q17 20 26 20q6 0 26 -20l84 -88q112 -109 150 -138q0 -27 -20 -34zM712 1248q-68 0 -122.5 -31.5t-89.5 -82.5t-58 -120t-32.5 -140.5t-9.5 -147.5
q0 -79 9.5 -155.5t28.5 -151.5t51.5 -138t75.5 -111.5t104 -76t133 -27.5q69 0 124.5 31t91 81.5t59 119t33.5 139.5t10 147q0 95 -13.5 186.5t-44.5 179t-77 153t-116.5 105.5t-156.5 40zM760 1334q130 0 254.5 -54t218 -144t150.5 -216.5t57 -263.5t-57 -263t-150.5 -216
t-218 -143.5t-254.5 -53.5t-254.5 53.5t-218 143.5t-150.5 216t-57 263t57 263.5t150.5 216.5t218 144t254.5 54z" />
    </font>
</defs>
</svg>
