<?xml version="1.0" standalone="no"?>
<!DOCTYPE svg PUBLIC "-//W3C//DTD SVG 1.1//EN" "http://www.w3.org/Graphics/SVG/1.1/DTD/svg11.dtd" >
<svg>
<metadata>
Created by FontForge 20090622 at Thu Nov 24 10:15:13 2016
 By deploy user
Copyright (c) 2010-2013, Khaled Hosny &#60;khaledhosny@eglug.org&#62;.
Portions copyright (c) 2010, Sebastian Kosch &#60;sebastian@aldusleaf.org&#62;

This Font Software is licensed under the Open Font License, Version 1.1.
</metadata>
<defs>
<font id="Amiri-BoldSlanted" horiz-adv-x="449" >
  <font-face 
    font-family="Amiri"
    font-weight="700"
    font-style="oblique"
    font-stretch="normal"
    units-per-em="2048"
    panose-1="0 0 5 0 0 0 0 0 0 0"
    ascent="1638"
    descent="-410"
    x-height="898"
    cap-height="1324"
    bbox="-1131.03 -1853.76 23679.6 3729.33"
    underline-thickness="102"
    underline-position="-1100"
    slope="9"
    unicode-range="U+0020-U+FDFD"
  />
<missing-glyph horiz-adv-x="748" 
d="M68 0v1365h544v-1365h-544zM136 68h408v1229h-408v-1229z" />
    <glyph glyph-name="uni08F0" unicode="&#x64e;&#x64e;" horiz-adv-x="0" 
d="M313 2085q33 26 57 19q23 -7 17 -53l-9 -64q-6 -37 -31 -54l-319 -220q-21 -13 -42 -9q-22 4 -23 43l-1 39q1 35 31 58zM422 2390q30 20 48 16q28 -8 24 -50l-5 -52q-5 -39 -38 -62l-326 -211q-38 -23 -61 -14t-11 53l11 39q11 34 30 48z" />
    <glyph glyph-name="uni08F1" unicode="&#x64f;&#x64f;" horiz-adv-x="0" 
d="M334 2301q37 10 68 -23q25 -29 36 -78q9 -48 -13 -141q33 -18 49 -26q25 -14 16 -46l-16 -51q-11 -30 -91 11q-87 -145 -171 -196q-45 -26 -68 -2q-21 27 30 69q82 68 142 166q-131 65 -104 167q37 124 122 150zM341 2149q-15 18 -40 6q-16 -8 -21 -14q22 -20 74 -47
q2 35 -13 55zM0 2296q37 10 68 -23q25 -29 36 -78q9 -48 -13 -141q33 -18 49 -26q25 -14 16 -46l-16 -51q-11 -30 -91 11q-87 -145 -171 -196q-45 -26 -68 -2q-21 27 30 69q82 68 142 166q-131 65 -104 167q37 124 122 150zM7 2144q-15 18 -40 6q-16 -8 -21 -14
q22 -20 74 -47q2 35 -13 55z" />
    <glyph glyph-name="uni08F2" unicode="&#x650;&#x650;" horiz-adv-x="0" 
d="M845 -932q33 26 57 19q23 -7 17 -53l-9 -64q-6 -37 -31 -54l-319 -220q-21 -13 -42 -9q-22 4 -23 43l-1 39q1 35 31 58zM954 -627q30 20 48 16q28 -8 24 -50l-5 -52q-5 -39 -38 -62l-326 -211q-38 -23 -61 -14t-11 53l11 39q11 34 30 48z" />
    <glyph glyph-name="uniFB00" unicode="ff" horiz-adv-x="1196" 
d="M1246 1390q47 0 88 -11t60 -25q18 -29 18 -66q0 -39 -21.5 -68.5t-54.5 -29.5q-49 0 -84 48q-1 1 -6 8.5t-6.5 9.5l-6.5 9t-7.5 9t-7.5 7t-9 7t-9 5t-10.5 4t-11.5 1q-44 0 -74.5 -95.5t-81.5 -354.5h200q10 0 10 -24q0 -33 -22 -68h-206q-62 -388 -110 -640
q-23 -118 -74.5 -223.5t-114.5 -176t-132 -111.5t-129 -41q-47 0 -88 11t-60 25q-18 29 -18 66q0 39 21.5 68.5t54.5 29.5q49 0 84 -48q1 -1 6 -8.5t6.5 -9.5l6.5 -9t7.5 -9t7.5 -7t9 -7t9 -5t10.5 -4t11.5 -1q45 0 67 63.5t57 249.5l26 139l112 648h-330
q-62 -388 -110 -640q-23 -118 -74.5 -223.5t-114.5 -176t-132 -111.5t-129 -41q-47 0 -88 11t-60 25q-18 29 -18 66q0 39 21.5 68.5t54.5 29.5q49 0 84 -48q1 -1 6 -8.5t6.5 -9.5l6.5 -9t7.5 -9t7.5 -7t9 -7t9 -5t10.5 -4t11.5 -1q45 0 67 63.5t57 249.5l26 139l112 648
h-130q-4 0 -4 6q0 18 32.5 52t63.5 34h54q31 159 114 278.5t191.5 179.5t226.5 60q82 0 151.5 -31.5t96.5 -74.5q62 62 125 96t111 34zM790 848q29 149 110 276q-74 151 -192 154q-78 2 -141 -108.5t-105 -321.5h328z" />
    <glyph glyph-name="uniFB01" unicode="fi" horiz-adv-x="1156" 
d="M956 836q7 0 27.5 -21t20.5 -33q0 -34 -15 -119.5t-44 -226t-35 -172.5q-8 -32 -8 -66q0 -16 7 -29t21 -13q28 0 80.5 52t61.5 70q9 0 18.5 -21t9.5 -33q-19 -35 -72 -90t-124.5 -102.5t-121.5 -47.5q-54 0 -90 35t-36 107q0 48 18 120l62 312q0 3 4.5 26t5 34l1.5 32.5
t-4 33.5t-14 25.5t-26.5 19.5t-42.5 5l-222 -10q-56 -356 -104 -608q-23 -118 -74.5 -223.5t-114.5 -176t-132 -111.5t-129 -41q-47 0 -88 11t-60 25q-18 29 -18 66q0 39 21.5 68.5t54.5 29.5q49 0 84 -48q1 -1 6 -8.5t6.5 -9.5l6.5 -9t7.5 -9t7.5 -7t9 -7t9 -5t10.5 -4
t11.5 -1q45 0 67 63.5t57 249.5l26 139l106 616h-130q-4 0 -4 6q0 18 32.5 52t63.5 34h54q40 245 189.5 396.5t348.5 153.5q58 0 116.5 -17t86 -31.5t45.5 -27.5q18 -29 18 -66q0 -102 -58 -118q-36 -11 -74.5 5.5t-57.5 42.5q-14 20 -26.5 48t-19.5 41.5t-28 24t-56 10.5
q-83 0 -148.5 -121.5t-103.5 -340.5q94 2 247.5 11t252.5 9z" />
    <glyph glyph-name="uniFB02" unicode="fl" horiz-adv-x="1202" 
d="M890 1146q-26 62 -76.5 97t-105.5 35q-78 2 -141 -108.5t-105 -321.5h200q10 0 10 -24q0 -33 -22 -68h-206q-62 -388 -110 -640q-23 -118 -74.5 -223.5t-114.5 -176t-132 -111.5t-129 -41q-47 0 -88 11t-60 25q-18 29 -18 66q0 39 21.5 68.5t54.5 29.5q49 0 84 -48
q1 -1 6 -8.5t6.5 -9.5l6.5 -9t7.5 -9t7.5 -7t9 -7t9 -5t10.5 -4t11.5 -1q45 0 67 63.5t57 249.5l26 139l112 648h-130q-4 0 -4 6q0 18 32.5 52t63.5 34h54q31 159 114 278.5t191.5 179.5t226.5 60q79 0 144 -28q82 12 166.5 32t117.5 32q12 -7 12 -38q0 -7 -30 -70.5
t-36 -89.5l-184 -940q-8 -48 -8 -66q0 -16 7 -29t21 -13q28 0 80.5 52t61.5 70q9 0 18.5 -21t9.5 -33q-19 -35 -72 -90t-124.5 -102.5t-121.5 -47.5q-54 0 -90 35t-36 107q0 48 18 120l170 874q1 4 2 13t2 13z" />
    <glyph glyph-name="uniFB03" unicode="ffi" horiz-adv-x="1716" 
d="M1516 836q7 0 27.5 -21t20.5 -33q0 -34 -15 -119.5t-44 -226t-35 -172.5q-8 -32 -8 -66q0 -16 7 -29t21 -13q28 0 80.5 52t61.5 70q9 0 18.5 -21t9.5 -33q-19 -35 -72 -90t-124.5 -102.5t-121.5 -47.5q-54 0 -90 35t-36 107q0 48 18 120l62 312q0 3 4.5 26t5 34l1.5 32.5
t-4 33.5t-14 25.5t-26.5 19.5t-42.5 5l-222 -10q-56 -356 -104 -608q-23 -118 -74.5 -223.5t-114.5 -176t-132 -111.5t-129 -41q-47 0 -88 11t-60 25q-18 29 -18 66q0 39 21.5 68.5t54.5 29.5q49 0 84 -48q1 -1 6 -8.5t6.5 -9.5l6.5 -9t7.5 -9t7.5 -7t9 -7t9 -5t10.5 -4
t11.5 -1q45 0 67 63.5t57 249.5l26 139l106 616h-330q-56 -356 -104 -608q-23 -118 -74.5 -223.5t-114.5 -176t-132 -111.5t-129 -41q-47 0 -88 11t-60 25q-18 29 -18 66q0 39 21.5 68.5t54.5 29.5q49 0 84 -48q1 -1 6 -8.5t6.5 -9.5l6.5 -9t7.5 -9t7.5 -7t9 -7t9 -5
t10.5 -4t11.5 -1q45 0 67 63.5t57 249.5l26 139l106 616h-130q-4 0 -4 6q0 18 32.5 52t63.5 34h54q23 133 78 239.5t128.5 173.5t158.5 102t173 35q86 0 157 -34.5t95 -79.5q139 114 308 114q58 0 116.5 -17t86 -31.5t45.5 -27.5q18 -29 18 -66q0 -102 -58 -118
q-36 -11 -74.5 5.5t-57.5 42.5q-14 20 -26.5 48t-19.5 41.5t-28 24t-56 10.5q-83 0 -148.5 -121.5t-103.5 -340.5q94 2 247.5 11t252.5 9zM784 816q30 180 116 308q-74 151 -192 154q-79 2 -144.5 -117t-107.5 -345h328z" />
    <glyph glyph-name="uniFB04" unicode="ffl" horiz-adv-x="1762" 
d="M1016 1250q140 116 306 116q79 0 144 -28q82 12 166.5 32t117.5 32q12 -7 12 -38q0 -7 -30 -70.5t-36 -89.5l-184 -940q-8 -48 -8 -66q0 -16 7 -29t21 -13q28 0 80.5 52t61.5 70q9 0 18.5 -21t9.5 -33q-19 -35 -72 -90t-124.5 -102.5t-121.5 -47.5q-54 0 -90 35t-36 107
q0 48 18 120l170 874q1 4 2 13t2 13q-26 62 -76.5 97t-105.5 35q-78 2 -141 -108.5t-105 -321.5h200q10 0 10 -24q0 -33 -22 -68h-206q-62 -388 -110 -640q-23 -118 -74.5 -223.5t-114.5 -176t-132 -111.5t-129 -41q-47 0 -88 11t-60 25q-18 29 -18 66q0 39 21.5 68.5
t54.5 29.5q49 0 84 -48q1 -1 6 -8.5t6.5 -9.5l6.5 -9t7.5 -9t7.5 -7t9 -7t9 -5t10.5 -4t11.5 -1q45 0 67 63.5t57 249.5l26 139l112 648h-330q-62 -388 -110 -640q-23 -118 -74.5 -223.5t-114.5 -176t-132 -111.5t-129 -41q-47 0 -88 11t-60 25q-18 29 -18 66
q0 39 21.5 68.5t54.5 29.5q49 0 84 -48q1 -1 6 -8.5t6.5 -9.5l6.5 -9t7.5 -9t7.5 -7t9 -7t9 -5t10.5 -4t11.5 -1q45 0 67 63.5t57 249.5l26 139l112 648h-130q-4 0 -4 6q0 18 32.5 52t63.5 34h54q31 159 114 278.5t191.5 179.5t226.5 60q86 0 159 -35.5t95 -80.5zM902 1122
q-75 153 -194 156q-78 2 -141 -108.5t-105 -321.5h328q29 152 112 274z" />
    <glyph glyph-name="afii57440_afii57440.rlig" unicode="&#x640;&#x640;" horiz-adv-x="700" 
d="M708 -30q-350 -16 -704 0q-40 3 -63 53l-42 89q-34 81 32 99q15 4 201 -2q185 -6 366.5 0t196.5 3q72 -17 66 -100l-10 -89q-6 -50 -43 -53z" />
    <glyph glyph-name="afii57440_afii57440_afii57440.rlig" unicode="&#x640;&#x640;&#x640;" horiz-adv-x="1500" 
d="M1507 -30q-323 -26 -754 -26t-749 26q-40 3 -63 53l-42 89q-21 51 -3 79q19 27 68 24q316 -26 746 -26t750 26q87 4 100 -74q2 -14 1 -29l-10 -89q-7 -50 -44 -53z" />
    <glyph glyph-name="afii57440_afii57440_afii57440_afii57440.rlig" unicode="&#x640;&#x640;&#x640;&#x640;" horiz-adv-x="2500" 
d="M2460 215q57 3 80 -29.5t21 -72.5l-10 -90q-6 -49 -47 -53q-1260 -121 -2500 0q-41 5 -63 53l-42 89q-8 20 -11 36q-7 52 40 65q17 4 38 2q1240 -119 2494 0z" />
    <glyph glyph-name="f_b.liga" unicode="fb" horiz-adv-x="1578" 
d="M1028 672q47 73 146 149.5t166 76.5q85 0 133.5 -58t48.5 -166q0 -135 -57.5 -265t-143 -220t-185.5 -145.5t-186 -55.5q-97 0 -164.5 62.5t-67.5 163.5q0 54 12 110l156 796l6 24q-25 62 -76.5 98t-107.5 36q-78 2 -141 -108.5t-105 -321.5h200q10 0 10 -24
q0 -33 -22 -68h-206q-62 -388 -110 -640q-23 -118 -74.5 -223.5t-114.5 -176t-132 -111.5t-129 -41q-47 0 -88 11t-60 25q-18 29 -18 66q0 39 21.5 68.5t54.5 29.5q49 0 84 -48q1 -1 6 -8.5t6.5 -9.5l6.5 -9t7.5 -9t7.5 -7t9 -7t9 -5t10.5 -4t11.5 -1q45 0 67 63.5t57 249.5
l26 139l112 648h-130q-4 0 -4 6q0 18 32.5 52t63.5 34h54q31 159 114 278.5t191.5 179.5t226.5 60q79 0 144 -28q213 35 284 64q12 -7 12 -38q0 -7 -30 -70.5t-36 -89.5zM1208 722q-65 0 -141 -125.5t-103 -262.5q-12 -61 -13.5 -116.5t14 -97.5t49.5 -42q60 0 120 92
t95 214.5t35 219.5q0 118 -56 118z" />
    <glyph glyph-name="f_f_b.liga" unicode="ffb" horiz-adv-x="2138" 
d="M1588 672q47 73 146 149.5t166 76.5q85 0 133.5 -58t48.5 -166q0 -135 -57.5 -265t-143 -220t-185.5 -145.5t-186 -55.5q-97 0 -164.5 62.5t-67.5 163.5q0 54 12 110l156 796l6 24q-25 62 -76.5 98t-107.5 36q-78 2 -141 -108.5t-105 -321.5h200q10 0 10 -24
q0 -33 -22 -68h-206q-62 -388 -110 -640q-23 -118 -74.5 -223.5t-114.5 -176t-132 -111.5t-129 -41q-47 0 -88 11t-60 25q-18 29 -18 66q0 39 21.5 68.5t54.5 29.5q49 0 84 -48q1 -1 6 -8.5t6.5 -9.5l6.5 -9t7.5 -9t7.5 -7t9 -7t9 -5t10.5 -4t11.5 -1q45 0 67 63.5t57 249.5
l26 139l112 648h-330q-62 -388 -110 -640q-23 -118 -74.5 -223.5t-114.5 -176t-132 -111.5t-129 -41q-47 0 -88 11t-60 25q-18 29 -18 66q0 39 21.5 68.5t54.5 29.5q49 0 84 -48q1 -1 6 -8.5t6.5 -9.5l6.5 -9t7.5 -9t7.5 -7t9 -7t9 -5t10.5 -4t11.5 -1q45 0 67 63.5
t57 249.5l26 139l112 648h-130q-4 0 -4 6q0 18 32.5 52t63.5 34h54q31 159 114 278.5t191.5 179.5t226.5 60q86 0 159 -35.5t95 -80.5q140 116 306 116q79 0 144 -28q213 35 284 64q12 -7 12 -38q0 -7 -30 -70.5t-36 -89.5zM1768 722q-65 0 -141 -125.5t-103 -262.5
q-12 -61 -13.5 -116.5t14 -97.5t49.5 -42q60 0 120 92t95 214.5t35 219.5q0 118 -56 118zM902 1122q-75 153 -194 156q-78 2 -141 -108.5t-105 -321.5h328q29 152 112 274z" />
    <glyph glyph-name="f_k.liga" unicode="fk" horiz-adv-x="1648" 
d="M1244 748q-41 0 -87.5 -32.5t-79.5 -75.5t-55 -84t-22 -60q64 0 132.5 24t118 68.5t49.5 95.5q0 22 -13 43t-43 21zM1394 898q164 0 164 -144q0 -47 -32 -94t-84.5 -84.5t-110 -66.5t-117.5 -49q15 -43 35.5 -88t48.5 -95t61 -81.5t63 -31.5q22 0 53.5 25t50.5 47t32 40
q13 0 20.5 -19.5t7.5 -32.5q-20 -53 -121 -142.5t-181 -89.5q-44 0 -86.5 31.5t-73.5 76.5t-60.5 106.5t-47 110t-32.5 99.5l-82 -416q-40 -12 -112 -12q-70 0 -118 12q197 1017 214 1120l6 24q-25 62 -76.5 98t-107.5 36q-78 2 -141 -108.5t-105 -321.5h200q10 0 10 -24
q0 -33 -22 -68h-206q-62 -388 -110 -640q-23 -118 -74.5 -223.5t-114.5 -176t-132 -111.5t-129 -41q-47 0 -88 11t-60 25q-18 29 -18 66q0 39 21.5 68.5t54.5 29.5q49 0 84 -48q1 -1 6 -8.5t6.5 -9.5l6.5 -9t7.5 -9t7.5 -7t9 -7t9 -5t10.5 -4t11.5 -1q45 0 67 63.5t57 249.5
l26 139l112 648h-130q-4 0 -4 6q0 18 32.5 52t63.5 34h54q31 159 114 278.5t191.5 179.5t226.5 60q79 0 144 -28q186 29 284 64q12 -7 12 -38q0 -8 -31.5 -77t-34.5 -83l-98 -522q10 22 43 56.5t80 71t110.5 62.5t122.5 26z" />
    <glyph glyph-name="f_f_k.liga" unicode="ffk" horiz-adv-x="2208" 
d="M1804 748q-41 0 -87.5 -32.5t-79.5 -75.5t-55 -84t-22 -60q64 0 132.5 24t118 68.5t49.5 95.5q0 22 -13 43t-43 21zM1954 898q164 0 164 -144q0 -47 -32 -94t-84.5 -84.5t-110 -66.5t-117.5 -49q15 -43 35.5 -88t48.5 -95t61 -81.5t63 -31.5q22 0 53.5 25t50.5 47t32 40
q13 0 20.5 -19.5t7.5 -32.5q-20 -53 -121 -142.5t-181 -89.5q-44 0 -86.5 31.5t-73.5 76.5t-60.5 106.5t-47 110t-32.5 99.5l-82 -416q-40 -12 -112 -12q-70 0 -118 12q197 1017 214 1120l6 24q-25 62 -76.5 98t-107.5 36q-78 2 -141 -108.5t-105 -321.5h200q10 0 10 -24
q0 -33 -22 -68h-206q-62 -388 -110 -640q-23 -118 -74.5 -223.5t-114.5 -176t-132 -111.5t-129 -41q-47 0 -88 11t-60 25q-18 29 -18 66q0 39 21.5 68.5t54.5 29.5q49 0 84 -48q1 -1 6 -8.5t6.5 -9.5l6.5 -9t7.5 -9t7.5 -7t9 -7t9 -5t10.5 -4t11.5 -1q45 0 67 63.5t57 249.5
l26 139l112 648h-330q-62 -388 -110 -640q-23 -118 -74.5 -223.5t-114.5 -176t-132 -111.5t-129 -41q-47 0 -88 11t-60 25q-18 29 -18 66q0 39 21.5 68.5t54.5 29.5q49 0 84 -48q1 -1 6 -8.5t6.5 -9.5l6.5 -9t7.5 -9t7.5 -7t9 -7t9 -5t10.5 -4t11.5 -1q45 0 67 63.5
t57 249.5l26 139l112 648h-130q-4 0 -4 6q0 18 32.5 52t63.5 34h54q31 159 114 278.5t191.5 179.5t226.5 60q86 0 159 -35.5t95 -80.5q140 116 306 116q79 0 144 -28q186 29 284 64q12 -7 12 -38q0 -8 -31.5 -77t-34.5 -83l-98 -522q10 22 43 56.5t80 71t110.5 62.5
t122.5 26zM902 1122q-75 153 -194 156q-78 2 -141 -108.5t-105 -321.5h328q29 152 112 274z" />
    <glyph glyph-name="f_h.liga" unicode="fh" horiz-adv-x="1650" 
d="M1136 1204q-110 -558 -114 -576l-16 -80q31 69 91 150t130 140.5t117 59.5q81 0 112.5 -42t31.5 -132q0 -50 -40 -258l-38 -202q-8 -32 -8 -66q0 -16 7 -29t21 -13q28 0 80.5 52t61.5 70q9 0 18.5 -21t9.5 -33q-19 -35 -72 -90t-124.5 -102.5t-121.5 -47.5q-54 0 -90 35
t-36 107q0 48 18 120l46 238q5 20 14.5 79t9.5 73q0 17 -8.5 29.5t-23.5 12.5q-29 0 -82 -69.5t-107.5 -188t-80.5 -238.5l-40 -182q-40 -12 -112 -12q-70 0 -118 12q197 1017 214 1120l6 24q-25 62 -76.5 98t-107.5 36q-78 2 -141 -108.5t-105 -321.5h200q10 0 10 -24
q0 -33 -22 -68h-206q-62 -388 -110 -640q-23 -118 -74.5 -223.5t-114.5 -176t-132 -111.5t-129 -41q-47 0 -88 11t-60 25q-18 29 -18 66q0 39 21.5 68.5t54.5 29.5q49 0 84 -48q1 -1 6 -8.5t6.5 -9.5l6.5 -9t7.5 -9t7.5 -7t9 -7t9 -5t10.5 -4t11.5 -1q45 0 67 63.5t57 249.5
l26 139l112 648h-130q-4 0 -4 6q0 18 32.5 52t63.5 34h54q31 159 114 278.5t191.5 179.5t226.5 60q79 0 144 -28q208 35 284 64q12 -7 12 -38q0 -8 -31.5 -77t-34.5 -83z" />
    <glyph glyph-name="f_f_h.liga" unicode="ffh" horiz-adv-x="2210" 
d="M1696 1204q-110 -558 -114 -576l-16 -80q31 69 91 150t130 140.5t117 59.5q81 0 112.5 -42t31.5 -132q0 -50 -40 -258l-38 -202q-8 -32 -8 -66q0 -16 7 -29t21 -13q28 0 80.5 52t61.5 70q9 0 18.5 -21t9.5 -33q-19 -35 -72 -90t-124.5 -102.5t-121.5 -47.5q-54 0 -90 35
t-36 107q0 48 18 120l46 238q5 20 14.5 79t9.5 73q0 17 -8.5 29.5t-23.5 12.5q-29 0 -82 -69.5t-107.5 -188t-80.5 -238.5l-40 -182q-40 -12 -112 -12q-70 0 -118 12q197 1017 214 1120l6 24q-25 62 -76.5 98t-107.5 36q-78 2 -141 -108.5t-105 -321.5h200q10 0 10 -24
q0 -33 -22 -68h-206q-62 -388 -110 -640q-23 -118 -74.5 -223.5t-114.5 -176t-132 -111.5t-129 -41q-47 0 -88 11t-60 25q-18 29 -18 66q0 39 21.5 68.5t54.5 29.5q49 0 84 -48q1 -1 6 -8.5t6.5 -9.5l6.5 -9t7.5 -9t7.5 -7t9 -7t9 -5t10.5 -4t11.5 -1q45 0 67 63.5t57 249.5
l26 139l112 648h-330q-62 -388 -110 -640q-23 -118 -74.5 -223.5t-114.5 -176t-132 -111.5t-129 -41q-47 0 -88 11t-60 25q-18 29 -18 66q0 39 21.5 68.5t54.5 29.5q49 0 84 -48q1 -1 6 -8.5t6.5 -9.5l6.5 -9t7.5 -9t7.5 -7t9 -7t9 -5t10.5 -4t11.5 -1q45 0 67 63.5
t57 249.5l26 139l112 648h-130q-4 0 -4 6q0 18 32.5 52t63.5 34h54q31 159 114 278.5t191.5 179.5t226.5 60q86 0 159 -35.5t95 -80.5q140 116 306 116q79 0 144 -28q208 35 284 64q12 -7 12 -38q0 -8 -31.5 -77t-34.5 -83zM902 1122q-75 153 -194 156q-78 2 -141 -108.5
t-105 -321.5h328q29 152 112 274z" />
    <glyph glyph-name="f_j.liga" unicode="fj" horiz-adv-x="1088" 
d="M668 200l68 358q0 3 4.5 26t5 34l1.5 32.5t-4 33.5t-14 25.5t-26.5 19.5t-42.5 5l-222 -10q-56 -356 -104 -608q-23 -118 -74.5 -223.5t-114.5 -176t-132 -111.5t-129 -41q-47 0 -88 11t-60 25q-18 29 -18 66q0 39 21.5 68.5t54.5 29.5q49 0 84 -48q1 -1 6 -8.5t6.5 -9.5
l6.5 -9t7.5 -9t7.5 -7t9 -7t9 -5t10.5 -4t11.5 -1q45 0 67 63.5t57 249.5l26 139l106 616h-130q-4 0 -4 6q0 18 32.5 52t63.5 34h54q40 245 189.5 396.5t348.5 153.5q58 0 116.5 -17t86 -31.5t45.5 -27.5q18 -29 18 -66q0 -102 -58 -118q-36 -11 -74.5 5.5t-57.5 42.5
q-14 20 -26.5 48t-19.5 41.5t-28 24t-56 10.5q-83 0 -148.5 -121.5t-103.5 -340.5q94 2 247.5 11t252.5 9q8 0 30.5 -21t21.5 -33q-35 -219 -100 -542q-23 -119 -65 -210t-109 -180q-59 -78 -192.5 -175t-183.5 -111q-7 0 -12.5 14.5t-5.5 29.5q153 118 218 239.5t110 352.5
z" />
    <glyph glyph-name="f_f_j.liga" unicode="ffj" horiz-adv-x="1648" 
d="M1228 200l68 358q0 3 4.5 26t5 34l1.5 32.5t-4 33.5t-14 25.5t-26.5 19.5t-42.5 5l-222 -10q-56 -356 -104 -608q-23 -118 -74.5 -223.5t-114.5 -176t-132 -111.5t-129 -41q-47 0 -88 11t-60 25q-18 29 -18 66q0 39 21.5 68.5t54.5 29.5q49 0 84 -48q1 -1 6 -8.5
t6.5 -9.5l6.5 -9t7.5 -9t7.5 -7t9 -7t9 -5t10.5 -4t11.5 -1q45 0 67 63.5t57 249.5l26 139l106 616h-330q-56 -356 -104 -608q-23 -118 -74.5 -223.5t-114.5 -176t-132 -111.5t-129 -41q-47 0 -88 11t-60 25q-18 29 -18 66q0 39 21.5 68.5t54.5 29.5q49 0 84 -48
q1 -1 6 -8.5t6.5 -9.5l6.5 -9t7.5 -9t7.5 -7t9 -7t9 -5t10.5 -4t11.5 -1q45 0 67 63.5t57 249.5l26 139l106 616h-130q-4 0 -4 6q0 18 32.5 52t63.5 34h54q23 133 78 239.5t128.5 173.5t158.5 102t173 35q86 0 157 -34.5t95 -79.5q139 114 308 114q58 0 116.5 -17t86 -31.5
t45.5 -27.5q18 -29 18 -66q0 -102 -58 -118q-36 -11 -74.5 5.5t-57.5 42.5q-14 20 -26.5 48t-19.5 41.5t-28 24t-56 10.5q-83 0 -148.5 -121.5t-103.5 -340.5q94 2 247.5 11t252.5 9q8 0 30.5 -21t21.5 -33q-35 -219 -100 -542q-23 -119 -65 -210t-109 -180
q-59 -78 -192.5 -175t-183.5 -111q-7 0 -12.5 14.5t-5.5 29.5q153 118 218 239.5t110 352.5zM784 816q30 180 116 308q-74 151 -192 154q-79 2 -144.5 -117t-107.5 -345h328z" />
    <glyph glyph-name="afii57414.init" unicode="&#x626;" horiz-adv-x="390" arabic-form="initial" 
d="M28 436l36 127q19 68 49 27q131 -173 116.5 -396.5t-224.5 -223.5q-42 0 -71.5 68.5t-36 111t33.5 59.5q14 6 31 6q120 -3 165 47q-20 51 -65.5 92t-33.5 82zM184 819q-106 -22 -149.5 -36.5t-158.5 -69.5q-36 -14 -59 13q-37 46 43 109q-68 38 -85 84q-32 90 35.5 213
t174.5 115q78 -6 83.5 -80.5t-11 -105t-25.5 -37.5q-26 -20 -52.5 10.5t-59.5 33.5t-45.5 -15t6.5 -34q76 -60 200 -64q20 0 60 10t61.5 9t36.5 -20q15 -20 11 -37q-28 -89 -66 -98z" />
    <glyph glyph-name="afii57414.medi" unicode="&#x626;" horiz-adv-x="500" arabic-form="medial" 
d="M320 296q75 -77 142 -82q57 -5 74 -42q11 -26 13.5 -86t-6 -87.5t-38.5 -28.5q-119 0 -245 130q-103 -130 -255 -130q-44 1 -64 55l-33 83q-13 34 3 69t51 38q240 18 278 120q12 31 33 31q30 0 37.5 -33.5t9.5 -36.5zM270 759q-106 -22 -149.5 -36.5t-158.5 -69.5
q-36 -14 -59 13q-37 46 43 109q-68 38 -85 84q-32 90 35.5 213t174.5 115q78 -6 83.5 -80.5t-11 -105t-25.5 -37.5q-26 -20 -52.5 10.5t-59.5 33.5t-45.5 -15t6.5 -34q76 -60 200 -64q20 0 60 10t61.5 9t36.5 -20q15 -20 11 -37q-28 -89 -66 -98z" />
    <glyph glyph-name="afii57416.init" unicode="&#x628;" horiz-adv-x="390" arabic-form="initial" 
d="M28 436l36 127q19 68 49 27q131 -173 116.5 -396.5t-224.5 -223.5q-42 0 -71.5 68.5t-36 111t33.5 59.5q14 6 31 6q120 -3 165 47q-20 51 -65.5 92t-33.5 82zM163 -222q9 17 33 10q89 -30 165 -88q20 -17 13 -37l-71 -155q-12 -21 -36 -4.5t-164 92.5q-23 13 -13 34z" />
    <glyph glyph-name="afii57416.medi" unicode="&#x628;" horiz-adv-x="500" arabic-form="medial" 
d="M320 296q75 -77 142 -82q57 -5 74 -42q11 -26 13.5 -86t-6 -87.5t-38.5 -28.5q-119 0 -245 130q-103 -130 -255 -130q-44 1 -64 55l-33 83q-13 34 3 69t51 38q240 18 278 120q12 31 33 31q30 0 37.5 -33.5t9.5 -36.5zM253 -222q9 17 33 10q89 -30 165 -88q20 -17 13 -37
l-71 -155q-12 -21 -36 -4.5t-164 92.5q-23 13 -13 34z" />
    <glyph glyph-name="afii57418.init" unicode="&#x62a;" horiz-adv-x="390" arabic-form="initial" 
d="M28 436l36 127q19 68 49 27q131 -173 116.5 -396.5t-224.5 -223.5q-42 0 -71.5 68.5t-36 111t33.5 59.5q14 6 31 6q120 -3 165 47q-20 51 -65.5 92t-33.5 82zM56 974q9 17 33 10q89 -30 165 -88q20 -17 13 -37l-71 -155q-12 -21 -34.5 -5.5t-120.5 69.5l-50 -110
q-12 -21 -36 -4.5t-164 92.5q-23 13 -13 34l73 148q9 17 33 10q66 -22 124 -59z" />
    <glyph glyph-name="afii57418.medi" unicode="&#x62a;" horiz-adv-x="500" arabic-form="medial" 
d="M320 296q75 -77 142 -82q57 -5 74 -42q11 -26 13.5 -86t-6 -87.5t-38.5 -28.5q-119 0 -245 130q-103 -130 -255 -130q-44 1 -64 55l-33 83q-13 34 3 69t51 38q240 18 278 120q12 31 33 31q30 0 37.5 -33.5t9.5 -36.5zM126 914q9 17 33 10q89 -30 165 -88q20 -17 13 -37
l-71 -155q-12 -21 -34.5 -5.5t-120.5 69.5l-50 -110q-12 -21 -36 -4.5t-164 92.5q-23 13 -13 34l73 148q9 17 33 10q66 -22 124 -59z" />
    <glyph glyph-name="afii57419.init" unicode="&#x62b;" horiz-adv-x="390" arabic-form="initial" 
d="M28 436l36 127q19 68 49 27q131 -173 116.5 -396.5t-224.5 -223.5q-42 0 -71.5 68.5t-36 111t33.5 59.5q14 6 31 6q120 -3 165 47q-20 51 -65.5 92t-33.5 82zM-138 1203q9 17 33 10q89 -30 166 -88q20 -17 13 -37l-71 -155q-12 -21 -36 -4.5t-165 92.5q-23 13 -12 33z
M48 974q9 17 33 10q89 -30 165 -88q20 -17 13 -37l-71 -155q-11 -22 -33 -6.5t-105 61.5l-46 -102q-12 -21 -36.5 -4.5t-164.5 92.5q-23 13 -13 34l73 148q18 34 142 -39z" />
    <glyph glyph-name="afii57419.medi" unicode="&#x62b;" horiz-adv-x="500" arabic-form="medial" 
d="M320 296q75 -77 142 -82q57 -5 74 -42q11 -26 13.5 -86t-6 -87.5t-38.5 -28.5q-119 0 -245 130q-103 -130 -255 -130q-44 1 -64 55l-33 83q-13 34 3 69t51 38q240 18 278 120q12 31 33 31q30 0 37.5 -33.5t9.5 -36.5zM-68 1143q9 17 33 10q89 -30 166 -88q20 -17 13 -37
l-71 -155q-12 -21 -36 -4.5t-165 92.5q-23 13 -12 33zM118 914q9 17 33 10q89 -30 165 -88q20 -17 13 -37l-71 -155q-11 -22 -33 -6.5t-105 61.5l-46 -102q-12 -21 -36.5 -4.5t-164.5 92.5q-23 13 -13 34l73 148q18 34 142 -39z" />
    <glyph glyph-name="afii57420.init" unicode="&#x62c;" horiz-adv-x="1343" arabic-form="initial" 
d="M-67 455q6 72 67.5 143t133.5 72t356.5 -109.5t604.5 -96.5q59 3 36 -80l-34 -126q-10 -38 -36 -35q-243 39 -438 -25.5t-345 -146t-273 -81.5q-33 1 -56 39q-40 73 -34.5 129t19.5 65.5t25 11.5q313 19 509 119q-316 131 -486 75q-53 -20 -49 46zM577 -74q9 17 33 10
q89 -30 165 -88q20 -17 13 -37l-71 -155q-12 -21 -36 -4.5t-164 92.5q-23 13 -13 34z" />
    <glyph glyph-name="afii57420.medi" unicode="&#x62c;" horiz-adv-x="1250" arabic-form="medial" 
d="M-55 454q15 222 229 222q97 0 317 -97q105 -46 277.5 -72t328.5 -8q69 9 63 -45l-19 -151q-5 -36 -52 -32q-83 7 -143 9q-16 -76 268 -69q119 3 97 -174q-9 -61 -52 -67q-165 -21 -273 16q-151 52 -126 288q-163 -15 -299 -69t-303 -145.5t-253 -89.5q-48 1 -79 54.5
t-28 116.5t60 74q167 31 282.5 82t187.5 72q-305 95 -409 37q-35 -20 -56.5 -12t-17.5 60zM565 -62q9 17 33 10q89 -30 165 -88q20 -17 13 -37l-71 -155q-12 -21 -36 -4.5t-164 92.5q-23 13 -13 34z" />
    <glyph glyph-name="afii57421.init" unicode="&#x62d;" horiz-adv-x="1343" arabic-form="initial" 
d="M-67 455q6 72 67.5 143t133.5 72t356.5 -109.5t604.5 -96.5q59 3 36 -80l-34 -126q-10 -38 -36 -35q-243 39 -438 -25.5t-345 -146t-273 -81.5q-33 1 -56 39q-40 73 -34.5 129t19.5 65.5t25 11.5q313 19 509 119q-316 131 -486 75q-53 -20 -49 46z" />
    <glyph glyph-name="afii57421.medi" unicode="&#x62d;" horiz-adv-x="1250" arabic-form="medial" 
d="M-55 454q15 222 229 222q97 0 317 -97q105 -46 277.5 -72t328.5 -8q69 9 63 -45l-19 -151q-5 -36 -52 -32q-83 7 -143 9q-16 -76 268 -69q119 3 97 -174q-9 -61 -52 -67q-165 -21 -273 16q-151 52 -126 288q-163 -15 -299 -69t-303 -145.5t-253 -89.5q-48 1 -79 54.5
t-28 116.5t60 74q167 31 282.5 82t187.5 72q-305 95 -409 37q-35 -20 -56.5 -12t-17.5 60z" />
    <glyph glyph-name="afii57422.init" unicode="&#x62e;" horiz-adv-x="1343" arabic-form="initial" 
d="M-67 455q6 72 67.5 143t133.5 72t356.5 -109.5t604.5 -96.5q59 3 36 -80l-34 -126q-10 -38 -36 -35q-243 39 -438 -25.5t-345 -146t-273 -81.5q-33 1 -56 39q-40 73 -34.5 129t19.5 65.5t25 11.5q313 19 509 119q-316 131 -486 75q-53 -20 -49 46zM374 1078q9 17 33 10
q89 -30 165 -88q20 -17 13 -37l-71 -155q-12 -21 -36 -4.5t-164 92.5q-23 13 -13 34z" />
    <glyph glyph-name="afii57422.medi" unicode="&#x62e;" horiz-adv-x="1250" arabic-form="medial" 
d="M-55 454q15 222 229 222q97 0 317 -97q105 -46 277.5 -72t328.5 -8q69 9 63 -45l-19 -151q-5 -36 -52 -32q-83 7 -143 9q-16 -76 268 -69q119 3 97 -174q-9 -61 -52 -67q-165 -21 -273 16q-151 52 -126 288q-163 -15 -299 -69t-303 -145.5t-253 -89.5q-48 1 -79 54.5
t-28 116.5t60 74q167 31 282.5 82t187.5 72q-305 95 -409 37q-35 -20 -56.5 -12t-17.5 60zM414 1078q9 17 33 10q89 -30 165 -88q20 -17 13 -37l-71 -155q-12 -21 -36 -4.5t-164 92.5q-23 13 -13 34z" />
    <glyph glyph-name="afii57427.init" unicode="&#x633;" horiz-adv-x="1164" arabic-form="initial" 
d="M247 424q64 -1 28 -108q65 -45 151 -46q137 -2 184 252q7 39 39 28.5t32 -47.5l-5 -71q43 -31 108.5 -51t103.5 -19q-26 61 -48.5 92t-6.5 67l45 103q27 35 60 -50q54 -142 46 -274t-73 -178q-7 -5 -27 -6q-141 -5 -261 83q-50 -148 -172 -182.5t-275 100.5
q-97 -146 -171 -147q-43 0 -70 67q-15 38 -23 68q-28 102 47 110q199 21 259 180q11 29 29 29z" />
    <glyph glyph-name="afii57427.medi" unicode="&#x633;" horiz-adv-x="1165" arabic-form="medial" 
d="M200 343q8 43 50 29q40 -14 23 -75q-5 -17 -12 -36q236 -79 297 121q11 44 48.5 30t27.5 -64t-6 -66q12 -43 90 -52t96 24t23 140q1 28 29 28t41 -24q94 -172 220 -183q48 -7 74.5 -74t19 -119t-50.5 -52q-184 0 -286 208q-13 -93 -36 -156.5t-80 -65.5q-140 -5 -238 92
q-68 -78 -180.5 -77.5t-190.5 66.5q-68 -66 -154 -67q-57 0 -89 99q-8 25 -20 71q-12 50 35 68q16 6 31 7q218 16 238 128z" />
    <glyph glyph-name="afii57428.init" unicode="&#x634;" horiz-adv-x="1164" arabic-form="initial" 
d="M247 424q64 -1 28 -108q65 -45 151 -46q137 -2 184 252q7 39 39 28.5t32 -47.5l-5 -71q43 -31 108.5 -51t103.5 -19q-26 61 -48.5 92t-6.5 67l45 103q27 35 60 -50q54 -142 46 -274t-73 -178q-7 -5 -27 -6q-141 -5 -261 83q-50 -148 -172 -182.5t-275 100.5
q-97 -146 -171 -147q-43 0 -70 67q-15 38 -23 68q-28 102 47 110q199 21 259 180q11 29 29 29zM323 1303q9 17 33 10q89 -30 166 -88q20 -17 13 -37l-71 -155q-12 -21 -36 -4.5t-165 92.5q-23 13 -12 33zM509 1074q9 17 33 10q89 -30 165 -88q20 -17 13 -37l-71 -155
q-11 -22 -33 -6.5t-105 61.5l-46 -102q-12 -21 -36.5 -4.5t-164.5 92.5q-23 13 -13 34l73 148q18 34 142 -39z" />
    <glyph glyph-name="afii57428.medi" unicode="&#x634;" horiz-adv-x="1165" arabic-form="medial" 
d="M200 343q8 43 50 29q40 -14 23 -75q-5 -17 -12 -36q236 -79 297 121q11 44 48.5 30t27.5 -64t-6 -66q12 -43 90 -52t96 24t23 140q1 28 29 28t41 -24q94 -172 220 -183q48 -7 74.5 -74t19 -119t-50.5 -52q-184 0 -286 208q-13 -93 -36 -156.5t-80 -65.5q-140 -5 -238 92
q-68 -78 -180.5 -77.5t-190.5 66.5q-68 -66 -154 -67q-57 0 -89 99q-8 25 -20 71q-12 50 35 68q16 6 31 7q218 16 238 128zM290 1180q9 17 33 10q89 -30 166 -88q20 -17 13 -37l-71 -155q-12 -21 -36 -4.5t-165 92.5q-23 13 -12 33zM476 951q9 17 33 10q89 -30 165 -88
q20 -17 13 -37l-71 -155q-11 -22 -33 -6.5t-105 61.5l-46 -102q-12 -21 -36.5 -4.5t-164.5 92.5q-23 13 -13 34l73 148q18 34 142 -39z" />
    <glyph glyph-name="afii57429.init" unicode="&#x635;" horiz-adv-x="1430" arabic-form="initial" 
d="M129 154q-30 -187 -124 -184q-31 1 -57 41q-51 86 -40.5 140t47.5 63q107 23 154 142q16 43 52.5 42.5t72.5 -45.5q68 -85 234 -136q81 114 133 169q224 227 363 228q76 1 184 -76q86 -61 85.5 -149t-38 -187.5t-61.5 -120.5q-172 -142 -456 -143q-112 1 -237 30
q-17 -53 -20 -127q-2 -49 -44 -35.5t-41.5 62.5t17.5 132q-109 33 -224 154zM1121 262q-135 90 -280 80q-111 -7 -270 -149q104 -4 303.5 14.5t246.5 54.5z" />
    <glyph glyph-name="afii57429.medi" unicode="&#x635;" horiz-adv-x="1480" arabic-form="medial" 
d="M1152 393q-176 108 -345 -2.5t-218 -180.5q131 7 301 57t262 126zM477 -13q-11 -54 -12 -104q-1 -57 -44 -50q-51 9 -40 107q8 77 9 79q-114 32 -207 128q-79 -176 -175 -177q-49 0 -76 55q-58 120 -3 180q10 11 33 10q118 0 204 125q13 19 32 17q17 -2 50 -32
q89 -87 235 -101q88 173 227 314.5t257 170.5q91 19 190.5 -43.5t137.5 -155.5q-6 -150 -51 -253q92 -31 198 -42q47 -4 71 -94q26 -94 10 -126q-11 -23 -36 -25q-156 -19 -424 104q-225 -150 -586 -87z" />
    <glyph glyph-name="afii57430.init" unicode="&#x636;" horiz-adv-x="1430" arabic-form="initial" 
d="M129 154q-30 -187 -124 -184q-31 1 -57 41q-51 86 -40.5 140t47.5 63q107 23 154 142q16 43 52.5 42.5t72.5 -45.5q68 -85 234 -136q81 114 133 169q224 227 363 228q76 1 184 -76q86 -61 85.5 -149t-38 -187.5t-61.5 -120.5q-172 -142 -456 -143q-112 1 -237 30
q-17 -53 -20 -127q-2 -49 -44 -35.5t-41.5 62.5t17.5 132q-109 33 -224 154zM1121 262q-135 90 -280 80q-111 -7 -270 -149q104 -4 303.5 14.5t246.5 54.5zM408 1022q9 17 33 10q89 -30 165 -88q20 -17 13 -37l-71 -155q-12 -21 -36 -4.5t-164 92.5q-23 13 -13 34z" />
    <glyph glyph-name="afii57430.medi" unicode="&#x636;" horiz-adv-x="1480" arabic-form="medial" 
d="M1152 393q-176 108 -345 -2.5t-218 -180.5q131 7 301 57t262 126zM477 -13q-11 -54 -12 -104q-1 -57 -44 -50q-51 9 -40 107q8 77 9 79q-114 32 -207 128q-79 -176 -175 -177q-49 0 -76 55q-58 120 -3 180q10 11 33 10q118 0 204 125q13 19 32 17q17 -2 50 -32
q89 -87 235 -101q88 173 227 314.5t257 170.5q91 19 190.5 -43.5t137.5 -155.5q-6 -150 -51 -253q92 -31 198 -42q47 -4 71 -94q26 -94 10 -126q-11 -23 -36 -25q-156 -19 -424 104q-225 -150 -586 -87zM470 1115q9 17 33 10q89 -30 165 -88q20 -17 13 -37l-71 -155
q-12 -21 -36 -4.5t-164 92.5q-23 13 -13 34z" />
    <glyph glyph-name="afii57431.init" unicode="&#x637;" horiz-adv-x="1163" arabic-form="initial" 
d="M185 322q-4 133 -94.5 497.5t-116 434t-25.5 77.5q-2 46 33 134q23 58 65 -10q72 -111 102 -139q53 -50 28 -86l-41 -57q-3 -5 1 -23q99 -409 113.5 -522t19.5 -220q240 233 372 269q163 45 297 -152q23 -34 19 -80q-15 -141 -64.5 -237.5t-178.5 -127.5
q-364 -88 -710 -110q-44 -1 -72.5 59t-28 121t57.5 65q105 4 140 9zM619 439q-154 -3 -364 -201q382 39 576 104q-98 98 -212 97z" />
    <glyph glyph-name="afii57431.medi" unicode="&#x637;" horiz-adv-x="1130" arabic-form="medial" 
d="M677 22q-311 -78 -672 -52q-33 2 -65 59q-80 140 -11 177q16 8 33 9l95 1l78 104q-52 306 -240 931q-25 84 -30 95q-16 38 24 162q8 26 30.5 26t39.5 -33q55 -99 104.5 -141t20.5 -90l-27 -45q-9 -14 -4 -28q110 -341 142 -556q14 -89 12 -234q319 349 496 293
q110 -35 191 -160q19 -30 21 -78q3 -137 -91 -234q141 -24 268 -13q54 4 78 -60q58 -146 -13 -178q-13 -6 -22 -7q-190 -15 -458 52zM604 436q-156 33 -417 -213q344 36 563 134q-62 61 -146 79z" />
    <glyph glyph-name="afii57432.init" unicode="&#x638;" horiz-adv-x="1163" arabic-form="initial" 
d="M185 322q-4 133 -94.5 497.5t-116 434t-25.5 77.5q-2 46 33 134q23 58 65 -10q72 -111 102 -139q53 -50 28 -86l-41 -57q-3 -5 1 -23q99 -409 113.5 -522t19.5 -220q240 233 372 269q163 45 297 -152q23 -34 19 -80q-15 -141 -64.5 -237.5t-178.5 -127.5
q-364 -88 -710 -110q-44 -1 -72.5 59t-28 121t57.5 65q105 4 140 9zM619 439q-154 -3 -364 -201q382 39 576 104q-98 98 -212 97zM520 1128q9 17 33 10q89 -30 165 -88q20 -17 13 -37l-71 -155q-12 -21 -36 -4.5t-164 92.5q-23 13 -13 34z" />
    <glyph glyph-name="afii57432.medi" unicode="&#x638;" horiz-adv-x="1130" arabic-form="medial" 
d="M677 22q-311 -78 -672 -52q-33 2 -65 59q-80 140 -11 177q16 8 33 9l95 1l78 104q-52 306 -240 931q-25 84 -30 95q-16 38 24 162q8 26 30.5 26t39.5 -33q55 -99 104.5 -141t20.5 -90l-27 -45q-9 -14 -4 -28q110 -341 142 -556q14 -89 12 -234q319 349 496 293
q110 -35 191 -160q19 -30 21 -78q3 -137 -91 -234q141 -24 268 -13q54 4 78 -60q58 -146 -13 -178q-13 -6 -22 -7q-190 -15 -458 52zM604 436q-156 33 -417 -213q344 36 563 134q-62 61 -146 79zM455 1128q9 17 33 10q89 -30 165 -88q20 -17 13 -37l-71 -155
q-12 -21 -36 -4.5t-164 92.5q-23 13 -13 34z" />
    <glyph glyph-name="afii57433.init" unicode="&#x639;" horiz-adv-x="978" arabic-form="initial" 
d="M777 508l-12 -165q-2 -27 -43 -45.5l-278 -120.5l-440 -207q-68 0 -108 100.5t54 142.5l112 51q-126 93 -118 223q16 276 227 384q53 27 140 -11t183 -122q51 -45 43 -71.5t-102.5 -1t-221.5 -4.5t-154 -121q-8 -25 72 -85q198 -148 489 58l67 47q99 71 90 -52z" />
    <glyph glyph-name="afii57433.medi" unicode="&#x639;" horiz-adv-x="750" arabic-form="medial" 
d="M712 215q77 -1 101 -64q8 -21 10 -43q4 -138 -66 -138q-211 1 -420 208q-199 -208 -333 -208q-73 0 -108.5 102.5t23.5 132.5q18 9 42 10q131 4 212 57q-44 31 -178 49q-44 6 -45 58q0 84 87 163q166 148 428 12q133 -71 128 -150q-4 -76 -115 -148q73 -39 234 -41z" />
    <glyph glyph-name="afii57434.init" unicode="&#x63a;" horiz-adv-x="978" arabic-form="initial" 
d="M777 508l-12 -165q-2 -27 -43 -45.5l-278 -120.5l-440 -207q-68 0 -108 100.5t54 142.5l112 51q-126 93 -118 223q16 276 227 384q53 27 140 -11t183 -122q51 -45 43 -71.5t-102.5 -1t-221.5 -4.5t-154 -121q-8 -25 72 -85q198 -148 489 58l67 47q99 71 90 -52zM38 1228
q9 17 33 10q89 -30 165 -88q20 -17 13 -37l-71 -155q-12 -21 -36 -4.5t-164 92.5q-23 13 -13 34z" />
    <glyph glyph-name="afii57434.medi" unicode="&#x63a;" horiz-adv-x="750" arabic-form="medial" 
d="M712 215q77 -1 101 -64q8 -21 10 -43q4 -138 -66 -138q-211 1 -420 208q-199 -208 -333 -208q-73 0 -108.5 102.5t23.5 132.5q18 9 42 10q131 4 212 57q-44 31 -178 49q-44 6 -45 58q0 84 87 163q166 148 428 12q133 -71 128 -150q-4 -76 -115 -148q73 -39 234 -41z
M15 1128q9 17 33 10q89 -30 165 -88q20 -17 13 -37l-71 -155q-12 -21 -36 -4.5t-164 92.5q-23 13 -13 34z" />
    <glyph glyph-name="uni063B.init" unicode="&#x63b;" horiz-adv-x="1350" 
d="M-34 215q334 -44 484 124q-227 247 -447 326q-53 19 -85 171q-32 154 31 225q261 282 967 507q50 16 45 -35l-18 -180q-4 -45 -37 -57q-744 -277 -914 -413q469 -230 522 -530q55 -310 -145 -362q-213 -55 -385 -24q-50 9 -69 71q-28 93 -26 111q8 75 77 66zM57 1600
q9 17 33 10q89 -30 165 -88q20 -17 13 -37l-71 -155q-12 -21 -34.5 -5.5t-120.5 69.5l-50 -110q-12 -21 -36 -4.5t-164 92.5q-23 13 -13 34l73 148q9 17 33 10q66 -22 124 -59z" />
    <glyph glyph-name="uni063B.medi" unicode="&#x63b;" horiz-adv-x="1206" 
d="M-108 122q-17 99 97 90q322 -26 471 133q-69 149 -485 341q-52 68 -73 197q-14 85 5 119q180 354 908 693q64 30 59 -49l-11 -178q-2 -32 -34 -49q-609 -331 -822 -544q402 -162 783 -461q238 -186 379 -200q115 -12 90 -188q-8 -57 -51 -57q-170 1 -499 293
q-111 99 -190 152q13 -78 14 -114q10 -344 -428 -343q-75 0 -121 10q-67 15 -92 155zM-14 1624q9 17 33 10q89 -30 165 -88q20 -17 13 -37l-71 -155q-12 -21 -34.5 -5.5t-120.5 69.5l-50 -110q-12 -21 -36 -4.5t-164 92.5q-23 13 -13 34l73 148q9 17 33 10q66 -22 124 -59z
" />
    <glyph glyph-name="uni063C.init" unicode="&#x63c;" horiz-adv-x="1350" 
d="M-34 215q334 -44 484 124q-227 247 -447 326q-53 19 -85 171q-32 154 31 225q261 282 967 507q50 16 45 -35l-18 -180q-4 -45 -37 -57q-744 -277 -914 -413q469 -230 522 -530q55 -310 -145 -362q-213 -55 -385 -24q-50 9 -69 71q-28 93 -26 111q8 75 77 66zM471 -576
q-9 -16 -33 -10q-89 30 -166 88q-20 16 -12 36l70 156q12 21 36 4.5t165 -92.5q23 -14 13 -34zM288 -350q-9 -16 -33 -10q-89 30 -166 88q-20 16 -12 36l70 156q11 22 33.5 6t105.5 -62l46 102q12 21 36 4.5t165 -92.5q23 -14 13 -34l-73 -148q-18 -34 -142 40z" />
    <glyph glyph-name="uni063C.medi" unicode="&#x63c;" horiz-adv-x="1206" 
d="M-108 122q-17 99 97 90q322 -26 471 133q-69 149 -485 341q-52 68 -73 197q-14 85 5 119q180 354 908 693q64 30 59 -49l-11 -178q-2 -32 -34 -49q-609 -331 -822 -544q402 -162 783 -461q238 -186 379 -200q115 -12 90 -188q-8 -57 -51 -57q-170 1 -499 293
q-111 99 -190 152q13 -78 14 -114q10 -344 -428 -343q-75 0 -121 10q-67 15 -92 155zM966 -612q-9 -16 -33 -10q-89 30 -166 88q-20 16 -12 36l70 156q12 21 36 4.5t165 -92.5q23 -14 13 -34zM783 -386q-9 -16 -33 -10q-89 30 -166 88q-20 16 -12 36l70 156q11 22 33.5 6
t105.5 -62l46 102q12 21 36 4.5t165 -92.5q23 -14 13 -34l-73 -148q-18 -34 -142 40z" />
    <glyph glyph-name="uni063D.init" unicode="&#x63d;" horiz-adv-x="390" 
d="M28 436l36 127q19 68 49 27q131 -173 116.5 -396.5t-224.5 -223.5q-42 0 -71.5 68.5t-36 111t33.5 59.5q14 6 31 6q120 -3 165 47q-20 51 -65.5 92t-33.5 82zM-73 812q-4 -42 -41 -41t-45 37q-2 12 0 28q18 173 92 330q16 28 42.5 14t29.5 -18q68 -116 209 -267
q25 -24 15 -55l-21 -60q-6 -16 -22.5 -18t-37.5 15q-106 89 -186 217q-30 -115 -35 -182zM330 -223q9 17 33 10q89 -30 165 -88q20 -17 13 -37l-71 -155q-12 -21 -34.5 -5.5t-120.5 69.5l-50 -110q-12 -21 -36 -4.5t-164 92.5q-23 13 -13 34l73 148q9 17 33 10
q66 -22 124 -59z" />
    <glyph glyph-name="uni063D.medi" unicode="&#x63d;" horiz-adv-x="500" 
d="M320 296q75 -77 142 -82q57 -5 74 -42q11 -26 13.5 -86t-6 -87.5t-38.5 -28.5q-119 0 -245 130q-103 -130 -255 -130q-44 1 -64 55l-33 83q-13 34 3 69t51 38q240 18 278 120q12 31 33 31q30 0 37.5 -33.5t9.5 -36.5zM353 -123q9 17 33 10q89 -30 165 -88q20 -17 13 -37
l-71 -155q-12 -21 -34.5 -5.5t-120.5 69.5l-50 -110q-12 -21 -36 -4.5t-164 92.5q-23 13 -13 34l73 148q9 17 33 10q66 -22 124 -59zM13 752q-4 -42 -41 -41t-45 37q-2 12 0 28q18 173 92 330q16 28 42.5 14t29.5 -18q68 -116 209 -267q25 -24 15 -55l-21 -60
q-6 -16 -22.5 -18t-37.5 15q-106 89 -186 217q-30 -115 -35 -182z" />
    <glyph glyph-name="afii57441.init" unicode="&#x641;" horiz-adv-x="605" arabic-form="initial" 
d="M42 656q-47 0 -37 -91q32 -10 79.5 -5t55.5 24q-59 72 -98 72zM49 908q62 0 110 -41q192 -165 242 -449q29 -164 -16 -242q-128 -211 -379 -206q-50 0 -77 62q-26 62 -22 120q4 60 53 63q255 18 354 128q-19 69 -30 79q-16 15 -26 -10q-27 -69 -86 -83q-193 -48 -233 106
q-46 178 -5 325.5t115 147.5zM-111 1278q9 17 33 10q89 -30 165 -88q20 -17 13 -37l-71 -155q-12 -21 -36 -4.5t-164 92.5q-23 13 -13 34z" />
    <glyph glyph-name="afii57441.medi" unicode="&#x641;" horiz-adv-x="775" arabic-form="medial" 
d="M437 806q23 -1 37 -8q67 -38 101 -133q57 -166 16 -310q-15 -52 -36 -103q107 -33 183 -37q45 -2 70 -94t11 -126q-10 -22 -36 -25q-170 -17 -447 114q-68 -34 -178.5 -73.5t-155.5 -40.5t-70 59.5t-22.5 119t48.5 66.5q97 15 181 43q-23 88 -4 184q36 178 186 310
q63 54 116 54zM389 530q-110 3 -163 -93q114 -172 265 -42q-22 132 -102 135zM205 1328q9 17 33 10q89 -30 165 -88q20 -17 13 -37l-71 -155q-12 -21 -36 -4.5t-164 92.5q-23 13 -13 34z" />
    <glyph glyph-name="afii57442.init" unicode="&#x642;" horiz-adv-x="605" arabic-form="initial" 
d="M42 656q-47 0 -37 -91q32 -10 79.5 -5t55.5 24q-59 72 -98 72zM49 908q62 0 110 -41q192 -165 242 -449q29 -164 -16 -242q-128 -211 -379 -206q-50 0 -77 62q-26 62 -22 120q4 60 53 63q255 18 354 128q-19 69 -30 79q-16 15 -26 -10q-27 -69 -86 -83q-193 -48 -233 106
q-46 178 -5 325.5t115 147.5zM54 1324q9 17 33 10q89 -30 165 -88q20 -17 13 -37l-71 -155q-12 -21 -34.5 -5.5t-120.5 69.5l-50 -110q-12 -21 -36 -4.5t-164 92.5q-23 13 -13 34l73 148q9 17 33 10q66 -22 124 -59z" />
    <glyph glyph-name="afii57442.medi" unicode="&#x642;" horiz-adv-x="775" arabic-form="medial" 
d="M437 806q23 -1 37 -8q67 -38 101 -133q57 -166 16 -310q-15 -52 -36 -103q107 -33 183 -37q45 -2 70 -94t11 -126q-10 -22 -36 -25q-170 -17 -447 114q-68 -34 -178.5 -73.5t-155.5 -40.5t-70 59.5t-22.5 119t48.5 66.5q97 15 181 43q-23 88 -4 184q36 178 186 310
q63 54 116 54zM389 530q-110 3 -163 -93q114 -172 265 -42q-22 132 -102 135zM225 1374q9 17 33 10q89 -30 165 -88q20 -17 13 -37l-71 -155q-12 -21 -34.5 -5.5t-120.5 69.5l-50 -110q-12 -21 -36 -4.5t-164 92.5q-23 13 -13 34l73 148q9 17 33 10q66 -22 124 -59z" />
    <glyph glyph-name="afii57443.init" unicode="&#x643;" horiz-adv-x="1350" arabic-form="initial" 
d="M-34 215q334 -44 484 124q-227 247 -447 326q-53 19 -85 171q-32 154 31 225q261 282 967 507q50 16 45 -35l-18 -180q-4 -45 -37 -57q-744 -277 -914 -413q469 -230 522 -530q55 -310 -145 -362q-213 -55 -385 -24q-50 9 -69 71q-28 93 -26 111q8 75 77 66z" />
    <glyph glyph-name="afii57443.medi" unicode="&#x643;" horiz-adv-x="1206" arabic-form="medial" 
d="M-108 122q-17 99 97 90q322 -26 471 133q-69 149 -485 341q-52 68 -73 197q-14 85 5 119q180 354 908 693q64 30 59 -49l-11 -178q-2 -32 -34 -49q-609 -331 -822 -544q402 -162 783 -461q238 -186 379 -200q115 -12 90 -188q-8 -57 -51 -57q-170 1 -499 293
q-111 99 -190 152q13 -78 14 -114q10 -344 -428 -343q-75 0 -121 10q-67 15 -92 155z" />
    <glyph glyph-name="afii57444.init" unicode="&#x644;" horiz-adv-x="360" arabic-form="initial" 
d="M-33 1174q191 -604 207 -830q25 -341 -169 -374q-50 -8 -69 62q-13 46 -20.5 111.5t46.5 71.5q111 12 133 70q-11 49 -273 896q-26 78 -38 106q-30 51 -16 94l35 102q19 57 63.5 -27t116.5 -137q48 -35 22 -79z" />
    <glyph glyph-name="afii57444.medi" unicode="&#x644;" horiz-adv-x="405" arabic-form="medial" 
d="M150 235q4 -264 -145 -265q-38 -1 -58 43q-80 170 15 201q111 37 90 158l-191 887q-10 45 4 64l61 85q32 45 49 -51l104 -472q83 -379 113 -461q68 -184 175 -210q53 -12 73 -93t5 -129q-7 -22 -35 -22q-138 1 -260 265z" />
    <glyph glyph-name="afii57445.init" unicode="&#x645;" horiz-adv-x="797" arabic-form="initial" 
d="M250 451q86 -71 201 -95q-13 88 -79.5 117t-121.5 -22zM357 682q152 -2 276 -377q11 -34 -3 -57l-78 -131q-21 -35 -67 -25q-170 40 -298 147q-38 -266 -182 -269q-40 -1 -69 58.5t-38.5 109t30.5 69.5q15 7 33 8q110 5 166 114q17 33 85 210q55 144 145 143z" />
    <glyph glyph-name="afii57445.medi" unicode="&#x645;" horiz-adv-x="950" arabic-form="medial" 
d="M385 360q-4 6 -15 4q-60 -16 -79 -51q-7 -13 6 -23q84 -61 192 -93q29 -8 11 11q-53 56 -115 152zM351 539q32 13 57 -15q92 -107 224 -201t280 -108q67 -7 84 -81q17 -102 2.5 -132.5t-43.5 -31.5q-131 1 -277 80q4 -67 -3 -80q-23 -44 -65 -43q-231 18 -421 193
q-78 -145 -184 -150q-45 -1 -68 55q-46 107 -22 156q20 31 47 34q174 6 195 80q63 193 194 244z" />
    <glyph glyph-name="afii57446.init" unicode="&#x646;" horiz-adv-x="390" arabic-form="initial" 
d="M28 436l36 127q19 68 49 27q131 -173 116.5 -396.5t-224.5 -223.5q-42 0 -71.5 68.5t-36 111t33.5 59.5q14 6 31 6q120 -3 165 47q-20 51 -65.5 92t-33.5 82zM-52 1028q9 17 33 10q89 -30 165 -88q20 -17 13 -37l-71 -155q-12 -21 -36 -4.5t-164 92.5q-23 13 -13 34z" />
    <glyph glyph-name="afii57446.medi" unicode="&#x646;" horiz-adv-x="500" arabic-form="medial" 
d="M320 296q75 -77 142 -82q57 -5 74 -42q11 -26 13.5 -86t-6 -87.5t-38.5 -28.5q-119 0 -245 130q-103 -130 -255 -130q-44 1 -64 55l-33 83q-13 34 3 69t51 38q240 18 278 120q12 31 33 31q30 0 37.5 -33.5t9.5 -36.5zM28 998q9 17 33 10q89 -30 165 -88q20 -17 13 -37
l-71 -155q-12 -21 -36 -4.5t-164 92.5q-23 13 -13 34z" />
    <glyph glyph-name="afii57470.init" unicode="&#x647;" horiz-adv-x="926" arabic-form="initial" 
d="M409 475q21 -77 -47 -150q201 -72 306 -74q19 0 6 24q-47 93 -265 200zM269 360q62 34 60 45q-31 118 -87 128q-85 17 -132 -61q-16 -25 23 -48q63 -38 136 -64zM250 161q-139 -190 -245 -191q-40 0 -68 48q-104 182 25 198q84 10 120 32q-69 48 -54 148t85 199
q-13 6 -37.5 9t-35.5 25.5t-11 37.5q17 203 121 202.5t334.5 -188.5t272.5 -306q52 -152 -25 -262q-45 -65 -123 -57q-155 17 -359 105z" />
    <glyph glyph-name="afii57470.medi" unicode="&#x647;" horiz-adv-x="800" arabic-form="medial" 
d="M462 745q65 -27 85 -111q68 -281 -69 -469q113 7 284 49q41 8 63 -39q39 -83 26 -151q-17 -44 -46 -53q-73 -17 -134 -19q44 -81 53.5 -188t-30 -185.5t-124.5 -79.5q-224 -1 -349 417l-81 11l-13 76q-71 -33 -124.5 -33t-89.5 95q-10 26 -24.5 75t37.5 68q16 5 35 7
q94 5 230 53q30 214 150 391q46 66 69 81.5t52 4.5zM461 436q-39 50 -82 34q-88 -35 -120 -180q164 76 202 146zM321 -88q65 -121 159 -157.5t160 9.5q-94 126 -319 148z" />
    <glyph glyph-name="afii57449.init" unicode="&#x649;" horiz-adv-x="390" 
d="M28 436l36 127q19 68 49 27q131 -173 116.5 -396.5t-224.5 -223.5q-42 0 -71.5 68.5t-36 111t33.5 59.5q14 6 31 6q120 -3 165 47q-20 51 -65.5 92t-33.5 82z" />
    <glyph glyph-name="afii57449.medi" unicode="&#x649;" horiz-adv-x="500" 
d="M320 296q75 -77 142 -82q57 -5 74 -42q11 -26 13.5 -86t-6 -87.5t-38.5 -28.5q-119 0 -245 130q-103 -130 -255 -130q-44 1 -64 55l-33 83q-13 34 3 69t51 38q240 18 278 120q12 31 33 31q30 0 37.5 -33.5t9.5 -36.5z" />
    <glyph glyph-name="afii57450.init" unicode="&#x64a;" horiz-adv-x="390" arabic-form="initial" 
d="M28 436l36 127q19 68 49 27q131 -173 116.5 -396.5t-224.5 -223.5q-42 0 -71.5 68.5t-36 111t33.5 59.5q14 6 31 6q120 -3 165 47q-20 51 -65.5 92t-33.5 82zM330 -223q9 17 33 10q89 -30 165 -88q20 -17 13 -37l-71 -155q-12 -21 -34.5 -5.5t-120.5 69.5l-50 -110
q-12 -21 -36 -4.5t-164 92.5q-23 13 -13 34l73 148q9 17 33 10q66 -22 124 -59z" />
    <glyph glyph-name="afii57450.medi" unicode="&#x64a;" horiz-adv-x="500" arabic-form="medial" 
d="M320 296q75 -77 142 -82q57 -5 74 -42q11 -26 13.5 -86t-6 -87.5t-38.5 -28.5q-119 0 -245 130q-103 -130 -255 -130q-44 1 -64 55l-33 83q-13 34 3 69t51 38q240 18 278 120q12 31 33 31q30 0 37.5 -33.5t9.5 -36.5zM353 -123q9 17 33 10q89 -30 165 -88q20 -17 13 -37
l-71 -155q-12 -21 -34.5 -5.5t-120.5 69.5l-50 -110q-12 -21 -36 -4.5t-164 92.5q-23 13 -13 34l73 148q9 17 33 10q66 -22 124 -59z" />
    <glyph glyph-name="uni066E.init" unicode="&#x66e;" horiz-adv-x="390" 
d="M28 436l36 127q19 68 49 27q131 -173 116.5 -396.5t-224.5 -223.5q-42 0 -71.5 68.5t-36 111t33.5 59.5q14 6 31 6q120 -3 165 47q-20 51 -65.5 92t-33.5 82z" />
    <glyph glyph-name="uni066E.medi" unicode="&#x66e;" horiz-adv-x="500" 
d="M320 296q75 -77 142 -82q57 -5 74 -42q11 -26 13.5 -86t-6 -87.5t-38.5 -28.5q-119 0 -245 130q-103 -130 -255 -130q-44 1 -64 55l-33 83q-13 34 3 69t51 38q240 18 278 120q12 31 33 31q30 0 37.5 -33.5t9.5 -36.5z" />
    <glyph glyph-name="uni066F.init" unicode="&#x66f;" horiz-adv-x="605" 
d="M42 656q-47 0 -37 -91q32 -10 79.5 -5t55.5 24q-59 72 -98 72zM49 908q62 0 110 -41q192 -165 242 -449q29 -164 -16 -242q-128 -211 -379 -206q-50 0 -77 62q-26 62 -22 120q4 60 53 63q255 18 354 128q-19 69 -30 79q-16 15 -26 -10q-27 -69 -86 -83q-193 -48 -233 106
q-46 178 -5 325.5t115 147.5z" />
    <glyph glyph-name="uni066F.medi" unicode="&#x66f;" horiz-adv-x="775" 
d="M437 806q23 -1 37 -8q67 -38 101 -133q57 -166 16 -310q-15 -52 -36 -103q107 -33 183 -37q45 -2 70 -94t11 -126q-10 -22 -36 -25q-170 -17 -447 114q-68 -34 -178.5 -73.5t-155.5 -40.5t-70 59.5t-22.5 119t48.5 66.5q97 15 181 43q-23 88 -4 184q36 178 186 310
q63 54 116 54zM389 530q-110 3 -163 -93q114 -172 265 -42q-22 132 -102 135z" />
    <glyph glyph-name="uni0678.init" unicode="&#x678;" horiz-adv-x="390" 
d="M28 436l36 127q19 68 49 27q131 -173 116.5 -396.5t-224.5 -223.5q-42 0 -71.5 68.5t-36 111t33.5 59.5q14 6 31 6q120 -3 165 47q-20 51 -65.5 92t-33.5 82zM434 819q-106 -22 -149.5 -36.5t-158.5 -69.5q-36 -14 -59 13q-37 46 43 109q-68 38 -85 84q-32 90 35.5 213
t174.5 115q78 -6 83.5 -80.5t-11 -105t-25.5 -37.5q-26 -20 -52.5 10.5t-59.5 33.5t-45.5 -15t6.5 -34q76 -60 200 -64q20 0 60 10t61.5 9t36.5 -20q15 -20 11 -37q-28 -89 -66 -98z" />
    <glyph glyph-name="uni0678.medi" unicode="&#x678;" horiz-adv-x="500" 
d="M320 296q75 -77 142 -82q57 -5 74 -42q11 -26 13.5 -86t-6 -87.5t-38.5 -28.5q-119 0 -245 130q-103 -130 -255 -130q-44 1 -64 55l-33 83q-13 34 3 69t51 38q240 18 278 120q12 31 33 31q30 0 37.5 -33.5t9.5 -36.5zM370 759q-106 -22 -149.5 -36.5t-158.5 -69.5
q-36 -14 -59 13q-37 46 43 109q-68 38 -85 84q-32 90 35.5 213t174.5 115q78 -6 83.5 -80.5t-11 -105t-25.5 -37.5q-26 -20 -52.5 10.5t-59.5 33.5t-45.5 -15t6.5 -34q76 -60 200 -64q20 0 60 10t61.5 9t36.5 -20q15 -20 11 -37q-28 -89 -66 -98z" />
    <glyph glyph-name="afii57511.init" unicode="&#x679;" horiz-adv-x="390" arabic-form="initial" 
d="M28 436l36 127q19 68 49 27q131 -173 116.5 -396.5t-224.5 -223.5q-42 0 -71.5 68.5t-36 111t33.5 59.5q14 6 31 6q120 -3 165 47q-20 51 -65.5 92t-33.5 82zM-133 1330q31 16 48 -36q78 -247 92 -373q41 48 90 90q51 42 106.5 22t91.5 -82t-26 -164q-15 -24 -126.5 -60
t-234.5 -42h-4q-59 10 -110 49t-54 63q1 17 22 16q73 -7 146 -2l38 46q-19 144 -103 391q-3 11 4 42.5t20 39.5zM117 912q-28 -12 -98 -87q99 21 189 67q-37 41 -91 20z" />
    <glyph glyph-name="afii57511.medi" unicode="&#x679;" horiz-adv-x="500" arabic-form="medial" 
d="M320 296q75 -77 142 -82q57 -5 74 -42q11 -26 13.5 -86t-6 -87.5t-38.5 -28.5q-119 0 -245 130q-103 -130 -255 -130q-44 1 -64 55l-33 83q-13 34 3 69t51 38q240 18 278 120q12 31 33 31q30 0 37.5 -33.5t9.5 -36.5zM-53 1300q31 16 48 -36q78 -247 92 -373q41 48 90 90
q51 42 106.5 22t91.5 -82t-26 -164q-15 -24 -126.5 -60t-234.5 -42h-4q-59 10 -110 49t-54 63q1 17 22 16q73 -7 146 -2l38 46q-19 144 -103 391q-3 11 4 42.5t20 39.5zM197 882q-28 -12 -98 -87q99 21 189 67q-37 41 -91 20z" />
    <glyph glyph-name="uni067A.init" unicode="&#x67a;" horiz-adv-x="390" arabic-form="initial" 
d="M28 436l36 127q19 68 49 27q131 -173 116.5 -396.5t-224.5 -223.5q-42 0 -71.5 68.5t-36 111t33.5 59.5q14 6 31 6q120 -3 165 47q-20 51 -65.5 92t-33.5 82zM-126 1218q9 17 33 10q89 -30 166 -88q20 -17 13 -37l-41 -91q54 -26 101 -62q20 -17 13 -37l-71 -155
q-12 -21 -36 -4.5t-164 92.5q-23 13 -13 34l48 97l-109 59q-23 13 -13 34z" />
    <glyph glyph-name="uni067A.medi" unicode="&#x67a;" horiz-adv-x="500" arabic-form="medial" 
d="M320 296q75 -77 142 -82q57 -5 74 -42q11 -26 13.5 -86t-6 -87.5t-38.5 -28.5q-119 0 -245 130q-103 -130 -255 -130q-44 1 -64 55l-33 83q-13 34 3 69t51 38q240 18 278 120q12 31 33 31q30 0 37.5 -33.5t9.5 -36.5zM-46 1188q9 17 33 10q89 -30 166 -88q20 -17 13 -37
l-41 -91q54 -26 101 -62q20 -17 13 -37l-71 -155q-12 -21 -36 -4.5t-164 92.5q-23 13 -13 34l48 97l-109 59q-23 13 -13 34z" />
    <glyph glyph-name="uni067B.init" unicode="&#x67b;" horiz-adv-x="390" arabic-form="initial" 
d="M28 436l36 127q19 68 49 27q131 -173 116.5 -396.5t-224.5 -223.5q-42 0 -71.5 68.5t-36 111t33.5 59.5q14 6 31 6q120 -3 165 47q-20 51 -65.5 92t-33.5 82zM163 -222q9 17 33 10q89 -30 166 -88q20 -17 13 -37l-41 -91q54 -26 101 -62q20 -17 13 -37l-71 -155
q-12 -21 -36 -4.5t-164 92.5q-23 13 -13 34l48 97l-109 59q-23 13 -13 34z" />
    <glyph glyph-name="uni067B.medi" unicode="&#x67b;" horiz-adv-x="500" arabic-form="medial" 
d="M320 296q75 -77 142 -82q57 -5 74 -42q11 -26 13.5 -86t-6 -87.5t-38.5 -28.5q-119 0 -245 130q-103 -130 -255 -130q-44 1 -64 55l-33 83q-13 34 3 69t51 38q240 18 278 120q12 31 33 31q30 0 37.5 -33.5t9.5 -36.5zM253 -222q9 17 33 10q89 -30 166 -88q20 -17 13 -37
l-41 -91q54 -26 101 -62q20 -17 13 -37l-71 -155q-12 -21 -36 -4.5t-164 92.5q-23 13 -13 34l48 97l-109 59q-23 13 -13 34z" />
    <glyph glyph-name="uni067C.init" unicode="&#x67c;" horiz-adv-x="390" 
d="M28 436l36 127q19 68 49 27q131 -173 116.5 -396.5t-224.5 -223.5q-42 0 -71.5 68.5t-36 111t33.5 59.5q14 6 31 6q120 -3 165 47q-20 51 -65.5 92t-33.5 82zM56 974q9 17 33 10q89 -30 165 -88q20 -17 13 -37l-71 -155q-12 -21 -34.5 -5.5t-120.5 69.5l-50 -110
q-12 -21 -36 -4.5t-164 92.5q-23 13 -13 34l73 148q9 17 33 10q66 -22 124 -59zM226 -217q-132 12 -143.5 162t53.5 207t162 -16q67 -51 85 -141t7 -125q-31 -98 -164 -87zM334 -67q-50 122 -124 125q-46 2 -63 -30t-2 -77.5t82.5 -51.5t100.5 22q7 6 6 12z" />
    <glyph glyph-name="uni067C.medi" unicode="&#x67c;" horiz-adv-x="500" 
d="M320 296q75 -77 142 -82q57 -5 74 -42q11 -26 13.5 -86t-6 -87.5t-38.5 -28.5q-119 0 -245 130q-103 -130 -255 -130q-44 1 -64 55l-33 83q-13 34 3 69t51 38q240 18 278 120q12 31 33 31q30 0 37.5 -33.5t9.5 -36.5zM126 914q9 17 33 10q89 -30 165 -88q20 -17 13 -37
l-71 -155q-12 -21 -34.5 -5.5t-120.5 69.5l-50 -110q-12 -21 -36 -4.5t-164 92.5q-23 13 -13 34l73 148q9 17 33 10q66 -22 124 -59zM261 -247q-132 12 -143.5 162t53.5 207t162 -16q67 -51 85 -141t7 -125q-31 -98 -164 -87zM369 -97q-50 122 -124 125q-46 2 -63 -30
t-2 -77.5t82.5 -51.5t100.5 22q7 6 6 12z" />
    <glyph glyph-name="uni067D.init" unicode="&#x67d;" horiz-adv-x="390" 
d="M28 436l36 127q19 68 49 27q131 -173 116.5 -396.5t-224.5 -223.5q-42 0 -71.5 68.5t-36 111t33.5 59.5q14 6 31 6q120 -3 165 47q-20 51 -65.5 92t-33.5 82zM153 638q-9 -16 -33 -10q-89 30 -166 88q-20 16 -12 36l70 156q12 21 36 4.5t165 -92.5q23 -14 13 -34z
M-30 864q-9 -16 -33 -10q-89 30 -166 88q-20 16 -12 36l70 156q11 22 33.5 6t105.5 -62l46 102q12 21 36 4.5t165 -92.5q23 -14 13 -34l-73 -148q-18 -34 -142 40z" />
    <glyph glyph-name="uni067D.medi" unicode="&#x67d;" horiz-adv-x="500" 
d="M320 296q75 -77 142 -82q57 -5 74 -42q11 -26 13.5 -86t-6 -87.5t-38.5 -28.5q-119 0 -245 130q-103 -130 -255 -130q-44 1 -64 55l-33 83q-13 34 3 69t51 38q240 18 278 120q12 31 33 31q30 0 37.5 -33.5t9.5 -36.5zM223 578q-9 -16 -33 -10q-89 30 -166 88
q-20 16 -12 36l70 156q12 21 36 4.5t165 -92.5q23 -14 13 -34zM40 804q-9 -16 -33 -10q-89 30 -166 88q-20 16 -12 36l70 156q11 22 33.5 6t105.5 -62l46 102q12 21 36 4.5t165 -92.5q23 -14 13 -34l-73 -148q-18 -34 -142 40z" />
    <glyph glyph-name="afii57506.init" unicode="&#x67e;" horiz-adv-x="390" arabic-form="initial" 
d="M28 436l36 127q19 68 49 27q131 -173 116.5 -396.5t-224.5 -223.5q-42 0 -71.5 68.5t-36 111t33.5 59.5q14 6 31 6q120 -3 165 47q-20 51 -65.5 92t-33.5 82zM463 -762q-9 -16 -33 -10q-89 30 -166 88q-20 16 -12 36l70 156q12 21 36 4.5t165 -92.5q23 -14 13 -34z
M280 -536q-9 -16 -33 -10q-89 30 -166 88q-20 16 -12 36l70 156q11 22 33.5 6t105.5 -62l46 102q12 21 36 4.5t165 -92.5q23 -14 13 -34l-73 -148q-18 -34 -142 40z" />
    <glyph glyph-name="afii57506.medi" unicode="&#x67e;" horiz-adv-x="500" arabic-form="medial" 
d="M320 296q75 -77 142 -82q57 -5 74 -42q11 -26 13.5 -86t-6 -87.5t-38.5 -28.5q-119 0 -245 130q-103 -130 -255 -130q-44 1 -64 55l-33 83q-13 34 3 69t51 38q240 18 278 120q12 31 33 31q30 0 37.5 -33.5t9.5 -36.5zM486 -662q-9 -16 -33 -10q-89 30 -166 88
q-20 16 -12 36l70 156q12 21 36 4.5t165 -92.5q23 -14 13 -34zM303 -436q-9 -16 -33 -10q-89 30 -166 88q-20 16 -12 36l70 156q11 22 33.5 6t105.5 -62l46 102q12 21 36 4.5t165 -92.5q23 -14 13 -34l-73 -148q-18 -34 -142 40z" />
    <glyph glyph-name="uni067F.init" unicode="&#x67f;" horiz-adv-x="390" arabic-form="initial" 
d="M28 436l36 127q19 68 49 27q131 -173 116.5 -396.5t-224.5 -223.5q-42 0 -71.5 68.5t-36 111t33.5 59.5q14 6 31 6q120 -3 165 47q-20 51 -65.5 92t-33.5 82zM-17 1214q9 17 34 10q89 -30 165 -88q20 -17 13 -37l-61 -132q64 -28 120 -71q20 -17 13 -37l-71 -155
q-12 -21 -34.5 -5.5t-120.5 69.5l-50 -110q-12 -21 -36 -4.5t-164 92.5q-23 13 -13 34l67 136l-126 70q-23 13 -13 34l72 148q9 17 34 10q66 -22 124 -59zM-71 921q41 -18 79 -42l42 84q-30 18 -81 45z" />
    <glyph glyph-name="uni067F.medi" unicode="&#x67f;" horiz-adv-x="500" arabic-form="medial" 
d="M320 296q75 -77 142 -82q57 -5 74 -42q11 -26 13.5 -86t-6 -87.5t-38.5 -28.5q-119 0 -245 130q-103 -130 -255 -130q-44 1 -64 55l-33 83q-13 34 3 69t51 38q240 18 278 120q12 31 33 31q30 0 37.5 -33.5t9.5 -36.5zM53 1154q9 17 34 10q89 -30 165 -88q20 -17 13 -37
l-61 -132q64 -28 120 -71q20 -17 13 -37l-71 -155q-12 -21 -34.5 -5.5t-120.5 69.5l-50 -110q-12 -21 -36 -4.5t-164 92.5q-23 13 -13 34l67 136l-126 70q-23 13 -13 34l72 148q9 17 34 10q66 -22 124 -59zM-1 861q41 -18 79 -42l42 84q-30 18 -81 45z" />
    <glyph glyph-name="uni0680.init" unicode="&#x680;" horiz-adv-x="390" arabic-form="initial" 
d="M28 436l36 127q19 68 49 27q131 -173 116.5 -396.5t-224.5 -223.5q-42 0 -71.5 68.5t-36 111t33.5 59.5q14 6 31 6q120 -3 165 47q-20 51 -65.5 92t-33.5 82zM318 -176q9 17 34 10q89 -30 165 -88q20 -17 13 -37l-61 -132q64 -28 120 -71q20 -17 13 -37l-71 -155
q-12 -21 -34.5 -5.5t-120.5 69.5l-50 -110q-12 -21 -36 -4.5t-164 92.5q-23 13 -13 34l67 136l-126 70q-23 13 -13 34l72 148q9 17 34 10q66 -22 124 -59zM264 -469q41 -18 79 -42l42 84q-30 18 -81 45z" />
    <glyph glyph-name="uni0680.medi" unicode="&#x680;" horiz-adv-x="500" arabic-form="medial" 
d="M320 296q75 -77 142 -82q57 -5 74 -42q11 -26 13.5 -86t-6 -87.5t-38.5 -28.5q-119 0 -245 130q-103 -130 -255 -130q-44 1 -64 55l-33 83q-13 34 3 69t51 38q240 18 278 120q12 31 33 31q30 0 37.5 -33.5t9.5 -36.5zM340 -76q9 17 34 10q89 -30 165 -88q20 -17 13 -37
l-61 -132q64 -28 120 -71q20 -17 13 -37l-71 -155q-12 -21 -34.5 -5.5t-120.5 69.5l-50 -110q-12 -21 -36 -4.5t-164 92.5q-23 13 -13 34l67 136l-126 70q-23 13 -13 34l72 148q9 17 34 10q66 -22 124 -59zM286 -369q41 -18 79 -42l42 84q-30 18 -81 45z" />
    <glyph glyph-name="uni0681.init" unicode="&#x681;" horiz-adv-x="1343" 
d="M-67 455q6 72 67.5 143t133.5 72t356.5 -109.5t604.5 -96.5q59 3 36 -80l-34 -126q-10 -38 -36 -35q-243 39 -438 -25.5t-345 -146t-273 -81.5q-33 1 -56 39q-40 73 -34.5 129t19.5 65.5t25 11.5q313 19 509 119q-316 131 -486 75q-53 -20 -49 46zM593 969
q-106 -22 -149.5 -36.5t-158.5 -69.5q-36 -14 -59 13q-37 46 43 109q-68 38 -85 84q-32 90 35.5 213t174.5 115q78 -6 83.5 -80.5t-11 -105t-25.5 -37.5q-26 -20 -52.5 10.5t-59.5 33.5t-45.5 -15t6.5 -34q76 -60 200 -64q20 0 60 10t61.5 9t36.5 -20q15 -20 11 -37
q-28 -89 -66 -98z" />
    <glyph glyph-name="uni0681.medi" unicode="&#x681;" horiz-adv-x="1250" 
d="M-55 454q15 222 229 222q97 0 317 -97q105 -46 277.5 -72t328.5 -8q69 9 63 -45l-19 -151q-5 -36 -52 -32q-83 7 -143 9q-16 -76 268 -69q119 3 97 -174q-9 -61 -52 -67q-165 -21 -273 16q-151 52 -126 288q-163 -15 -299 -69t-303 -145.5t-253 -89.5q-48 1 -79 54.5
t-28 116.5t60 74q167 31 282.5 82t187.5 72q-305 95 -409 37q-35 -20 -56.5 -12t-17.5 60zM633 969q-106 -22 -149.5 -36.5t-158.5 -69.5q-36 -14 -59 13q-37 46 43 109q-68 38 -85 84q-32 90 35.5 213t174.5 115q78 -6 83.5 -80.5t-11 -105t-25.5 -37.5q-26 -20 -52.5 10.5
t-59.5 33.5t-45.5 -15t6.5 -34q76 -60 200 -64q20 0 60 10t61.5 9t36.5 -20q15 -20 11 -37q-28 -89 -66 -98z" />
    <glyph glyph-name="uni0682.init" unicode="&#x682;" horiz-adv-x="1343" 
d="M-67 455q6 72 67.5 143t133.5 72t356.5 -109.5t604.5 -96.5q59 3 36 -80l-34 -126q-10 -38 -36 -35q-243 39 -438 -25.5t-345 -146t-273 -81.5q-33 1 -56 39q-40 73 -34.5 129t19.5 65.5t25 11.5q313 19 509 119q-316 131 -486 75q-53 -20 -49 46zM300 1268q9 17 33 10
q89 -30 166 -88q20 -17 13 -37l-41 -91q54 -26 101 -62q20 -17 13 -37l-71 -155q-12 -21 -36 -4.5t-164 92.5q-23 13 -13 34l48 97l-109 59q-23 13 -13 34z" />
    <glyph glyph-name="uni0682.medi" unicode="&#x682;" horiz-adv-x="1250" 
d="M-55 454q15 222 229 222q97 0 317 -97q105 -46 277.5 -72t328.5 -8q69 9 63 -45l-19 -151q-5 -36 -52 -32q-83 7 -143 9q-16 -76 268 -69q119 3 97 -174q-9 -61 -52 -67q-165 -21 -273 16q-151 52 -126 288q-163 -15 -299 -69t-303 -145.5t-253 -89.5q-48 1 -79 54.5
t-28 116.5t60 74q167 31 282.5 82t187.5 72q-305 95 -409 37q-35 -20 -56.5 -12t-17.5 60zM340 1268q9 17 33 10q89 -30 166 -88q20 -17 13 -37l-41 -91q54 -26 101 -62q20 -17 13 -37l-71 -155q-12 -21 -36 -4.5t-164 92.5q-23 13 -13 34l48 97l-109 59q-23 13 -13 34z" />
    <glyph glyph-name="uni0683.init" unicode="&#x683;" horiz-adv-x="1343" arabic-form="initial" 
d="M-67 455q6 72 67.5 143t133.5 72t356.5 -109.5t604.5 -96.5q59 3 36 -80l-34 -126q-10 -38 -36 -35q-243 39 -438 -25.5t-345 -146t-273 -81.5q-33 1 -56 39q-40 73 -34.5 129t19.5 65.5t25 11.5q313 19 509 119q-316 131 -486 75q-53 -20 -49 46zM683 -75q9 17 33 10
q89 -30 165 -88q20 -17 13 -37l-71 -155q-12 -21 -34.5 -5.5t-120.5 69.5l-50 -110q-12 -21 -36 -4.5t-164 92.5q-23 13 -13 34l73 148q9 17 33 10q66 -22 124 -59z" />
    <glyph glyph-name="uni0683.medi" unicode="&#x683;" horiz-adv-x="1250" arabic-form="medial" 
d="M-55 454q15 222 229 222q97 0 317 -97q105 -46 277.5 -72t328.5 -8q69 9 63 -45l-19 -151q-5 -36 -52 -32q-83 7 -143 9q-16 -76 268 -69q119 3 97 -174q-9 -61 -52 -67q-165 -21 -273 16q-151 52 -126 288q-163 -15 -299 -69t-303 -145.5t-253 -89.5q-48 1 -79 54.5
t-28 116.5t60 74q167 31 282.5 82t187.5 72q-305 95 -409 37q-35 -20 -56.5 -12t-17.5 60zM671 -63q9 17 33 10q89 -30 165 -88q20 -17 13 -37l-71 -155q-12 -21 -34.5 -5.5t-120.5 69.5l-50 -110q-12 -21 -36 -4.5t-164 92.5q-23 13 -13 34l73 148q9 17 33 10
q66 -22 124 -59z" />
    <glyph glyph-name="uni0684.init" unicode="&#x684;" horiz-adv-x="1343" arabic-form="initial" 
d="M-67 455q6 72 67.5 143t133.5 72t356.5 -109.5t604.5 -96.5q59 3 36 -80l-34 -126q-10 -38 -36 -35q-243 39 -438 -25.5t-345 -146t-273 -81.5q-33 1 -56 39q-40 73 -34.5 129t19.5 65.5t25 11.5q313 19 509 119q-316 131 -486 75q-53 -20 -49 46zM577 -74q9 17 33 10
q89 -30 166 -88q20 -17 13 -37l-41 -91q54 -26 101 -62q20 -17 13 -37l-71 -155q-12 -21 -36 -4.5t-164 92.5q-23 13 -13 34l48 97l-109 59q-23 13 -13 34z" />
    <glyph glyph-name="uni0684.medi" unicode="&#x684;" horiz-adv-x="1250" arabic-form="medial" 
d="M-55 454q15 222 229 222q97 0 317 -97q105 -46 277.5 -72t328.5 -8q69 9 63 -45l-19 -151q-5 -36 -52 -32q-83 7 -143 9q-16 -76 268 -69q119 3 97 -174q-9 -61 -52 -67q-165 -21 -273 16q-151 52 -126 288q-163 -15 -299 -69t-303 -145.5t-253 -89.5q-48 1 -79 54.5
t-28 116.5t60 74q167 31 282.5 82t187.5 72q-305 95 -409 37q-35 -20 -56.5 -12t-17.5 60zM565 -62q9 17 33 10q89 -30 166 -88q20 -17 13 -37l-41 -91q54 -26 101 -62q20 -17 13 -37l-71 -155q-12 -21 -36 -4.5t-164 92.5q-23 13 -13 34l48 97l-109 59q-23 13 -13 34z" />
    <glyph glyph-name="uni0685.init" unicode="&#x685;" horiz-adv-x="1343" 
d="M-67 455q6 72 67.5 143t133.5 72t356.5 -109.5t604.5 -96.5q59 3 36 -80l-34 -126q-10 -38 -36 -35q-243 39 -438 -25.5t-345 -146t-273 -81.5q-33 1 -56 39q-40 73 -34.5 129t19.5 65.5t25 11.5q313 19 509 119q-316 131 -486 75q-53 -20 -49 46zM275 1353q9 17 33 10
q89 -30 166 -88q20 -17 13 -37l-71 -155q-12 -21 -36 -4.5t-165 92.5q-23 13 -12 33zM461 1124q9 17 33 10q89 -30 165 -88q20 -17 13 -37l-71 -155q-11 -22 -33 -6.5t-105 61.5l-46 -102q-12 -21 -36.5 -4.5t-164.5 92.5q-23 13 -13 34l73 148q18 34 142 -39z" />
    <glyph glyph-name="uni0685.medi" unicode="&#x685;" horiz-adv-x="1250" 
d="M-55 454q15 222 229 222q97 0 317 -97q105 -46 277.5 -72t328.5 -8q69 9 63 -45l-19 -151q-5 -36 -52 -32q-83 7 -143 9q-16 -76 268 -69q119 3 97 -174q-9 -61 -52 -67q-165 -21 -273 16q-151 52 -126 288q-163 -15 -299 -69t-303 -145.5t-253 -89.5q-48 1 -79 54.5
t-28 116.5t60 74q167 31 282.5 82t187.5 72q-305 95 -409 37q-35 -20 -56.5 -12t-17.5 60zM325 1353q9 17 33 10q89 -30 166 -88q20 -17 13 -37l-71 -155q-12 -21 -36 -4.5t-165 92.5q-23 13 -12 33zM511 1124q9 17 33 10q89 -30 165 -88q20 -17 13 -37l-71 -155
q-11 -22 -33 -6.5t-105 61.5l-46 -102q-12 -21 -36.5 -4.5t-164.5 92.5q-23 13 -13 34l73 148q18 34 142 -39z" />
    <glyph glyph-name="afii57507.init" unicode="&#x686;" horiz-adv-x="1343" arabic-form="initial" 
d="M-67 455q6 72 67.5 143t133.5 72t356.5 -109.5t604.5 -96.5q59 3 36 -80l-34 -126q-10 -38 -36 -35q-243 39 -438 -25.5t-345 -146t-273 -81.5q-33 1 -56 39q-40 73 -34.5 129t19.5 65.5t25 11.5q313 19 509 119q-316 131 -486 75q-53 -20 -49 46zM816 -614
q-9 -16 -33 -10q-89 30 -166 88q-20 16 -12 36l70 156q12 21 36 4.5t165 -92.5q23 -14 13 -34zM633 -388q-9 -16 -33 -10q-89 30 -166 88q-20 16 -12 36l70 156q11 22 33.5 6t105.5 -62l46 102q12 21 36 4.5t165 -92.5q23 -14 13 -34l-73 -148q-18 -34 -142 40z" />
    <glyph glyph-name="afii57507.medi" unicode="&#x686;" horiz-adv-x="1250" arabic-form="medial" 
d="M-55 454q15 222 229 222q97 0 317 -97q105 -46 277.5 -72t328.5 -8q69 9 63 -45l-19 -151q-5 -36 -52 -32q-83 7 -143 9q-16 -76 268 -69q119 3 97 -174q-9 -61 -52 -67q-165 -21 -273 16q-151 52 -126 288q-163 -15 -299 -69t-303 -145.5t-253 -89.5q-48 1 -79 54.5
t-28 116.5t60 74q167 31 282.5 82t187.5 72q-305 95 -409 37q-35 -20 -56.5 -12t-17.5 60zM804 -602q-9 -16 -33 -10q-89 30 -166 88q-20 16 -12 36l70 156q12 21 36 4.5t165 -92.5q23 -14 13 -34zM621 -376q-9 -16 -33 -10q-89 30 -166 88q-20 16 -12 36l70 156
q11 22 33.5 6t105.5 -62l46 102q12 21 36 4.5t165 -92.5q23 -14 13 -34l-73 -148q-18 -34 -142 40z" />
    <glyph glyph-name="uni0687.init" unicode="&#x687;" horiz-adv-x="1343" arabic-form="initial" 
d="M-67 455q6 72 67.5 143t133.5 72t356.5 -109.5t604.5 -96.5q59 3 36 -80l-34 -126q-10 -38 -36 -35q-243 39 -438 -25.5t-345 -146t-273 -81.5q-33 1 -56 39q-40 73 -34.5 129t19.5 65.5t25 11.5q313 19 509 119q-316 131 -486 75q-53 -20 -49 46zM671 -28q9 17 34 10
q89 -30 165 -88q20 -17 13 -37l-61 -132q64 -28 120 -71q20 -17 13 -37l-71 -155q-12 -21 -34.5 -5.5t-120.5 69.5l-50 -110q-12 -21 -36 -4.5t-164 92.5q-23 13 -13 34l67 136l-126 70q-23 13 -13 34l72 148q9 17 34 10q66 -22 124 -59zM617 -321q41 -18 79 -42l42 84
q-30 18 -81 45z" />
    <glyph glyph-name="uni0687.medi" unicode="&#x687;" horiz-adv-x="1250" arabic-form="medial" 
d="M-55 454q15 222 229 222q97 0 317 -97q105 -46 277.5 -72t328.5 -8q69 9 63 -45l-19 -151q-5 -36 -52 -32q-83 7 -143 9q-16 -76 268 -69q119 3 97 -174q-9 -61 -52 -67q-165 -21 -273 16q-151 52 -126 288q-163 -15 -299 -69t-303 -145.5t-253 -89.5q-48 1 -79 54.5
t-28 116.5t60 74q167 31 282.5 82t187.5 72q-305 95 -409 37q-35 -20 -56.5 -12t-17.5 60zM659 -16q9 17 34 10q89 -30 165 -88q20 -17 13 -37l-61 -132q64 -28 120 -71q20 -17 13 -37l-71 -155q-12 -21 -34.5 -5.5t-120.5 69.5l-50 -110q-12 -21 -36 -4.5t-164 92.5
q-23 13 -13 34l67 136l-126 70q-23 13 -13 34l72 148q9 17 34 10q66 -22 124 -59zM605 -309q41 -18 79 -42l42 84q-30 18 -81 45z" />
    <glyph glyph-name="uni069A.init" unicode="&#x69a;" horiz-adv-x="1164" 
d="M247 424q64 -1 28 -108q65 -45 151 -46q137 -2 184 252q7 39 39 28.5t32 -47.5l-5 -71q43 -31 108.5 -51t103.5 -19q-26 61 -48.5 92t-6.5 67l45 103q27 35 60 -50q54 -142 46 -274t-73 -178q-7 -5 -27 -6q-141 -5 -261 83q-50 -148 -172 -182.5t-275 100.5
q-97 -146 -171 -147q-43 0 -70 67q-15 38 -23 68q-28 102 47 110q199 21 259 180q11 29 29 29zM423 1028q9 17 33 10q89 -30 165 -88q20 -17 13 -37l-71 -155q-12 -21 -36 -4.5t-164 92.5q-23 13 -13 34zM617 -72q9 17 33 10q89 -30 165 -88q20 -17 13 -37l-71 -155
q-12 -21 -36 -4.5t-164 92.5q-23 13 -13 34z" />
    <glyph glyph-name="uni069A.medi" unicode="&#x69a;" horiz-adv-x="1165" 
d="M200 343q8 43 50 29q40 -14 23 -75q-5 -17 -12 -36q236 -79 297 121q11 44 48.5 30t27.5 -64t-6 -66q12 -43 90 -52t96 24t23 140q1 28 29 28t41 -24q94 -172 220 -183q48 -7 74.5 -74t19 -119t-50.5 -52q-184 0 -286 208q-13 -93 -36 -156.5t-80 -65.5q-140 -5 -238 92
q-68 -78 -180.5 -77.5t-190.5 66.5q-68 -66 -154 -67q-57 0 -89 99q-8 25 -20 71q-12 50 35 68q16 6 31 7q218 16 238 128zM390 905q9 17 33 10q89 -30 165 -88q20 -17 13 -37l-71 -155q-12 -21 -36 -4.5t-164 92.5q-23 13 -13 34zM552 -272q9 17 33 10q89 -30 165 -88
q20 -17 13 -37l-71 -155q-12 -21 -36 -4.5t-164 92.5q-23 13 -13 34z" />
    <glyph glyph-name="uni069B.init" unicode="&#x69b;" horiz-adv-x="1164" 
d="M247 424q64 -1 28 -108q65 -45 151 -46q137 -2 184 252q7 39 39 28.5t32 -47.5l-5 -71q43 -31 108.5 -51t103.5 -19q-26 61 -48.5 92t-6.5 67l45 103q27 35 60 -50q54 -142 46 -274t-73 -178q-7 -5 -27 -6q-141 -5 -261 83q-50 -148 -172 -182.5t-275 100.5
q-97 -146 -171 -147q-43 0 -70 67q-15 38 -23 68q-28 102 47 110q199 21 259 180q11 29 29 29zM867 -612q-9 -16 -33 -10q-89 30 -166 88q-20 16 -12 36l70 156q12 21 36 4.5t165 -92.5q23 -14 13 -34zM684 -386q-9 -16 -33 -10q-89 30 -166 88q-20 16 -12 36l70 156
q11 22 33.5 6t105.5 -62l46 102q12 21 36 4.5t165 -92.5q23 -14 13 -34l-73 -148q-18 -34 -142 40z" />
    <glyph glyph-name="uni069B.medi" unicode="&#x69b;" horiz-adv-x="1165" 
d="M200 343q8 43 50 29q40 -14 23 -75q-5 -17 -12 -36q236 -79 297 121q11 44 48.5 30t27.5 -64t-6 -66q12 -43 90 -52t96 24t23 140q1 28 29 28t41 -24q94 -172 220 -183q48 -7 74.5 -74t19 -119t-50.5 -52q-184 0 -286 208q-13 -93 -36 -156.5t-80 -65.5q-140 -5 -238 92
q-68 -78 -180.5 -77.5t-190.5 66.5q-68 -66 -154 -67q-57 0 -89 99q-8 25 -20 71q-12 50 35 68q16 6 31 7q218 16 238 128zM785 -712q-9 -16 -33 -10q-89 30 -166 88q-20 16 -12 36l70 156q12 21 36 4.5t165 -92.5q23 -14 13 -34zM602 -486q-9 -16 -33 -10q-89 30 -166 88
q-20 16 -12 36l70 156q11 22 33.5 6t105.5 -62l46 102q12 21 36 4.5t165 -92.5q23 -14 13 -34l-73 -148q-18 -34 -142 40z" />
    <glyph glyph-name="uni069C.init" unicode="&#x69c;" horiz-adv-x="1164" 
d="M247 424q64 -1 28 -108q65 -45 151 -46q137 -2 184 252q7 39 39 28.5t32 -47.5l-5 -71q43 -31 108.5 -51t103.5 -19q-26 61 -48.5 92t-6.5 67l45 103q27 35 60 -50q54 -142 46 -274t-73 -178q-7 -5 -27 -6q-141 -5 -261 83q-50 -148 -172 -182.5t-275 100.5
q-97 -146 -171 -147q-43 0 -70 67q-15 38 -23 68q-28 102 47 110q199 21 259 180q11 29 29 29zM323 1303q9 17 33 10q89 -30 166 -88q20 -17 13 -37l-71 -155q-12 -21 -36 -4.5t-165 92.5q-23 13 -12 33zM509 1074q9 17 33 10q89 -30 165 -88q20 -17 13 -37l-71 -155
q-11 -22 -33 -6.5t-105 61.5l-46 -102q-12 -21 -36.5 -4.5t-164.5 92.5q-23 13 -13 34l73 148q18 34 142 -39zM867 -612q-9 -16 -33 -10q-89 30 -166 88q-20 16 -12 36l70 156q12 21 36 4.5t165 -92.5q23 -14 13 -34zM684 -386q-9 -16 -33 -10q-89 30 -166 88q-20 16 -12 36
l70 156q11 22 33.5 6t105.5 -62l46 102q12 21 36 4.5t165 -92.5q23 -14 13 -34l-73 -148q-18 -34 -142 40z" />
    <glyph glyph-name="uni069C.medi" unicode="&#x69c;" horiz-adv-x="1165" 
d="M200 343q8 43 50 29q40 -14 23 -75q-5 -17 -12 -36q236 -79 297 121q11 44 48.5 30t27.5 -64t-6 -66q12 -43 90 -52t96 24t23 140q1 28 29 28t41 -24q94 -172 220 -183q48 -7 74.5 -74t19 -119t-50.5 -52q-184 0 -286 208q-13 -93 -36 -156.5t-80 -65.5q-140 -5 -238 92
q-68 -78 -180.5 -77.5t-190.5 66.5q-68 -66 -154 -67q-57 0 -89 99q-8 25 -20 71q-12 50 35 68q16 6 31 7q218 16 238 128zM290 1180q9 17 33 10q89 -30 166 -88q20 -17 13 -37l-71 -155q-12 -21 -36 -4.5t-165 92.5q-23 13 -12 33zM476 951q9 17 33 10q89 -30 165 -88
q20 -17 13 -37l-71 -155q-11 -22 -33 -6.5t-105 61.5l-46 -102q-12 -21 -36.5 -4.5t-164.5 92.5q-23 13 -13 34l73 148q18 34 142 -39zM785 -712q-9 -16 -33 -10q-89 30 -166 88q-20 16 -12 36l70 156q12 21 36 4.5t165 -92.5q23 -14 13 -34zM602 -486q-9 -16 -33 -10
q-89 30 -166 88q-20 16 -12 36l70 156q11 22 33.5 6t105.5 -62l46 102q12 21 36 4.5t165 -92.5q23 -14 13 -34l-73 -148q-18 -34 -142 40z" />
    <glyph glyph-name="uni069D.init" unicode="&#x69d;" horiz-adv-x="1430" 
d="M129 154q-30 -187 -124 -184q-31 1 -57 41q-51 86 -40.5 140t47.5 63q107 23 154 142q16 43 52.5 42.5t72.5 -45.5q68 -85 234 -136q81 114 133 169q224 227 363 228q76 1 184 -76q86 -61 85.5 -149t-38 -187.5t-61.5 -120.5q-172 -142 -456 -143q-112 1 -237 30
q-17 -53 -20 -127q-2 -49 -44 -35.5t-41.5 62.5t17.5 132q-109 33 -224 154zM1121 262q-135 90 -280 80q-111 -7 -270 -149q104 -4 303.5 14.5t246.5 54.5zM919 -273q9 17 33 10q89 -30 165 -88q20 -17 13 -37l-71 -155q-12 -21 -34.5 -5.5t-120.5 69.5l-50 -110
q-12 -21 -36 -4.5t-164 92.5q-23 13 -13 34l73 148q9 17 33 10q66 -22 124 -59z" />
    <glyph glyph-name="uni069D.medi" unicode="&#x69d;" horiz-adv-x="1480" 
d="M1152 393q-176 108 -345 -2.5t-218 -180.5q131 7 301 57t262 126zM477 -13q-11 -54 -12 -104q-1 -57 -44 -50q-51 9 -40 107q8 77 9 79q-114 32 -207 128q-79 -176 -175 -177q-49 0 -76 55q-58 120 -3 180q10 11 33 10q118 0 204 125q13 19 32 17q17 -2 50 -32
q89 -87 235 -101q88 173 227 314.5t257 170.5q91 19 190.5 -43.5t137.5 -155.5q-6 -150 -51 -253q92 -31 198 -42q47 -4 71 -94q26 -94 10 -126q-11 -23 -36 -25q-156 -19 -424 104q-225 -150 -586 -87zM919 -273q9 17 33 10q89 -30 165 -88q20 -17 13 -37l-71 -155
q-12 -21 -34.5 -5.5t-120.5 69.5l-50 -110q-12 -21 -36 -4.5t-164 92.5q-23 13 -13 34l73 148q9 17 33 10q66 -22 124 -59z" />
    <glyph glyph-name="uni069E.init" unicode="&#x69e;" horiz-adv-x="1430" 
d="M129 154q-30 -187 -124 -184q-31 1 -57 41q-51 86 -40.5 140t47.5 63q107 23 154 142q16 43 52.5 42.5t72.5 -45.5q68 -85 234 -136q81 114 133 169q224 227 363 228q76 1 184 -76q86 -61 85.5 -149t-38 -187.5t-61.5 -120.5q-172 -142 -456 -143q-112 1 -237 30
q-17 -53 -20 -127q-2 -49 -44 -35.5t-41.5 62.5t17.5 132q-109 33 -224 154zM1121 262q-135 90 -280 80q-111 -7 -270 -149q104 -4 303.5 14.5t246.5 54.5zM308 1297q9 17 33 10q89 -30 166 -88q20 -17 13 -37l-71 -155q-12 -21 -36 -4.5t-165 92.5q-23 13 -12 33zM494 1068
q9 17 33 10q89 -30 165 -88q20 -17 13 -37l-71 -155q-11 -22 -33 -6.5t-105 61.5l-46 -102q-12 -21 -36.5 -4.5t-164.5 92.5q-23 13 -13 34l73 148q18 34 142 -39z" />
    <glyph glyph-name="uni069E.medi" unicode="&#x69e;" horiz-adv-x="1480" 
d="M1152 393q-176 108 -345 -2.5t-218 -180.5q131 7 301 57t262 126zM477 -13q-11 -54 -12 -104q-1 -57 -44 -50q-51 9 -40 107q8 77 9 79q-114 32 -207 128q-79 -176 -175 -177q-49 0 -76 55q-58 120 -3 180q10 11 33 10q118 0 204 125q13 19 32 17q17 -2 50 -32
q89 -87 235 -101q88 173 227 314.5t257 170.5q91 19 190.5 -43.5t137.5 -155.5q-6 -150 -51 -253q92 -31 198 -42q47 -4 71 -94q26 -94 10 -126q-11 -23 -36 -25q-156 -19 -424 104q-225 -150 -586 -87zM370 1390q9 17 33 10q89 -30 166 -88q20 -17 13 -37l-71 -155
q-12 -21 -36 -4.5t-165 92.5q-23 13 -12 33zM556 1161q9 17 33 10q89 -30 165 -88q20 -17 13 -37l-71 -155q-11 -22 -33 -6.5t-105 61.5l-46 -102q-12 -21 -36.5 -4.5t-164.5 92.5q-23 13 -13 34l73 148q18 34 142 -39z" />
    <glyph glyph-name="uni069F.init" unicode="&#x69f;" horiz-adv-x="1163" 
d="M185 322q-4 133 -94.5 497.5t-116 434t-25.5 77.5q-2 46 33 134q23 58 65 -10q72 -111 102 -139q53 -50 28 -86l-41 -57q-3 -5 1 -23q99 -409 113.5 -522t19.5 -220q240 233 372 269q163 45 297 -152q23 -34 19 -80q-15 -141 -64.5 -237.5t-178.5 -127.5
q-364 -88 -710 -110q-44 -1 -72.5 59t-28 121t57.5 65q105 4 140 9zM619 439q-154 -3 -364 -201q382 39 576 104q-98 98 -212 97zM416 1403q9 17 33 10q89 -30 166 -88q20 -17 13 -37l-71 -155q-12 -21 -36 -4.5t-165 92.5q-23 13 -12 33zM602 1174q9 17 33 10
q89 -30 165 -88q20 -17 13 -37l-71 -155q-11 -22 -33 -6.5t-105 61.5l-46 -102q-12 -21 -36.5 -4.5t-164.5 92.5q-23 13 -13 34l73 148q18 34 142 -39z" />
    <glyph glyph-name="uni069F.medi" unicode="&#x69f;" horiz-adv-x="1130" 
d="M677 22q-311 -78 -672 -52q-33 2 -65 59q-80 140 -11 177q16 8 33 9l95 1l78 104q-52 306 -240 931q-25 84 -30 95q-16 38 24 162q8 26 30.5 26t39.5 -33q55 -99 104.5 -141t20.5 -90l-27 -45q-9 -14 -4 -28q110 -341 142 -556q14 -89 12 -234q319 349 496 293
q110 -35 191 -160q19 -30 21 -78q3 -137 -91 -234q141 -24 268 -13q54 4 78 -60q58 -146 -13 -178q-13 -6 -22 -7q-190 -15 -458 52zM604 436q-156 33 -417 -213q344 36 563 134q-62 61 -146 79zM355 1403q9 17 33 10q89 -30 166 -88q20 -17 13 -37l-71 -155
q-12 -21 -36 -4.5t-165 92.5q-23 13 -12 33zM541 1174q9 17 33 10q89 -30 165 -88q20 -17 13 -37l-71 -155q-11 -22 -33 -6.5t-105 61.5l-46 -102q-12 -21 -36.5 -4.5t-164.5 92.5q-23 13 -13 34l73 148q18 34 142 -39z" />
    <glyph glyph-name="uni06A0.init" unicode="&#x6a0;" horiz-adv-x="978" 
d="M777 508l-12 -165q-2 -27 -43 -45.5l-278 -120.5l-440 -207q-68 0 -108 100.5t54 142.5l112 51q-126 93 -118 223q16 276 227 384q53 27 140 -11t183 -122q51 -45 43 -71.5t-102.5 -1t-221.5 -4.5t-154 -121q-8 -25 72 -85q198 -148 489 58l67 47q99 71 90 -52zM-61 1503
q9 17 33 10q89 -30 166 -88q20 -17 13 -37l-71 -155q-12 -21 -36 -4.5t-165 92.5q-23 13 -12 33zM125 1274q9 17 33 10q89 -30 165 -88q20 -17 13 -37l-71 -155q-11 -22 -33 -6.5t-105 61.5l-46 -102q-12 -21 -36.5 -4.5t-164.5 92.5q-23 13 -13 34l73 148q18 34 142 -39z
" />
    <glyph glyph-name="uni06A0.medi" unicode="&#x6a0;" horiz-adv-x="750" 
d="M712 215q77 -1 101 -64q8 -21 10 -43q4 -138 -66 -138q-211 1 -420 208q-199 -208 -333 -208q-73 0 -108.5 102.5t23.5 132.5q18 9 42 10q131 4 212 57q-44 31 -178 49q-44 6 -45 58q0 84 87 163q166 148 428 12q133 -71 128 -150q-4 -76 -115 -148q73 -39 234 -41z
M-85 1403q9 17 33 10q89 -30 166 -88q20 -17 13 -37l-71 -155q-12 -21 -36 -4.5t-165 92.5q-23 13 -12 33zM101 1174q9 17 33 10q89 -30 165 -88q20 -17 13 -37l-71 -155q-11 -22 -33 -6.5t-105 61.5l-46 -102q-12 -21 -36.5 -4.5t-164.5 92.5q-23 13 -13 34l73 148
q18 34 142 -39z" />
    <glyph glyph-name="uni06A1.init" unicode="&#x6a1;" horiz-adv-x="605" 
d="M42 656q-47 0 -37 -91q32 -10 79.5 -5t55.5 24q-59 72 -98 72zM49 908q62 0 110 -41q192 -165 242 -449q29 -164 -16 -242q-128 -211 -379 -206q-50 0 -77 62q-26 62 -22 120q4 60 53 63q255 18 354 128q-19 69 -30 79q-16 15 -26 -10q-27 -69 -86 -83q-193 -48 -233 106
q-46 178 -5 325.5t115 147.5z" />
    <glyph glyph-name="uni06A1.medi" unicode="&#x6a1;" horiz-adv-x="775" 
d="M437 806q23 -1 37 -8q67 -38 101 -133q57 -166 16 -310q-15 -52 -36 -103q107 -33 183 -37q45 -2 70 -94t11 -126q-10 -22 -36 -25q-170 -17 -447 114q-68 -34 -178.5 -73.5t-155.5 -40.5t-70 59.5t-22.5 119t48.5 66.5q97 15 181 43q-23 88 -4 184q36 178 186 310
q63 54 116 54zM389 530q-110 3 -163 -93q114 -172 265 -42q-22 132 -102 135z" />
    <glyph glyph-name="uni06A2.init" unicode="&#x6a2;" horiz-adv-x="605" 
d="M42 656q-47 0 -37 -91q32 -10 79.5 -5t55.5 24q-59 72 -98 72zM49 908q62 0 110 -41q192 -165 242 -449q29 -164 -16 -242q-128 -211 -379 -206q-50 0 -77 62q-26 62 -22 120q4 60 53 63q255 18 354 128q-19 69 -30 79q-16 15 -26 -10q-27 -69 -86 -83q-193 -48 -233 106
q-46 178 -5 325.5t115 147.5zM285 -172q9 17 33 10q89 -30 165 -88q20 -17 13 -37l-71 -155q-12 -21 -36 -4.5t-164 92.5q-23 13 -13 34z" />
    <glyph glyph-name="uni06A2.medi" unicode="&#x6a2;" horiz-adv-x="775" 
d="M437 806q23 -1 37 -8q67 -38 101 -133q57 -166 16 -310q-15 -52 -36 -103q107 -33 183 -37q45 -2 70 -94t11 -126q-10 -22 -36 -25q-170 -17 -447 114q-68 -34 -178.5 -73.5t-155.5 -40.5t-70 59.5t-22.5 119t48.5 66.5q97 15 181 43q-23 88 -4 184q36 178 186 310
q63 54 116 54zM389 530q-110 3 -163 -93q114 -172 265 -42q-22 132 -102 135zM355 -172q9 17 33 10q89 -30 165 -88q20 -17 13 -37l-71 -155q-12 -21 -36 -4.5t-164 92.5q-23 13 -13 34z" />
    <glyph glyph-name="uni06A3.init" unicode="&#x6a3;" horiz-adv-x="605" 
d="M42 656q-47 0 -37 -91q32 -10 79.5 -5t55.5 24q-59 72 -98 72zM49 908q62 0 110 -41q192 -165 242 -449q29 -164 -16 -242q-128 -211 -379 -206q-50 0 -77 62q-26 62 -22 120q4 60 53 63q255 18 354 128q-19 69 -30 79q-16 15 -26 -10q-27 -69 -86 -83q-193 -48 -233 106
q-46 178 -5 325.5t115 147.5zM-111 1278q9 17 33 10q89 -30 165 -88q20 -17 13 -37l-71 -155q-12 -21 -36 -4.5t-164 92.5q-23 13 -13 34zM285 -172q9 17 33 10q89 -30 165 -88q20 -17 13 -37l-71 -155q-12 -21 -36 -4.5t-164 92.5q-23 13 -13 34z" />
    <glyph glyph-name="uni06A3.medi" unicode="&#x6a3;" horiz-adv-x="775" 
d="M437 806q23 -1 37 -8q67 -38 101 -133q57 -166 16 -310q-15 -52 -36 -103q107 -33 183 -37q45 -2 70 -94t11 -126q-10 -22 -36 -25q-170 -17 -447 114q-68 -34 -178.5 -73.5t-155.5 -40.5t-70 59.5t-22.5 119t48.5 66.5q97 15 181 43q-23 88 -4 184q36 178 186 310
q63 54 116 54zM389 530q-110 3 -163 -93q114 -172 265 -42q-22 132 -102 135zM205 1328q9 17 33 10q89 -30 165 -88q20 -17 13 -37l-71 -155q-12 -21 -36 -4.5t-164 92.5q-23 13 -13 34zM355 -172q9 17 33 10q89 -30 165 -88q20 -17 13 -37l-71 -155q-12 -21 -36 -4.5
t-164 92.5q-23 13 -13 34z" />
    <glyph glyph-name="afii57505.init" unicode="&#x6a4;" horiz-adv-x="605" arabic-form="initial" 
d="M42 656q-47 0 -37 -91q32 -10 79.5 -5t55.5 24q-59 72 -98 72zM49 908q62 0 110 -41q192 -165 242 -449q29 -164 -16 -242q-128 -211 -379 -206q-50 0 -77 62q-26 62 -22 120q4 60 53 63q255 18 354 128q-19 69 -30 79q-16 15 -26 -10q-27 -69 -86 -83q-193 -48 -233 106
q-46 178 -5 325.5t115 147.5zM-140 1553q9 17 33 10q89 -30 166 -88q20 -17 13 -37l-71 -155q-12 -21 -36 -4.5t-165 92.5q-23 13 -12 33zM46 1324q9 17 33 10q89 -30 165 -88q20 -17 13 -37l-71 -155q-11 -22 -33 -6.5t-105 61.5l-46 -102q-12 -21 -36.5 -4.5t-164.5 92.5
q-23 13 -13 34l73 148q18 34 142 -39z" />
    <glyph glyph-name="afii57505.medi" unicode="&#x6a4;" horiz-adv-x="775" arabic-form="medial" 
d="M437 806q23 -1 37 -8q67 -38 101 -133q57 -166 16 -310q-15 -52 -36 -103q107 -33 183 -37q45 -2 70 -94t11 -126q-10 -22 -36 -25q-170 -17 -447 114q-68 -34 -178.5 -73.5t-155.5 -40.5t-70 59.5t-22.5 119t48.5 66.5q97 15 181 43q-23 88 -4 184q36 178 186 310
q63 54 116 54zM389 530q-110 3 -163 -93q114 -172 265 -42q-22 132 -102 135zM31 1603q9 17 33 10q89 -30 166 -88q20 -17 13 -37l-71 -155q-12 -21 -36 -4.5t-165 92.5q-23 13 -12 33zM217 1374q9 17 33 10q89 -30 165 -88q20 -17 13 -37l-71 -155q-11 -22 -33 -6.5
t-105 61.5l-46 -102q-12 -21 -36.5 -4.5t-164.5 92.5q-23 13 -13 34l73 148q18 34 142 -39z" />
    <glyph glyph-name="uni06A5.init" unicode="&#x6a5;" horiz-adv-x="605" 
d="M42 656q-47 0 -37 -91q32 -10 79.5 -5t55.5 24q-59 72 -98 72zM49 908q62 0 110 -41q192 -165 242 -449q29 -164 -16 -242q-128 -211 -379 -206q-50 0 -77 62q-26 62 -22 120q4 60 53 63q255 18 354 128q-19 69 -30 79q-16 15 -26 -10q-27 -69 -86 -83q-193 -48 -233 106
q-46 178 -5 325.5t115 147.5zM535 -712q-9 -16 -33 -10q-89 30 -166 88q-20 16 -12 36l70 156q12 21 36 4.5t165 -92.5q23 -14 13 -34zM352 -486q-9 -16 -33 -10q-89 30 -166 88q-20 16 -12 36l70 156q11 22 33.5 6t105.5 -62l46 102q12 21 36 4.5t165 -92.5q23 -14 13 -34
l-73 -148q-18 -34 -142 40z" />
    <glyph glyph-name="uni06A5.medi" unicode="&#x6a5;" horiz-adv-x="775" 
d="M437 806q23 -1 37 -8q67 -38 101 -133q57 -166 16 -310q-15 -52 -36 -103q107 -33 183 -37q45 -2 70 -94t11 -126q-10 -22 -36 -25q-170 -17 -447 114q-68 -34 -178.5 -73.5t-155.5 -40.5t-70 59.5t-22.5 119t48.5 66.5q97 15 181 43q-23 88 -4 184q36 178 186 310
q63 54 116 54zM389 530q-110 3 -163 -93q114 -172 265 -42q-22 132 -102 135zM605 -712q-9 -16 -33 -10q-89 30 -166 88q-20 16 -12 36l70 156q12 21 36 4.5t165 -92.5q23 -14 13 -34zM422 -486q-9 -16 -33 -10q-89 30 -166 88q-20 16 -12 36l70 156q11 22 33.5 6t105.5 -62
l46 102q12 21 36 4.5t165 -92.5q23 -14 13 -34l-73 -148q-18 -34 -142 40z" />
    <glyph glyph-name="uni06A6.init" unicode="&#x6a6;" horiz-adv-x="605" arabic-form="initial" 
d="M42 656q-47 0 -37 -91q32 -10 79.5 -5t55.5 24q-59 72 -98 72zM49 908q62 0 110 -41q192 -165 242 -449q29 -164 -16 -242q-128 -211 -379 -206q-50 0 -77 62q-26 62 -22 120q4 60 53 63q255 18 354 128q-19 69 -30 79q-16 15 -26 -10q-27 -69 -86 -83q-193 -48 -233 106
q-46 178 -5 325.5t115 147.5zM-19 1564q9 17 34 10q89 -30 165 -88q20 -17 13 -37l-61 -132q64 -28 120 -71q20 -17 13 -37l-71 -155q-12 -21 -34.5 -5.5t-120.5 69.5l-50 -110q-12 -21 -36 -4.5t-164 92.5q-23 13 -13 34l67 136l-126 70q-23 13 -13 34l72 148q9 17 34 10
q66 -22 124 -59zM-73 1271q41 -18 79 -42l42 84q-30 18 -81 45z" />
    <glyph glyph-name="uni06A6.medi" unicode="&#x6a6;" horiz-adv-x="775" arabic-form="medial" 
d="M437 806q23 -1 37 -8q67 -38 101 -133q57 -166 16 -310q-15 -52 -36 -103q107 -33 183 -37q45 -2 70 -94t11 -126q-10 -22 -36 -25q-170 -17 -447 114q-68 -34 -178.5 -73.5t-155.5 -40.5t-70 59.5t-22.5 119t48.5 66.5q97 15 181 43q-23 88 -4 184q36 178 186 310
q63 54 116 54zM389 530q-110 3 -163 -93q114 -172 265 -42q-22 132 -102 135zM152 1614q9 17 34 10q89 -30 165 -88q20 -17 13 -37l-61 -132q64 -28 120 -71q20 -17 13 -37l-71 -155q-12 -21 -34.5 -5.5t-120.5 69.5l-50 -110q-12 -21 -36 -4.5t-164 92.5q-23 13 -13 34
l67 136l-126 70q-23 13 -13 34l72 148q9 17 34 10q66 -22 124 -59zM98 1321q41 -18 79 -42l42 84q-30 18 -81 45z" />
    <glyph glyph-name="uni06A7.init" unicode="&#x6a7;" horiz-adv-x="605" 
d="M42 656q-47 0 -37 -91q32 -10 79.5 -5t55.5 24q-59 72 -98 72zM49 908q62 0 110 -41q192 -165 242 -449q29 -164 -16 -242q-128 -211 -379 -206q-50 0 -77 62q-26 62 -22 120q4 60 53 63q255 18 354 128q-19 69 -30 79q-16 15 -26 -10q-27 -69 -86 -83q-193 -48 -233 106
q-46 178 -5 325.5t115 147.5zM-111 1278q9 17 33 10q89 -30 165 -88q20 -17 13 -37l-71 -155q-12 -21 -36 -4.5t-164 92.5q-23 13 -13 34z" />
    <glyph glyph-name="uni06A7.medi" unicode="&#x6a7;" horiz-adv-x="775" 
d="M437 806q23 -1 37 -8q67 -38 101 -133q57 -166 16 -310q-15 -52 -36 -103q107 -33 183 -37q45 -2 70 -94t11 -126q-10 -22 -36 -25q-170 -17 -447 114q-68 -34 -178.5 -73.5t-155.5 -40.5t-70 59.5t-22.5 119t48.5 66.5q97 15 181 43q-23 88 -4 184q36 178 186 310
q63 54 116 54zM389 530q-110 3 -163 -93q114 -172 265 -42q-22 132 -102 135zM205 1328q9 17 33 10q89 -30 165 -88q20 -17 13 -37l-71 -155q-12 -21 -36 -4.5t-164 92.5q-23 13 -13 34z" />
    <glyph glyph-name="uni06A8.init" unicode="&#x6a8;" horiz-adv-x="605" 
d="M42 656q-47 0 -37 -91q32 -10 79.5 -5t55.5 24q-59 72 -98 72zM49 908q62 0 110 -41q192 -165 242 -449q29 -164 -16 -242q-128 -211 -379 -206q-50 0 -77 62q-26 62 -22 120q4 60 53 63q255 18 354 128q-19 69 -30 79q-16 15 -26 -10q-27 -69 -86 -83q-193 -48 -233 106
q-46 178 -5 325.5t115 147.5zM-140 1553q9 17 33 10q89 -30 166 -88q20 -17 13 -37l-71 -155q-12 -21 -36 -4.5t-165 92.5q-23 13 -12 33zM46 1324q9 17 33 10q89 -30 165 -88q20 -17 13 -37l-71 -155q-11 -22 -33 -6.5t-105 61.5l-46 -102q-12 -21 -36.5 -4.5t-164.5 92.5
q-23 13 -13 34l73 148q18 34 142 -39z" />
    <glyph glyph-name="uni06A8.medi" unicode="&#x6a8;" horiz-adv-x="775" 
d="M437 806q23 -1 37 -8q67 -38 101 -133q57 -166 16 -310q-15 -52 -36 -103q107 -33 183 -37q45 -2 70 -94t11 -126q-10 -22 -36 -25q-170 -17 -447 114q-68 -34 -178.5 -73.5t-155.5 -40.5t-70 59.5t-22.5 119t48.5 66.5q97 15 181 43q-23 88 -4 184q36 178 186 310
q63 54 116 54zM389 530q-110 3 -163 -93q114 -172 265 -42q-22 132 -102 135zM31 1603q9 17 33 10q89 -30 166 -88q20 -17 13 -37l-71 -155q-12 -21 -36 -4.5t-165 92.5q-23 13 -12 33zM217 1374q9 17 33 10q89 -30 165 -88q20 -17 13 -37l-71 -155q-11 -22 -33 -6.5
t-105 61.5l-46 -102q-12 -21 -36.5 -4.5t-164.5 92.5q-23 13 -13 34l73 148q18 34 142 -39z" />
    <glyph glyph-name="uni06A9.init" unicode="&#x6a9;" horiz-adv-x="1350" arabic-form="initial" 
d="M-34 215q334 -44 484 124q-227 247 -447 326q-53 19 -85 171q-32 154 31 225q261 282 967 507q50 16 45 -35l-18 -180q-4 -45 -37 -57q-744 -277 -914 -413q469 -230 522 -530q55 -310 -145 -362q-213 -55 -385 -24q-50 9 -69 71q-28 93 -26 111q8 75 77 66z" />
    <glyph glyph-name="uni06A9.medi" unicode="&#x6a9;" horiz-adv-x="1206" arabic-form="medial" 
d="M-108 122q-17 99 97 90q322 -26 471 133q-69 149 -485 341q-52 68 -73 197q-14 85 5 119q180 354 908 693q64 30 59 -49l-11 -178q-2 -32 -34 -49q-609 -331 -822 -544q402 -162 783 -461q238 -186 379 -200q115 -12 90 -188q-8 -57 -51 -57q-170 1 -499 293
q-111 99 -190 152q13 -78 14 -114q10 -344 -428 -343q-75 0 -121 10q-67 15 -92 155z" />
    <glyph glyph-name="uni06AA.init" unicode="&#x6aa;" horiz-adv-x="3346" 
d="M-36 215q622 -50 1479 10q556 39 1560 150q-80 104 -212 117q-176 18 -534 -17t-893 -76t-999 4q-213 21 -271 110q-27 42 -15 88q38 128 92 190q320 374 825 525q78 23 75 -53l-4 -147q-1 -36 -39 -47q-259 -78 -487 -188t-335 -221q150 -57 643 -56t1089 62.5t827 56.5
q123 -3 232.5 -90t146.5 -224q14 -49 -42.5 -162t-122.5 -118q-377 -30 -881 -80.5t-678 -62.5q-898 -62 -1417 -17q-58 5 -88 64t-21 123t70 59z" />
    <glyph glyph-name="uni06AA.medi" unicode="&#x6aa;" horiz-adv-x="3320" 
d="M-36 215q645 -37 1433 40.5t1553 188.5q-86 105 -185 114q-176 14 -581 -35.5t-894.5 -97t-936.5 -22.5q-246 14 -314 114q-28 43 -16 88q32 120 86 191q273 356 850 548q57 15 74 -36q3 -9 3 -16l-2 -148q-3 -35 -37 -48q-257 -84 -459.5 -196.5t-319.5 -234.5
q152 -54 628 -40.5t1066.5 88t821.5 76.5q150 0 264 -85q114 -87 151 -222q17 -60 -55 -191q-2 -50 30 -61q31 -11 159 -15q63 -2 88 -72q18 -54 9 -113t-55 -60q-155 0 -215 14q-115 26 -150 121q-14 40 -12 87q-725 -98 -1548 -175.5t-1396 -46.5q-58 4 -93 66
q-54 97 -1 157q21 24 54 22z" />
    <glyph glyph-name="uni06AB.init" unicode="&#x6ab;" horiz-adv-x="1350" 
d="M-34 215q334 -44 484 124q-227 247 -447 326q-53 19 -85 171q-32 154 31 225q261 282 967 507q50 16 45 -35l-18 -180q-4 -45 -37 -57q-744 -277 -914 -413q469 -230 522 -530q55 -310 -145 -362q-213 -55 -385 -24q-50 9 -69 71q-28 93 -26 111q8 75 77 66zM434 869
q-132 12 -143.5 162t53.5 207t162 -16q67 -51 85 -141t7 -125q-31 -98 -164 -87zM542 1019q-50 122 -124 125q-46 2 -63 -30t-2 -77.5t82.5 -51.5t100.5 22q7 6 6 12z" />
    <glyph glyph-name="uni06AB.medi" unicode="&#x6ab;" horiz-adv-x="1206" 
d="M-108 122q-17 99 97 90q322 -26 471 133q-69 149 -485 341q-52 68 -73 197q-14 85 5 119q180 354 908 693q64 30 59 -49l-11 -178q-2 -32 -34 -49q-609 -331 -822 -544q402 -162 783 -461q238 -186 379 -200q115 -12 90 -188q-8 -57 -51 -57q-170 1 -499 293
q-111 99 -190 152q13 -78 14 -114q10 -344 -428 -343q-75 0 -121 10q-67 15 -92 155zM446 976q-132 12 -143.5 162t53.5 207t162 -16q67 -51 85 -141t7 -125q-31 -98 -164 -87zM554 1126q-50 122 -124 125q-46 2 -63 -30t-2 -77.5t82.5 -51.5t100.5 22q7 6 6 12z" />
    <glyph glyph-name="uni06AC.init" unicode="&#x6ac;" horiz-adv-x="1350" 
d="M-34 215q334 -44 484 124q-227 247 -447 326q-53 19 -85 171q-32 154 31 225q261 282 967 507q50 16 45 -35l-18 -180q-4 -45 -37 -57q-744 -277 -914 -413q469 -230 522 -530q55 -310 -145 -362q-213 -55 -385 -24q-50 9 -69 71q-28 93 -26 111q8 75 77 66zM-38 1554
q9 17 33 10q89 -30 165 -88q20 -17 13 -37l-71 -155q-12 -21 -36 -4.5t-164 92.5q-23 13 -13 34z" />
    <glyph glyph-name="uni06AC.medi" unicode="&#x6ac;" horiz-adv-x="1206" 
d="M-108 122q-17 99 97 90q322 -26 471 133q-69 149 -485 341q-52 68 -73 197q-14 85 5 119q180 354 908 693q64 30 59 -49l-11 -178q-2 -32 -34 -49q-609 -331 -822 -544q402 -162 783 -461q238 -186 379 -200q115 -12 90 -188q-8 -57 -51 -57q-170 1 -499 293
q-111 99 -190 152q13 -78 14 -114q10 -344 -428 -343q-75 0 -121 10q-67 15 -92 155zM-109 1578q9 17 33 10q89 -30 165 -88q20 -17 13 -37l-71 -155q-12 -21 -36 -4.5t-164 92.5q-23 13 -13 34z" />
    <glyph glyph-name="uni06AD.init" unicode="&#x6ad;" horiz-adv-x="1350" arabic-form="initial" 
d="M-34 215q334 -44 484 124q-227 247 -447 326q-53 19 -85 171q-32 154 31 225q261 282 967 507q50 16 45 -35l-18 -180q-4 -45 -37 -57q-744 -277 -914 -413q469 -230 522 -530q55 -310 -145 -362q-213 -55 -385 -24q-50 9 -69 71q-28 93 -26 111q8 75 77 66zM-137 1829
q9 17 33 10q89 -30 166 -88q20 -17 13 -37l-71 -155q-12 -21 -36 -4.5t-165 92.5q-23 13 -12 33zM49 1600q9 17 33 10q89 -30 165 -88q20 -17 13 -37l-71 -155q-11 -22 -33 -6.5t-105 61.5l-46 -102q-12 -21 -36.5 -4.5t-164.5 92.5q-23 13 -13 34l73 148q18 34 142 -39z
" />
    <glyph glyph-name="uni06AD.medi" unicode="&#x6ad;" horiz-adv-x="1206" arabic-form="medial" 
d="M-108 122q-17 99 97 90q322 -26 471 133q-69 149 -485 341q-52 68 -73 197q-14 85 5 119q180 354 908 693q64 30 59 -49l-11 -178q-2 -32 -34 -49q-609 -331 -822 -544q402 -162 783 -461q238 -186 379 -200q115 -12 90 -188q-8 -57 -51 -57q-170 1 -499 293
q-111 99 -190 152q13 -78 14 -114q10 -344 -428 -343q-75 0 -121 10q-67 15 -92 155zM-208 1853q9 17 33 10q89 -30 166 -88q20 -17 13 -37l-71 -155q-12 -21 -36 -4.5t-165 92.5q-23 13 -12 33zM-22 1624q9 17 33 10q89 -30 165 -88q20 -17 13 -37l-71 -155
q-11 -22 -33 -6.5t-105 61.5l-46 -102q-12 -21 -36.5 -4.5t-164.5 92.5q-23 13 -13 34l73 148q18 34 142 -39z" />
    <glyph glyph-name="uni06AE.init" unicode="&#x6ae;" horiz-adv-x="1350" 
d="M-34 215q334 -44 484 124q-227 247 -447 326q-53 19 -85 171q-32 154 31 225q261 282 967 507q50 16 45 -35l-18 -180q-4 -45 -37 -57q-744 -277 -914 -413q469 -230 522 -530q55 -310 -145 -362q-213 -55 -385 -24q-50 9 -69 71q-28 93 -26 111q8 75 77 66zM471 -576
q-9 -16 -33 -10q-89 30 -166 88q-20 16 -12 36l70 156q12 21 36 4.5t165 -92.5q23 -14 13 -34zM288 -350q-9 -16 -33 -10q-89 30 -166 88q-20 16 -12 36l70 156q11 22 33.5 6t105.5 -62l46 102q12 21 36 4.5t165 -92.5q23 -14 13 -34l-73 -148q-18 -34 -142 40z" />
    <glyph glyph-name="uni06AE.medi" unicode="&#x6ae;" horiz-adv-x="1206" 
d="M-108 122q-17 99 97 90q322 -26 471 133q-69 149 -485 341q-52 68 -73 197q-14 85 5 119q180 354 908 693q64 30 59 -49l-11 -178q-2 -32 -34 -49q-609 -331 -822 -544q402 -162 783 -461q238 -186 379 -200q115 -12 90 -188q-8 -57 -51 -57q-170 1 -499 293
q-111 99 -190 152q13 -78 14 -114q10 -344 -428 -343q-75 0 -121 10q-67 15 -92 155zM966 -612q-9 -16 -33 -10q-89 30 -166 88q-20 16 -12 36l70 156q12 21 36 4.5t165 -92.5q23 -14 13 -34zM783 -386q-9 -16 -33 -10q-89 30 -166 88q-20 16 -12 36l70 156q11 22 33.5 6
t105.5 -62l46 102q12 21 36 4.5t165 -92.5q23 -14 13 -34l-73 -148q-18 -34 -142 40z" />
    <glyph glyph-name="afii57509.init" unicode="&#x6af;" horiz-adv-x="1350" arabic-form="initial" 
d="M-34 215q334 -44 484 124q-227 247 -447 326q-53 19 -85 171q-32 154 31 225q261 282 967 507q50 16 45 -35l-18 -180q-4 -45 -37 -57q-744 -277 -914 -413q469 -230 522 -530q55 -310 -145 -362q-213 -55 -385 -24q-50 9 -69 71q-28 93 -26 111q8 75 77 66zM4 1284
q-24 -11 -43 0q-38 22 -16 64q45 87 95 113q318 165 854 331q19 7 46 -16t-13 -81q-11 -16 -13 -20q-39 -57 -79 -69q-349 -98 -831 -322z" />
    <glyph glyph-name="afii57509.medi" unicode="&#x6af;" horiz-adv-x="1206" arabic-form="medial" 
d="M-108 122q-17 99 97 90q322 -26 471 133q-69 149 -485 341q-52 68 -73 197q-14 85 5 119q180 354 908 693q64 30 59 -49l-11 -178q-2 -32 -34 -49q-609 -331 -822 -544q402 -162 783 -461q238 -186 379 -200q115 -12 90 -188q-8 -57 -51 -57q-170 1 -499 293
q-111 99 -190 152q13 -78 14 -114q10 -344 -428 -343q-75 0 -121 10q-67 15 -92 155zM-3 1362q-20 -13 -40 -6q-42 16 -25 63q33 94 81 127q292 202 796 426q19 8 47 -12q28 -21 -5 -84q-8 -15 -10 -20q-32 -62 -69 -79q-330 -137 -775 -415z" />
    <glyph glyph-name="uni06B0.init" unicode="&#x6b0;" horiz-adv-x="1350" 
d="M-34 215q334 -44 484 124q-227 247 -447 326q-53 19 -85 171q-32 154 31 225q261 282 967 507q50 16 45 -35l-18 -180q-4 -45 -37 -57q-744 -277 -914 -413q469 -230 522 -530q55 -310 -145 -362q-213 -55 -385 -24q-50 9 -69 71q-28 93 -26 111q8 75 77 66zM4 1284
q-24 -11 -43 0q-38 22 -16 64q45 87 95 113q318 165 854 331q19 7 46 -16t-13 -81q-11 -16 -13 -20q-39 -57 -79 -69q-349 -98 -831 -322zM434 869q-132 12 -143.5 162t53.5 207t162 -16q67 -51 85 -141t7 -125q-31 -98 -164 -87zM542 1019q-50 122 -124 125q-46 2 -63 -30
t-2 -77.5t82.5 -51.5t100.5 22q7 6 6 12z" />
    <glyph glyph-name="uni06B0.medi" unicode="&#x6b0;" horiz-adv-x="1206" 
d="M-108 122q-17 99 97 90q322 -26 471 133q-69 149 -485 341q-52 68 -73 197q-14 85 5 119q180 354 908 693q64 30 59 -49l-11 -178q-2 -32 -34 -49q-609 -331 -822 -544q402 -162 783 -461q238 -186 379 -200q115 -12 90 -188q-8 -57 -51 -57q-170 1 -499 293
q-111 99 -190 152q13 -78 14 -114q10 -344 -428 -343q-75 0 -121 10q-67 15 -92 155zM446 976q-132 12 -143.5 162t53.5 207t162 -16q67 -51 85 -141t7 -125q-31 -98 -164 -87zM554 1126q-50 122 -124 125q-46 2 -63 -30t-2 -77.5t82.5 -51.5t100.5 22q7 6 6 12zM-3 1362
q-20 -13 -40 -6q-42 16 -25 63q33 94 81 127q292 202 796 426q19 8 47 -12q28 -21 -5 -84q-8 -15 -10 -20q-32 -62 -69 -79q-330 -137 -775 -415z" />
    <glyph glyph-name="uni06B1.init" unicode="&#x6b1;" horiz-adv-x="1350" arabic-form="initial" 
d="M-34 215q334 -44 484 124q-227 247 -447 326q-53 19 -85 171q-32 154 31 225q261 282 967 507q50 16 45 -35l-18 -180q-4 -45 -37 -57q-744 -277 -914 -413q469 -230 522 -530q55 -310 -145 -362q-213 -55 -385 -24q-50 9 -69 71q-28 93 -26 111q8 75 77 66zM-129 1600
q9 17 33 10q89 -30 165 -88q20 -17 13 -37l-71 -155q-12 -21 -34.5 -5.5t-120.5 69.5l-50 -110q-12 -21 -36 -4.5t-164 92.5q-23 13 -13 34l73 148q9 17 33 10q66 -22 124 -59zM97 1324q-24 -11 -43 0q-38 22 -16 64q45 87 95 113q318 165 854 331q19 7 46 -16t-13 -81
q-11 -16 -13 -20q-39 -57 -79 -69q-349 -98 -831 -322z" />
    <glyph glyph-name="uni06B1.medi" unicode="&#x6b1;" horiz-adv-x="1206" arabic-form="medial" 
d="M-108 122q-17 99 97 90q322 -26 471 133q-69 149 -485 341q-52 68 -73 197q-14 85 5 119q180 354 908 693q64 30 59 -49l-11 -178q-2 -32 -34 -49q-609 -331 -822 -544q402 -162 783 -461q238 -186 379 -200q115 -12 90 -188q-8 -57 -51 -57q-170 1 -499 293
q-111 99 -190 152q13 -78 14 -114q10 -344 -428 -343q-75 0 -121 10q-67 15 -92 155zM-133 1624q9 17 33 10q89 -30 165 -88q20 -17 13 -37l-71 -155q-12 -21 -34.5 -5.5t-120.5 69.5l-50 -110q-12 -21 -36 -4.5t-164 92.5q-23 13 -13 34l73 148q9 17 33 10q66 -22 124 -59z
M98 1411q-20 -13 -40 -6q-42 16 -25 63q33 94 81 127q292 202 796 426q19 8 47 -12q28 -21 -5 -84q-8 -15 -10 -20q-32 -62 -69 -79q-330 -137 -775 -415z" />
    <glyph glyph-name="uni06B2.init" unicode="&#x6b2;" horiz-adv-x="1350" 
d="M-34 215q334 -44 484 124q-227 247 -447 326q-53 19 -85 171q-32 154 31 225q261 282 967 507q50 16 45 -35l-18 -180q-4 -45 -37 -57q-744 -277 -914 -413q469 -230 522 -530q55 -310 -145 -362q-213 -55 -385 -24q-50 9 -69 71q-28 93 -26 111q8 75 77 66zM4 1284
q-24 -11 -43 0q-38 22 -16 64q45 87 95 113q318 165 854 331q19 7 46 -16t-13 -81q-11 -16 -13 -20q-39 -57 -79 -69q-349 -98 -831 -322zM338 -37q9 17 33 10q89 -30 165 -88q20 -17 13 -37l-71 -155q-12 -21 -34.5 -5.5t-120.5 69.5l-50 -110q-12 -21 -36 -4.5t-164 92.5
q-23 13 -13 34l73 148q9 17 33 10q66 -22 124 -59z" />
    <glyph glyph-name="uni06B2.medi" unicode="&#x6b2;" horiz-adv-x="1206" 
d="M-108 122q-17 99 97 90q322 -26 471 133q-69 149 -485 341q-52 68 -73 197q-14 85 5 119q180 354 908 693q64 30 59 -49l-11 -178q-2 -32 -34 -49q-609 -331 -822 -544q402 -162 783 -461q238 -186 379 -200q115 -12 90 -188q-8 -57 -51 -57q-170 1 -499 293
q-111 99 -190 152q13 -78 14 -114q10 -344 -428 -343q-75 0 -121 10q-67 15 -92 155zM833 -73q9 17 33 10q89 -30 165 -88q20 -17 13 -37l-71 -155q-12 -21 -34.5 -5.5t-120.5 69.5l-50 -110q-12 -21 -36 -4.5t-164 92.5q-23 13 -13 34l73 148q9 17 33 10q66 -22 124 -59z
M-3 1362q-20 -13 -40 -6q-42 16 -25 63q33 94 81 127q292 202 796 426q19 8 47 -12q28 -21 -5 -84q-8 -15 -10 -20q-32 -62 -69 -79q-330 -137 -775 -415z" />
    <glyph glyph-name="uni06B3.init" unicode="&#x6b3;" horiz-adv-x="1350" arabic-form="initial" 
d="M-34 215q334 -44 484 124q-227 247 -447 326q-53 19 -85 171q-32 154 31 225q261 282 967 507q50 16 45 -35l-18 -180q-4 -45 -37 -57q-744 -277 -914 -413q469 -230 522 -530q55 -310 -145 -362q-213 -55 -385 -24q-50 9 -69 71q-28 93 -26 111q8 75 77 66zM4 1284
q-24 -11 -43 0q-38 22 -16 64q45 87 95 113q318 165 854 331q19 7 46 -16t-13 -81q-11 -16 -13 -20q-39 -57 -79 -69q-349 -98 -831 -322zM231 -36q9 17 33 10q89 -30 166 -88q20 -17 13 -37l-41 -91q54 -26 101 -62q20 -17 13 -37l-71 -155q-12 -21 -36 -4.5t-164 92.5
q-23 13 -13 34l48 97l-109 59q-23 13 -13 34z" />
    <glyph glyph-name="uni06B3.medi" unicode="&#x6b3;" horiz-adv-x="1206" arabic-form="medial" 
d="M-108 122q-17 99 97 90q322 -26 471 133q-69 149 -485 341q-52 68 -73 197q-14 85 5 119q180 354 908 693q64 30 59 -49l-11 -178q-2 -32 -34 -49q-609 -331 -822 -544q402 -162 783 -461q238 -186 379 -200q115 -12 90 -188q-8 -57 -51 -57q-170 1 -499 293
q-111 99 -190 152q13 -78 14 -114q10 -344 -428 -343q-75 0 -121 10q-67 15 -92 155zM726 -72q9 17 33 10q89 -30 166 -88q20 -17 13 -37l-41 -91q54 -26 101 -62q20 -17 13 -37l-71 -155q-12 -21 -36 -4.5t-164 92.5q-23 13 -13 34l48 97l-109 59q-23 13 -13 34zM-3 1362
q-20 -13 -40 -6q-42 16 -25 63q33 94 81 127q292 202 796 426q19 8 47 -12q28 -21 -5 -84q-8 -15 -10 -20q-32 -62 -69 -79q-330 -137 -775 -415z" />
    <glyph glyph-name="uni06B4.init" unicode="&#x6b4;" horiz-adv-x="1350" 
d="M-34 215q334 -44 484 124q-227 247 -447 326q-53 19 -85 171q-32 154 31 225q261 282 967 507q50 16 45 -35l-18 -180q-4 -45 -37 -57q-744 -277 -914 -413q469 -230 522 -530q55 -310 -145 -362q-213 -55 -385 -24q-50 9 -69 71q-28 93 -26 111q8 75 77 66zM97 1324
q-24 -11 -43 0q-38 22 -16 64q45 87 95 113q318 165 854 331q19 7 46 -16t-13 -81q-11 -16 -13 -20q-39 -57 -79 -69q-349 -98 -831 -322zM-318 1829q9 17 33 10q89 -30 166 -88q20 -17 13 -37l-71 -155q-12 -21 -36 -4.5t-165 92.5q-23 13 -12 33zM-132 1600q9 17 33 10
q89 -30 165 -88q20 -17 13 -37l-71 -155q-11 -22 -33 -6.5t-105 61.5l-46 -102q-12 -21 -36.5 -4.5t-164.5 92.5q-23 13 -13 34l73 148q18 34 142 -39z" />
    <glyph glyph-name="uni06B4.medi" unicode="&#x6b4;" horiz-adv-x="1206" 
d="M-108 122q-17 99 97 90q322 -26 471 133q-69 149 -485 341q-52 68 -73 197q-14 85 5 119q180 354 908 693q64 30 59 -49l-11 -178q-2 -32 -34 -49q-609 -331 -822 -544q402 -162 783 -461q238 -186 379 -200q115 -12 90 -188q-8 -57 -51 -57q-170 1 -499 293
q-111 99 -190 152q13 -78 14 -114q10 -344 -428 -343q-75 0 -121 10q-67 15 -92 155zM-322 1853q9 17 33 10q89 -30 166 -88q20 -17 13 -37l-71 -155q-12 -21 -36 -4.5t-165 92.5q-23 13 -12 33zM-136 1624q9 17 33 10q89 -30 165 -88q20 -17 13 -37l-71 -155
q-11 -22 -33 -6.5t-105 61.5l-46 -102q-12 -21 -36.5 -4.5t-164.5 92.5q-23 13 -13 34l73 148q18 34 142 -39zM98 1411q-20 -13 -40 -6q-42 16 -25 63q33 94 81 127q292 202 796 426q19 8 47 -12q28 -21 -5 -84q-8 -15 -10 -20q-32 -62 -69 -79q-330 -137 -775 -415z" />
    <glyph glyph-name="uni06B5.init" unicode="&#x6b5;" horiz-adv-x="360" 
d="M-33 1174q191 -604 207 -830q25 -341 -169 -374q-50 -8 -69 62q-13 46 -20.5 111.5t46.5 71.5q111 12 133 70q-11 49 -273 896q-26 78 -38 106q-30 51 -16 94l35 102q19 57 63.5 -27t116.5 -137q48 -35 22 -79zM-107 1932l49 -56q23 -30 9 -54q-70 -164 -84 -283
q-1 -5 -3 -8l-17 -14q-21 -16 -47 10q-144 146 -240 311q-30 53 8 66.5t65 -33.5q37 -66 118 -174q19 134 83 232q14 19 30 18.5t29 -15.5z" />
    <glyph glyph-name="uni06B5.medi" unicode="&#x6b5;" horiz-adv-x="405" 
d="M150 235q4 -264 -145 -265q-38 -1 -58 43q-80 170 15 201q111 37 90 158l-191 887q-10 45 4 64l61 85q32 45 49 -51l104 -472q83 -379 113 -461q68 -184 175 -210q53 -12 73 -93t5 -129q-7 -22 -35 -22q-138 1 -260 265zM-50 1895l49 -56q23 -30 9 -54q-70 -164 -84 -283
q-1 -5 -3 -8l-17 -14q-21 -16 -47 10q-144 146 -240 311q-30 53 8 66.5t65 -33.5q37 -66 118 -174q19 134 83 232q14 19 30 18.5t29 -15.5z" />
    <glyph glyph-name="uni06B6.init" unicode="&#x6b6;" horiz-adv-x="360" 
d="M-33 1174q191 -604 207 -830q25 -341 -169 -374q-50 -8 -69 62q-13 46 -20.5 111.5t46.5 71.5q111 12 133 70q-11 49 -273 896q-26 78 -38 106q-30 51 -16 94l35 102q19 57 63.5 -27t116.5 -137q48 -35 22 -79zM-282 1795q9 17 33 10q89 -30 165 -88q20 -17 13 -37
l-71 -155q-12 -21 -36 -4.5t-164 92.5q-23 13 -13 34z" />
    <glyph glyph-name="uni06B6.medi" unicode="&#x6b6;" horiz-adv-x="405" 
d="M150 235q4 -264 -145 -265q-38 -1 -58 43q-80 170 15 201q111 37 90 158l-191 887q-10 45 4 64l61 85q32 45 49 -51l104 -472q83 -379 113 -461q68 -184 175 -210q53 -12 73 -93t5 -129q-7 -22 -35 -22q-138 1 -260 265zM-226 1758q9 17 33 10q89 -30 165 -88
q20 -17 13 -37l-71 -155q-12 -21 -36 -4.5t-164 92.5q-23 13 -13 34z" />
    <glyph glyph-name="uni06B7.init" unicode="&#x6b7;" horiz-adv-x="360" 
d="M-33 1174q191 -604 207 -830q25 -341 -169 -374q-50 -8 -69 62q-13 46 -20.5 111.5t46.5 71.5q111 12 133 70q-11 49 -273 896q-26 78 -38 106q-30 51 -16 94l35 102q19 57 63.5 -27t116.5 -137q48 -35 22 -79zM-391 2070q9 17 33 10q89 -30 166 -88q20 -17 13 -37
l-71 -155q-12 -21 -36 -4.5t-165 92.5q-23 13 -12 33zM-205 1841q9 17 33 10q89 -30 165 -88q20 -17 13 -37l-71 -155q-11 -22 -33 -6.5t-105 61.5l-46 -102q-12 -21 -36.5 -4.5t-164.5 92.5q-23 13 -13 34l73 148q18 34 142 -39z" />
    <glyph glyph-name="uni06B7.medi" unicode="&#x6b7;" horiz-adv-x="405" 
d="M150 235q4 -264 -145 -265q-38 -1 -58 43q-80 170 15 201q111 37 90 158l-191 887q-10 45 4 64l61 85q32 45 49 -51l104 -472q83 -379 113 -461q68 -184 175 -210q53 -12 73 -93t5 -129q-7 -22 -35 -22q-138 1 -260 265zM-335 2033q9 17 33 10q89 -30 166 -88
q20 -17 13 -37l-71 -155q-12 -21 -36 -4.5t-165 92.5q-23 13 -12 33zM-149 1804q9 17 33 10q89 -30 165 -88q20 -17 13 -37l-71 -155q-11 -22 -33 -6.5t-105 61.5l-46 -102q-12 -21 -36.5 -4.5t-164.5 92.5q-23 13 -13 34l73 148q18 34 142 -39z" />
    <glyph glyph-name="uni06B8.init" unicode="&#x6b8;" horiz-adv-x="360" 
d="M-33 1174q191 -604 207 -830q25 -341 -169 -374q-50 -8 -69 62q-13 46 -20.5 111.5t46.5 71.5q111 12 133 70q-11 49 -273 896q-26 78 -38 106q-30 51 -16 94l35 102q19 57 63.5 -27t116.5 -137q48 -35 22 -79zM379 -512q-9 -16 -33 -10q-89 30 -166 88q-20 16 -12 36
l70 156q12 21 36 4.5t165 -92.5q23 -14 13 -34zM196 -286q-9 -16 -33 -10q-89 30 -166 88q-20 16 -12 36l70 156q11 22 33.5 6t105.5 -62l46 102q12 21 36 4.5t165 -92.5q23 -14 13 -34l-73 -148q-18 -34 -142 40z" />
    <glyph glyph-name="uni06B8.medi" unicode="&#x6b8;" horiz-adv-x="405" 
d="M150 235q4 -264 -145 -265q-38 -1 -58 43q-80 170 15 201q111 37 90 158l-191 887q-10 45 4 64l61 85q32 45 49 -51l104 -472q83 -379 113 -461q68 -184 175 -210q53 -12 73 -93t5 -129q-7 -22 -35 -22q-138 1 -260 265zM408 -562q-9 -16 -33 -10q-89 30 -166 88
q-20 16 -12 36l70 156q12 21 36 4.5t165 -92.5q23 -14 13 -34zM225 -336q-9 -16 -33 -10q-89 30 -166 88q-20 16 -12 36l70 156q11 22 33.5 6t105.5 -62l46 102q12 21 36 4.5t165 -92.5q23 -14 13 -34l-73 -148q-18 -34 -142 40z" />
    <glyph glyph-name="uni06B9.init" unicode="&#x6b9;" horiz-adv-x="390" 
d="M28 436l36 127q19 68 49 27q131 -173 116.5 -396.5t-224.5 -223.5q-42 0 -71.5 68.5t-36 111t33.5 59.5q14 6 31 6q120 -3 165 47q-20 51 -65.5 92t-33.5 82zM163 -222q9 17 33 10q89 -30 165 -88q20 -17 13 -37l-71 -155q-12 -21 -36 -4.5t-164 92.5q-23 13 -13 34z
M-52 1028q9 17 33 10q89 -30 165 -88q20 -17 13 -37l-71 -155q-12 -21 -36 -4.5t-164 92.5q-23 13 -13 34z" />
    <glyph glyph-name="uni06B9.medi" unicode="&#x6b9;" horiz-adv-x="500" 
d="M320 296q75 -77 142 -82q57 -5 74 -42q11 -26 13.5 -86t-6 -87.5t-38.5 -28.5q-119 0 -245 130q-103 -130 -255 -130q-44 1 -64 55l-33 83q-13 34 3 69t51 38q240 18 278 120q12 31 33 31q30 0 37.5 -33.5t9.5 -36.5zM28 998q9 17 33 10q89 -30 165 -88q20 -17 13 -37
l-71 -155q-12 -21 -36 -4.5t-164 92.5q-23 13 -13 34zM253 -222q9 17 33 10q89 -30 165 -88q20 -17 13 -37l-71 -155q-12 -21 -36 -4.5t-164 92.5q-23 13 -13 34z" />
    <glyph glyph-name="afii57514.init" unicode="&#x6ba;" horiz-adv-x="390" 
d="M28 436l36 127q19 68 49 27q131 -173 116.5 -396.5t-224.5 -223.5q-42 0 -71.5 68.5t-36 111t33.5 59.5q14 6 31 6q120 -3 165 47q-20 51 -65.5 92t-33.5 82zM-52 1028q9 17 33 10q89 -30 165 -88q20 -17 13 -37l-71 -155q-12 -21 -36 -4.5t-164 92.5q-23 13 -13 34z" />
    <glyph glyph-name="afii57514.medi" unicode="&#x6ba;" horiz-adv-x="500" 
d="M320 296q75 -77 142 -82q57 -5 74 -42q11 -26 13.5 -86t-6 -87.5t-38.5 -28.5q-119 0 -245 130q-103 -130 -255 -130q-44 1 -64 55l-33 83q-13 34 3 69t51 38q240 18 278 120q12 31 33 31q30 0 37.5 -33.5t9.5 -36.5zM28 998q9 17 33 10q89 -30 165 -88q20 -17 13 -37
l-71 -155q-12 -21 -36 -4.5t-164 92.5q-23 13 -13 34z" />
    <glyph glyph-name="uni06BB.init" unicode="&#x6bb;" horiz-adv-x="390" arabic-form="initial" 
d="M28 436l36 127q19 68 49 27q131 -173 116.5 -396.5t-224.5 -223.5q-42 0 -71.5 68.5t-36 111t33.5 59.5q14 6 31 6q120 -3 165 47q-20 51 -65.5 92t-33.5 82zM-133 1330q31 16 48 -36q78 -247 92 -373q41 48 90 90q51 42 106.5 22t91.5 -82t-26 -164q-15 -24 -126.5 -60
t-234.5 -42h-4q-59 10 -110 49t-54 63q1 17 22 16q73 -7 146 -2l38 46q-19 144 -103 391q-3 11 4 42.5t20 39.5zM117 912q-28 -12 -98 -87q99 21 189 67q-37 41 -91 20z" />
    <glyph glyph-name="uni06BB.medi" unicode="&#x6bb;" horiz-adv-x="500" arabic-form="medial" 
d="M320 296q75 -77 142 -82q57 -5 74 -42q11 -26 13.5 -86t-6 -87.5t-38.5 -28.5q-119 0 -245 130q-103 -130 -255 -130q-44 1 -64 55l-33 83q-13 34 3 69t51 38q240 18 278 120q12 31 33 31q30 0 37.5 -33.5t9.5 -36.5zM-53 1300q31 16 48 -36q78 -247 92 -373q41 48 90 90
q51 42 106.5 22t91.5 -82t-26 -164q-15 -24 -126.5 -60t-234.5 -42h-4q-59 10 -110 49t-54 63q1 17 22 16q73 -7 146 -2l38 46q-19 144 -103 391q-3 11 4 42.5t20 39.5zM197 882q-28 -12 -98 -87q99 21 189 67q-37 41 -91 20z" />
    <glyph glyph-name="uni06BC.init" unicode="&#x6bc;" horiz-adv-x="390" 
d="M28 436l36 127q19 68 49 27q131 -173 116.5 -396.5t-224.5 -223.5q-42 0 -71.5 68.5t-36 111t33.5 59.5q14 6 31 6q120 -3 165 47q-20 51 -65.5 92t-33.5 82zM-52 1028q9 17 33 10q89 -30 165 -88q20 -17 13 -37l-71 -155q-12 -21 -36 -4.5t-164 92.5q-23 13 -13 34z
M226 -217q-132 12 -143.5 162t53.5 207t162 -16q67 -51 85 -141t7 -125q-31 -98 -164 -87zM334 -67q-50 122 -124 125q-46 2 -63 -30t-2 -77.5t82.5 -51.5t100.5 22q7 6 6 12z" />
    <glyph glyph-name="uni06BC.medi" unicode="&#x6bc;" horiz-adv-x="500" 
d="M320 296q75 -77 142 -82q57 -5 74 -42q11 -26 13.5 -86t-6 -87.5t-38.5 -28.5q-119 0 -245 130q-103 -130 -255 -130q-44 1 -64 55l-33 83q-13 34 3 69t51 38q240 18 278 120q12 31 33 31q30 0 37.5 -33.5t9.5 -36.5zM28 998q9 17 33 10q89 -30 165 -88q20 -17 13 -37
l-71 -155q-12 -21 -36 -4.5t-164 92.5q-23 13 -13 34zM261 -247q-132 12 -143.5 162t53.5 207t162 -16q67 -51 85 -141t7 -125q-31 -98 -164 -87zM369 -97q-50 122 -124 125q-46 2 -63 -30t-2 -77.5t82.5 -51.5t100.5 22q7 6 6 12z" />
    <glyph glyph-name="uni06BD.init" unicode="&#x6bd;" horiz-adv-x="390" 
d="M28 436l36 127q19 68 49 27q131 -173 116.5 -396.5t-224.5 -223.5q-42 0 -71.5 68.5t-36 111t33.5 59.5q14 6 31 6q120 -3 165 47q-20 51 -65.5 92t-33.5 82zM172 -207q9 17 33 10q89 -30 166 -88q20 -17 13 -37l-71 -155q-12 -21 -36 -4.5t-165 92.5q-23 13 -12 33z
M358 -436q9 17 33 10q89 -30 165 -88q20 -17 13 -37l-71 -155q-11 -22 -33 -6.5t-105 61.5l-46 -102q-12 -21 -36.5 -4.5t-164.5 92.5q-23 13 -13 34l73 148q18 34 142 -39z" />
    <glyph glyph-name="uni06BD.medi" unicode="&#x6bd;" horiz-adv-x="500" 
d="M320 296q75 -77 142 -82q57 -5 74 -42q11 -26 13.5 -86t-6 -87.5t-38.5 -28.5q-119 0 -245 130q-103 -130 -255 -130q-44 1 -64 55l-33 83q-13 34 3 69t51 38q240 18 278 120q12 31 33 31q30 0 37.5 -33.5t9.5 -36.5zM195 -107q9 17 33 10q89 -30 166 -88q20 -17 13 -37
l-71 -155q-12 -21 -36 -4.5t-165 92.5q-23 13 -12 33zM381 -336q9 17 33 10q89 -30 165 -88q20 -17 13 -37l-71 -155q-11 -22 -33 -6.5t-105 61.5l-46 -102q-12 -21 -36.5 -4.5t-164.5 92.5q-23 13 -13 34l73 148q18 34 142 -39z" />
    <glyph glyph-name="uni06BE.init" unicode="&#x6be;" horiz-adv-x="926" arabic-form="initial" 
d="M39 231q-19 72 -12.5 159t96.5 211q89 124 164 144q79 22 142 -125q6 -10 15 -14q214 -96 298 -172q32 -30 50 -92.5t10 -141.5t-50 -129t-222 -42.5t-309 42.5q-94 -67 -208 -100q-50 -12 -81 55q-67 141 -7 179q14 8 48.5 11.5t65.5 14.5zM231 294q74 35 86 60.5
t-16 86.5t-49 62q-21 0 -63.5 -44t-64.5 -108q21 -37 107 -57zM442 388q-6 -67 -34 -125q101 -12 172 -11t74 3q-64 61 -212 133z" />
    <glyph glyph-name="uni06BE.medi" unicode="&#x6be;" horiz-adv-x="800" arabic-form="medial" 
d="M462 745q65 -27 85 -111q68 -281 -69 -469q113 7 284 49q41 8 63 -39q39 -83 26 -151q-17 -44 -46 -53q-73 -17 -134 -19q44 -81 53.5 -188t-30 -185.5t-124.5 -79.5q-224 -1 -349 417l-81 11l-13 76q-71 -33 -124.5 -33t-89.5 95q-10 26 -24.5 75t37.5 68q16 5 35 7
q94 5 230 53q30 214 150 391q46 66 69 81.5t52 4.5zM461 436q-39 50 -82 34q-88 -35 -120 -180q164 76 202 146zM321 -88q65 -121 159 -157.5t160 9.5q-94 126 -319 148z" />
    <glyph glyph-name="uni06BF.init" unicode="&#x6bf;" horiz-adv-x="1343" 
d="M-67 455q6 72 67.5 143t133.5 72t356.5 -109.5t604.5 -96.5q59 3 36 -80l-34 -126q-10 -38 -36 -35q-243 39 -438 -25.5t-345 -146t-273 -81.5q-33 1 -56 39q-40 73 -34.5 129t19.5 65.5t25 11.5q313 19 509 119q-316 131 -486 75q-53 -20 -49 46zM374 1078q9 17 33 10
q89 -30 165 -88q20 -17 13 -37l-71 -155q-12 -21 -36 -4.5t-164 92.5q-23 13 -13 34zM816 -614q-9 -16 -33 -10q-89 30 -166 88q-20 16 -12 36l70 156q12 21 36 4.5t165 -92.5q23 -14 13 -34zM633 -388q-9 -16 -33 -10q-89 30 -166 88q-20 16 -12 36l70 156q11 22 33.5 6
t105.5 -62l46 102q12 21 36 4.5t165 -92.5q23 -14 13 -34l-73 -148q-18 -34 -142 40z" />
    <glyph glyph-name="uni06BF.medi" unicode="&#x6bf;" horiz-adv-x="1250" 
d="M-55 454q15 222 229 222q97 0 317 -97q105 -46 277.5 -72t328.5 -8q69 9 63 -45l-19 -151q-5 -36 -52 -32q-83 7 -143 9q-16 -76 268 -69q119 3 97 -174q-9 -61 -52 -67q-165 -21 -273 16q-151 52 -126 288q-163 -15 -299 -69t-303 -145.5t-253 -89.5q-48 1 -79 54.5
t-28 116.5t60 74q167 31 282.5 82t187.5 72q-305 95 -409 37q-35 -20 -56.5 -12t-17.5 60zM414 1078q9 17 33 10q89 -30 165 -88q20 -17 13 -37l-71 -155q-12 -21 -36 -4.5t-164 92.5q-23 13 -13 34zM804 -602q-9 -16 -33 -10q-89 30 -166 88q-20 16 -12 36l70 156
q12 21 36 4.5t165 -92.5q23 -14 13 -34zM621 -376q-9 -16 -33 -10q-89 30 -166 88q-20 16 -12 36l70 156q11 22 33.5 6t105.5 -62l46 102q12 21 36 4.5t165 -92.5q23 -14 13 -34l-73 -148q-18 -34 -142 40z" />
    <glyph glyph-name="uni06C1.init" unicode="&#x6c1;" horiz-adv-x="926" arabic-form="initial" 
d="M409 475q21 -77 -47 -150q201 -72 306 -74q19 0 6 24q-47 93 -265 200zM269 360q62 34 60 45q-31 118 -87 128q-85 17 -132 -61q-16 -25 23 -48q63 -38 136 -64zM250 161q-139 -190 -245 -191q-40 0 -68 48q-104 182 25 198q84 10 120 32q-69 48 -54 148t85 199
q-13 6 -37.5 9t-35.5 25.5t-11 37.5q17 203 121 202.5t334.5 -188.5t272.5 -306q52 -152 -25 -262q-45 -65 -123 -57q-155 17 -359 105z" />
    <glyph glyph-name="uni06C1.medi" unicode="&#x6c1;" horiz-adv-x="800" arabic-form="medial" 
d="M462 745q65 -27 85 -111q68 -281 -69 -469q113 7 284 49q41 8 63 -39q39 -83 26 -151q-17 -44 -46 -53q-73 -17 -134 -19q44 -81 53.5 -188t-30 -185.5t-124.5 -79.5q-224 -1 -349 417l-81 11l-13 76q-71 -33 -124.5 -33t-89.5 95q-10 26 -24.5 75t37.5 68q16 5 35 7
q94 5 230 53q30 214 150 391q46 66 69 81.5t52 4.5zM461 436q-39 50 -82 34q-88 -35 -120 -180q164 76 202 146zM321 -88q65 -121 159 -157.5t160 9.5q-94 126 -319 148z" />
    <glyph glyph-name="uni06CC.init" unicode="&#x6cc;" horiz-adv-x="390" arabic-form="initial" 
d="M28 436l36 127q19 68 49 27q131 -173 116.5 -396.5t-224.5 -223.5q-42 0 -71.5 68.5t-36 111t33.5 59.5q14 6 31 6q120 -3 165 47q-20 51 -65.5 92t-33.5 82zM330 -223q9 17 33 10q89 -30 165 -88q20 -17 13 -37l-71 -155q-12 -21 -34.5 -5.5t-120.5 69.5l-50 -110
q-12 -21 -36 -4.5t-164 92.5q-23 13 -13 34l73 148q9 17 33 10q66 -22 124 -59z" />
    <glyph glyph-name="uni06CC.medi" unicode="&#x6cc;" horiz-adv-x="500" arabic-form="medial" 
d="M320 296q75 -77 142 -82q57 -5 74 -42q11 -26 13.5 -86t-6 -87.5t-38.5 -28.5q-119 0 -245 130q-103 -130 -255 -130q-44 1 -64 55l-33 83q-13 34 3 69t51 38q240 18 278 120q12 31 33 31q30 0 37.5 -33.5t9.5 -36.5zM353 -123q9 17 33 10q89 -30 165 -88q20 -17 13 -37
l-71 -155q-12 -21 -34.5 -5.5t-120.5 69.5l-50 -110q-12 -21 -36 -4.5t-164 92.5q-23 13 -13 34l73 148q9 17 33 10q66 -22 124 -59z" />
    <glyph glyph-name="uni06CE.init" unicode="&#x6ce;" horiz-adv-x="390" 
d="M28 436l36 127q19 68 49 27q131 -173 116.5 -396.5t-224.5 -223.5q-42 0 -71.5 68.5t-36 111t33.5 59.5q14 6 31 6q120 -3 165 47q-20 51 -65.5 92t-33.5 82zM123 1165l49 -56q23 -30 9 -54q-70 -164 -84 -283q-1 -5 -3 -8l-17 -14q-21 -16 -47 10q-144 146 -240 311
q-30 53 8 66.5t65 -33.5q37 -66 118 -174q19 134 83 232q14 19 30 18.5t29 -15.5zM330 -223q9 17 33 10q89 -30 165 -88q20 -17 13 -37l-71 -155q-12 -21 -34.5 -5.5t-120.5 69.5l-50 -110q-12 -21 -36 -4.5t-164 92.5q-23 13 -13 34l73 148q9 17 33 10q66 -22 124 -59z" />
    <glyph glyph-name="uni06CE.medi" unicode="&#x6ce;" horiz-adv-x="500" 
d="M320 296q75 -77 142 -82q57 -5 74 -42q11 -26 13.5 -86t-6 -87.5t-38.5 -28.5q-119 0 -245 130q-103 -130 -255 -130q-44 1 -64 55l-33 83q-13 34 3 69t51 38q240 18 278 120q12 31 33 31q30 0 37.5 -33.5t9.5 -36.5zM353 -123q9 17 33 10q89 -30 165 -88q20 -17 13 -37
l-71 -155q-12 -21 -34.5 -5.5t-120.5 69.5l-50 -110q-12 -21 -36 -4.5t-164 92.5q-23 13 -13 34l73 148q9 17 33 10q66 -22 124 -59zM209 1105l49 -56q23 -30 9 -54q-70 -164 -84 -283q-1 -5 -3 -8l-17 -14q-21 -16 -47 10q-144 146 -240 311q-30 53 8 66.5t65 -33.5
q37 -66 118 -174q19 134 83 232q14 19 30 18.5t29 -15.5z" />
    <glyph glyph-name="uni06D0.init" unicode="&#x6d0;" horiz-adv-x="390" arabic-form="initial" 
d="M28 436l36 127q19 68 49 27q131 -173 116.5 -396.5t-224.5 -223.5q-42 0 -71.5 68.5t-36 111t33.5 59.5q14 6 31 6q120 -3 165 47q-20 51 -65.5 92t-33.5 82zM163 -222q9 17 33 10q89 -30 166 -88q20 -17 13 -37l-41 -91q54 -26 101 -62q20 -17 13 -37l-71 -155
q-12 -21 -36 -4.5t-164 92.5q-23 13 -13 34l48 97l-109 59q-23 13 -13 34z" />
    <glyph glyph-name="uni06D0.medi" unicode="&#x6d0;" horiz-adv-x="500" arabic-form="medial" 
d="M320 296q75 -77 142 -82q57 -5 74 -42q11 -26 13.5 -86t-6 -87.5t-38.5 -28.5q-119 0 -245 130q-103 -130 -255 -130q-44 1 -64 55l-33 83q-13 34 3 69t51 38q240 18 278 120q12 31 33 31q30 0 37.5 -33.5t9.5 -36.5zM253 -222q9 17 33 10q89 -30 166 -88q20 -17 13 -37
l-41 -91q54 -26 101 -62q20 -17 13 -37l-71 -155q-12 -21 -36 -4.5t-164 92.5q-23 13 -13 34l48 97l-109 59q-23 13 -13 34z" />
    <glyph glyph-name="uni06D1.init" unicode="&#x6d1;" horiz-adv-x="390" 
d="M28 436l36 127q19 68 49 27q131 -173 116.5 -396.5t-224.5 -223.5q-42 0 -71.5 68.5t-36 111t33.5 59.5q14 6 31 6q120 -3 165 47q-20 51 -65.5 92t-33.5 82zM463 -762q-9 -16 -33 -10q-89 30 -166 88q-20 16 -12 36l70 156q12 21 36 4.5t165 -92.5q23 -14 13 -34z
M280 -536q-9 -16 -33 -10q-89 30 -166 88q-20 16 -12 36l70 156q11 22 33.5 6t105.5 -62l46 102q12 21 36 4.5t165 -92.5q23 -14 13 -34l-73 -148q-18 -34 -142 40z" />
    <glyph glyph-name="uni06D1.medi" unicode="&#x6d1;" horiz-adv-x="500" 
d="M320 296q75 -77 142 -82q57 -5 74 -42q11 -26 13.5 -86t-6 -87.5t-38.5 -28.5q-119 0 -245 130q-103 -130 -255 -130q-44 1 -64 55l-33 83q-13 34 3 69t51 38q240 18 278 120q12 31 33 31q30 0 37.5 -33.5t9.5 -36.5zM486 -662q-9 -16 -33 -10q-89 30 -166 88
q-20 16 -12 36l70 156q12 21 36 4.5t165 -92.5q23 -14 13 -34zM303 -436q-9 -16 -33 -10q-89 30 -166 88q-20 16 -12 36l70 156q11 22 33.5 6t105.5 -62l46 102q12 21 36 4.5t165 -92.5q23 -14 13 -34l-73 -148q-18 -34 -142 40z" />
    <glyph glyph-name="uni06FA.init" unicode="&#x6fa;" horiz-adv-x="1164" 
d="M247 424q64 -1 28 -108q65 -45 151 -46q137 -2 184 252q7 39 39 28.5t32 -47.5l-5 -71q43 -31 108.5 -51t103.5 -19q-26 61 -48.5 92t-6.5 67l45 103q27 35 60 -50q54 -142 46 -274t-73 -178q-7 -5 -27 -6q-141 -5 -261 83q-50 -148 -172 -182.5t-275 100.5
q-97 -146 -171 -147q-43 0 -70 67q-15 38 -23 68q-28 102 47 110q199 21 259 180q11 29 29 29zM323 1303q9 17 33 10q89 -30 166 -88q20 -17 13 -37l-71 -155q-12 -21 -36 -4.5t-165 92.5q-23 13 -12 33zM509 1074q9 17 33 10q89 -30 165 -88q20 -17 13 -37l-71 -155
q-11 -22 -33 -6.5t-105 61.5l-46 -102q-12 -21 -36.5 -4.5t-164.5 92.5q-23 13 -13 34l73 148q18 34 142 -39zM617 -72q9 17 33 10q89 -30 165 -88q20 -17 13 -37l-71 -155q-12 -21 -36 -4.5t-164 92.5q-23 13 -13 34z" />
    <glyph glyph-name="uni06FA.medi" unicode="&#x6fa;" horiz-adv-x="1165" 
d="M200 343q8 43 50 29q40 -14 23 -75q-5 -17 -12 -36q236 -79 297 121q11 44 48.5 30t27.5 -64t-6 -66q12 -43 90 -52t96 24t23 140q1 28 29 28t41 -24q94 -172 220 -183q48 -7 74.5 -74t19 -119t-50.5 -52q-184 0 -286 208q-13 -93 -36 -156.5t-80 -65.5q-140 -5 -238 92
q-68 -78 -180.5 -77.5t-190.5 66.5q-68 -66 -154 -67q-57 0 -89 99q-8 25 -20 71q-12 50 35 68q16 6 31 7q218 16 238 128zM290 1180q9 17 33 10q89 -30 166 -88q20 -17 13 -37l-71 -155q-12 -21 -36 -4.5t-165 92.5q-23 13 -12 33zM476 951q9 17 33 10q89 -30 165 -88
q20 -17 13 -37l-71 -155q-11 -22 -33 -6.5t-105 61.5l-46 -102q-12 -21 -36.5 -4.5t-164.5 92.5q-23 13 -13 34l73 148q18 34 142 -39zM552 -272q9 17 33 10q89 -30 165 -88q20 -17 13 -37l-71 -155q-12 -21 -36 -4.5t-164 92.5q-23 13 -13 34z" />
    <glyph glyph-name="uni06FB.init" unicode="&#x6fb;" horiz-adv-x="1430" 
d="M129 154q-30 -187 -124 -184q-31 1 -57 41q-51 86 -40.5 140t47.5 63q107 23 154 142q16 43 52.5 42.5t72.5 -45.5q68 -85 234 -136q81 114 133 169q224 227 363 228q76 1 184 -76q86 -61 85.5 -149t-38 -187.5t-61.5 -120.5q-172 -142 -456 -143q-112 1 -237 30
q-17 -53 -20 -127q-2 -49 -44 -35.5t-41.5 62.5t17.5 132q-109 33 -224 154zM1121 262q-135 90 -280 80q-111 -7 -270 -149q104 -4 303.5 14.5t246.5 54.5zM408 1022q9 17 33 10q89 -30 165 -88q20 -17 13 -37l-71 -155q-12 -21 -36 -4.5t-164 92.5q-23 13 -13 34zM802 -272
q9 17 33 10q89 -30 165 -88q20 -17 13 -37l-71 -155q-12 -21 -36 -4.5t-164 92.5q-23 13 -13 34z" />
    <glyph glyph-name="uni06FB.medi" unicode="&#x6fb;" horiz-adv-x="1480" 
d="M1152 393q-176 108 -345 -2.5t-218 -180.5q131 7 301 57t262 126zM477 -13q-11 -54 -12 -104q-1 -57 -44 -50q-51 9 -40 107q8 77 9 79q-114 32 -207 128q-79 -176 -175 -177q-49 0 -76 55q-58 120 -3 180q10 11 33 10q118 0 204 125q13 19 32 17q17 -2 50 -32
q89 -87 235 -101q88 173 227 314.5t257 170.5q91 19 190.5 -43.5t137.5 -155.5q-6 -150 -51 -253q92 -31 198 -42q47 -4 71 -94q26 -94 10 -126q-11 -23 -36 -25q-156 -19 -424 104q-225 -150 -586 -87zM470 1115q9 17 33 10q89 -30 165 -88q20 -17 13 -37l-71 -155
q-12 -21 -36 -4.5t-164 92.5q-23 13 -13 34zM802 -272q9 17 33 10q89 -30 165 -88q20 -17 13 -37l-71 -155q-12 -21 -36 -4.5t-164 92.5q-23 13 -13 34z" />
    <glyph glyph-name="uni06FC.init" unicode="&#x6fc;" horiz-adv-x="978" 
d="M777 508l-12 -165q-2 -27 -43 -45.5l-278 -120.5l-440 -207q-68 0 -108 100.5t54 142.5l112 51q-126 93 -118 223q16 276 227 384q53 27 140 -11t183 -122q51 -45 43 -71.5t-102.5 -1t-221.5 -4.5t-154 -121q-8 -25 72 -85q198 -148 489 58l67 47q99 71 90 -52zM38 1228
q9 17 33 10q89 -30 165 -88q20 -17 13 -37l-71 -155q-12 -21 -36 -4.5t-164 92.5q-23 13 -13 34zM457 -72q9 17 33 10q89 -30 165 -88q20 -17 13 -37l-71 -155q-12 -21 -36 -4.5t-164 92.5q-23 13 -13 34z" />
    <glyph glyph-name="uni06FC.medi" unicode="&#x6fc;" horiz-adv-x="750" 
d="M712 215q77 -1 101 -64q8 -21 10 -43q4 -138 -66 -138q-211 1 -420 208q-199 -208 -333 -208q-73 0 -108.5 102.5t23.5 132.5q18 9 42 10q131 4 212 57q-44 31 -178 49q-44 6 -45 58q0 84 87 163q166 148 428 12q133 -71 128 -150q-4 -76 -115 -148q73 -39 234 -41z
M15 1128q9 17 33 10q89 -30 165 -88q20 -17 13 -37l-71 -155q-12 -21 -36 -4.5t-164 92.5q-23 13 -13 34zM287 -72q9 17 33 10q89 -30 165 -88q20 -17 13 -37l-71 -155q-12 -21 -36 -4.5t-164 92.5q-23 13 -13 34z" />
    <glyph glyph-name="uni06FF.init" unicode="&#x6ff;" horiz-adv-x="926" 
d="M131 956q-4 -42 -41 -41t-45 37q-2 12 0 28q18 173 92 330q16 28 42.5 14t29.5 -18q68 -116 209 -267q25 -24 15 -55l-21 -60q-6 -16 -22.5 -18t-37.5 15q-106 89 -186 217q-30 -115 -35 -182zM39 231q-19 72 -12.5 159t96.5 211q89 124 164 144q79 22 142 -125
q6 -10 15 -14q214 -96 298 -172q32 -30 50 -92.5t10 -141.5t-50 -129t-222 -42.5t-309 42.5q-94 -67 -208 -100q-50 -12 -81 55q-67 141 -7 179q14 8 48.5 11.5t65.5 14.5zM231 294q74 35 86 60.5t-16 86.5t-49 62q-21 0 -63.5 -44t-64.5 -108q21 -37 107 -57zM442 388
q-6 -67 -34 -125q101 -12 172 -11t74 3q-64 61 -212 133z" />
    <glyph glyph-name="uni06FF.medi" unicode="&#x6ff;" horiz-adv-x="800" 
d="M462 745q65 -27 85 -111q68 -281 -69 -469q113 7 284 49q41 8 63 -39q39 -83 26 -151q-17 -44 -46 -53q-73 -17 -134 -19q44 -81 53.5 -188t-30 -185.5t-124.5 -79.5q-224 -1 -349 417l-81 11l-13 76q-71 -33 -124.5 -33t-89.5 95q-10 26 -24.5 75t37.5 68q16 5 35 7
q94 5 230 53q30 214 150 391q46 66 69 81.5t52 4.5zM461 436q-39 50 -82 34q-88 -35 -120 -180q164 76 202 146zM321 -88q65 -121 159 -157.5t160 9.5q-94 126 -319 148zM231 956q-4 -42 -41 -41t-45 37q-2 12 0 28q18 173 92 330q16 28 42.5 14t29.5 -18q68 -116 209 -267
q25 -24 15 -55l-21 -60q-6 -16 -22.5 -18t-37.5 15q-106 89 -186 217q-30 -115 -35 -182z" />
    <glyph glyph-name="uniFDFA" unicode="&#xfdfa;" horiz-adv-x="2161" arabic-form="isolated" 
d="M813 763h-1q-1 45 5 50q34 37 44 114.5t-21 179.5l-61 199l-70 221q-5 17 3 146q0 9 10.5 8t12.5 -7q159 -493 234 -591t182 -93q122 6 190 87q6 14 21 14.5t30 -16.5q46 -56 137 -83q38 54 80 97q122 124 209 124q32 0 86.5 -35t60.5 -69t-16 -94t-33 -71
q-93 -76 -265 -76q-67 1 -129 16l-14 -93q-1 -10 -12 -13q-23 0 -29 23l-1 4q-1 40 12 95q-63 25 -91.5 53t-35 28t-19.5 -16q-70 -83 -195.5 -79.5t-231.5 157.5q11 -99 -32 -214q113 -17 150 -42.5t39 -33.5q27 -100 -32 -156q-143 -131 -308 -131t-253 82
q-153 143 -22 452q2 6 10 8q18 -2 14 -20q-42 -105 -43 -146q-2 -89 52 -167q74 -105 251 -93t292 130q-44 23 -210 51zM1900 1038q-70 54 -127.5 54.5t-116 -43t-77.5 -68.5q69 -10 192.5 4t132.5 48q0 2 -4 5zM688 893q-4 -8 -10 -8t-9 19q-28 158 -47 219l-63 219
l-64 225q-5 18 -2 39l15 59q4 21 10 21t11 -19l78 -291q113 -388 81 -483zM125 1652q3 14 13 13.5t13 -14.5q8 -41 35.5 -41t26.5 32.5t12 32.5q10 -2 15.5 -33t-4 -73t-40.5 -43.5t-55 21.5q-17 -43 -54 -43q-54 0 -64 54q-8 43 -3 71.5t14.5 29.5t12.5 -15l3 -20
q2 -14 15.5 -32t33 -6.5t26.5 66.5zM264 1065q-86 223 -99.5 270.5t-7.5 60.5l24 53q9 18 19 -7q1 1 53.5 -162.5t86.5 -204.5q61 -76 131 -54q-6 29 -66.5 175t-66 168t-0.5 33l19 48q6 16 20 -11l107 -270q34 -92 37 -140q10 -137 -54 -138q-51 0 -88.5 29.5t-77.5 88.5
q-23 -120 -121.5 -117.5t-136.5 116.5q-27 -54 -53 -60q-88 -20 -150 18q-19 14 -13 61.5t53 95.5q48 47 112 63l-11 56v1q-5 32 26 94q10 18 16 -3q5 -29 25 -134q38 -186 119 -187t97 57zM5 1126q-22 -5 -59.5 -25t-47.5 -43q23 -15 67 -12t57 16q-5 15 -17 64zM78 676
l-17 71q-5 24 5 36l20 23q13 14 20 -12q0 -8 34 -131q83 -310 463 -310q335 0 453 115q113 -121 175 -76t69 115q-97 256 -186 685q-3 15 3 33l30 81q1 3 7 6q3 -1 6 -12q111 -482 154 -617q87 -282 284 -300q-47 51 -61 128.5t42 142.5q121 144 287 -11q14 -13 8 -26
q-7 -12 -23 -7q-117 38 -219 0q-51 -20 -46.5 -49t56 -92t111.5 -62q98 2 209 76q63 41 51 2l-18 -77q-3 -18 -46 -45q-153 -92 -342 -87.5t-276 171.5q-5 -23 -21 -57q-63 -133 -142 -114q-54 14 -120 72q-138 -99 -426 -99q-348 0 -469 228q-21 -61 -55 -75.5t-82 -6.5
q-87 15 -96 59q-3 23 11.5 64.5t23.5 54.5q40 57 123 103zM-18 523q9 -20 72 -18.5t77 16.5q-13 31 -33 85q-108 -32 -116 -83zM983 206q1 4 30 -6q27 -9 69 -40q4 -5 4 -10l-40 -87q-2 -4 -11 2q-8 6 -73 41l-32 -69q-1 4 -12 2q-28 -2 -89 51q-2 2 -3 6l41 83q2 4 27 -3
q23 -7 59 -31zM1705 -232q0 7 27.5 4.5t68 -2.5t88 11.5t124.5 92t85 135.5q-14 47 -24 52q-21 -45 -49 -44q-93 0 -109 86q-7 38 3 93q20 110 75 111q32 0 75.5 -53.5t54.5 -115.5q34 -190 -63 -327q-60 -86 -110.5 -90.5t-146.5 11.5t-99 33v3zM2030 153q-43 54 -72 6
q34 -32 72 -6zM1781 44q34 2 -2 77q-6 30 10 49.5t27 5t19.5 -61t6.5 -82.5q-7 -91 -44 -94h-8q-77 0 -144 57q-29 -115 -117 -117q-58 1 -130 63q-140 -85 -411 -85q-465 1 -583 316q11 -97 -21 -148q56 -21 85.5 -63t-0.5 -138q-8 -20 -41 -20h-1q-72 1 -130 39
q-11 -70 -46 -91q-81 -46 -184 -38q-15 1 -19 13q0 7 10 12q212 91 201 151l-4 19q-14 80 24 110q21 17 43 20q72 58 48 195l-3 16l-101 374v1q-2 10 3 24l15 49q5 13 12 12.5t45.5 -142.5t58.5 -205q52 -170 129 -259q130 -145 455.5 -144t452.5 108q14 12 21 2
q10 -13 -15 -43q41 -41 101 -37q53 6 102 157q1 7 13 7q12 -1 14 -16l-3 -49q49 -42 111 -44zM446 -107q-52 75 -129 75q-26 0 -37 -21q83 -52 166 -54zM1391 1671q38 14 24 -17l-15 -34q-7 -16 -206 -86l-265 -97q-32 -12 -13 23l11 21q10 20 30 28zM1857 1556
q38 14 24 -17l-15 -34q-6 -16 -206 -86l-266 -97q-32 -12 -13 23l11 21q11 21 30 28z" />
    <glyph glyph-name=".notdef" horiz-adv-x="748" 
d="M68 0v1365h544v-1365h-544zM136 68h408v1229h-408v-1229z" />
    <glyph glyph-name="glyph1" horiz-adv-x="0" 
 />
    <glyph glyph-name="glyph2" horiz-adv-x="682" 
 />
    <glyph glyph-name="space" unicode=" " horiz-adv-x="600" 
 />
    <glyph glyph-name="space" unicode="&#xa0;" horiz-adv-x="600" 
 />
    <glyph glyph-name="exclam" unicode="!" horiz-adv-x="540" 
d="M95 132q-11 60 25.5 103t98.5 43t114 -45.5t63 -106.5q11 -60 -25 -104t-97 -44q-63 0 -115.5 45t-63.5 109zM34 1374q50 0 93 -37q44 -37 55 -99q7 -40 29 -348l27 -448q3 -51 -33 -51q-41 0 -56 53q-71 228 -126 424q-85 302 -98 372q-11 62 21 98t88 36z" />
    <glyph glyph-name="quotedbl" unicode="&#x22;" horiz-adv-x="662" 
d="M516 1400q38 0 62 -32q0 -51 -11.5 -208.5t-22.5 -251.5q-16 -28 -48 -46q-14 0 -20 16q-84 286 -84 356q0 56 35.5 111t88.5 55zM196 1400q38 0 62 -32q0 -51 -11.5 -208.5t-22.5 -251.5q-16 -28 -48 -46q-14 0 -20 16q-84 286 -84 356q0 56 35.5 111t88.5 55z" />
    <glyph glyph-name="numbersign" unicode="#" horiz-adv-x="950" 
d="M816 678h-658q-10 5 -8 33t15 62.5t25 38.5h652q12 -5 11.5 -32.5t-13 -61.5t-24.5 -40zM760 296h-658q-10 5 -7.5 33t16 62.5t25.5 38.5h652q12 -5 11 -32.5t-14 -61.5t-25 -40zM758 1056l-158 -984q-2 -7 -21.5 -16.5t-40.5 -9.5q-9 0 -14.5 2t-6.5 4l-1 2l158 982
q9 26 58 26q17 0 26 -6zM436 1056l-160 -984q-2 -7 -21 -16.5t-39 -9.5q-9 0 -14.5 2t-6.5 4l-1 2l158 982q9 26 58 26q17 0 26 -6z" />
    <glyph glyph-name="dollar" unicode="$" horiz-adv-x="1036" 
d="M576 1336q78 0 78 -16l-8 -48q23 -4 42 -8q30 -6 83 -18l81 -18q8 -77 20 -318q-8 -10 -20 -10q-55 0 -58 12q-6 43 -26 91t-51 94t-78 75q-4 3 -8 5l-65 -395q40 -29 88 -60q17 -11 48.5 -29.5l50 -30t46.5 -32t44.5 -38t36.5 -45.5t30.5 -57t18 -69.5t7.5 -86.5
q0 -101 -61 -183.5t-156 -126.5t-201 -44q-38 0 -82 3l-10 -63q-22 0 -50 4.5t-28 13.5l9 54q-92 13 -203 38q-13 56 -27.5 164.5t-18.5 161.5q5 8 26 17t30 9q21 0 24 -16q7 -41 32.5 -92t63.5 -100q37 -45 90 -77l71 438q-35 24 -43 29q-116 78 -148 104q-111 93 -128 213
q-4 26 -4 55q0 95 61 176t154.5 125.5t192.5 44.5q18 0 37 -1zM518 486l-68 -421q24 -5 48 -5q31 0 60 8.5t59 27.5t48.5 58t18.5 94q0 36 -15.5 72t-34.5 61t-56.5 57t-57.5 47q-1 0 -2 1zM495 840l59 361q-7 1 -14 1q-66 0 -115 -39.5t-49 -126.5q0 -90 119 -196z" />
    <glyph glyph-name="percent" unicode="%" horiz-adv-x="1372" 
d="M374 1222q-35 0 -57.5 -20t-32.5 -56.5t-13 -69t-3 -76.5q0 -63 13.5 -120.5t46 -100.5t78.5 -43q35 0 58 19.5t33 55.5t13.5 68t3.5 75q0 63 -14 122t-47 102.5t-79 43.5zM390 1282q137 0 225.5 -85t88.5 -213q0 -127 -90.5 -218.5t-221.5 -91.5q-138 0 -226 86t-88 214
q0 127 90.5 217.5t221.5 90.5zM968 548q-35 0 -57.5 -20t-32.5 -56.5t-13 -69t-3 -76.5q0 -63 13.5 -120.5t46 -100.5t78.5 -43q35 0 58 19.5t33 55.5t13.5 68t3.5 75q0 63 -14 122t-47 102.5t-79 43.5zM984 608q137 0 225.5 -85t88.5 -213q0 -127 -90.5 -218.5
t-221.5 -91.5q-138 0 -226 86t-88 214q0 127 90.5 217.5t221.5 90.5zM1246 1270l-1032 -1280q-7 -10 -32.5 -20t-49.5 -10q-13 0 -20.5 6t-8.5 12l-1 6l1032 1280q30 26 80 26q13 0 22.5 -6t9.5 -14z" />
    <glyph glyph-name="ampersand" unicode="&#x26;" horiz-adv-x="1618" 
d="M896 1072q73 0 127.5 -45.5t54.5 -114.5t-34 -129.5t-94 -104.5t-126 -78.5t-147.5 -59.5t-140.5 -40l-36 -10q2 -178 96 -288q96 -112 252 -112q95 0 180 34t141.5 102.5t56.5 157.5q0 25 -7.5 50t-16.5 34q-126 -47 -166 -72q-70 -43 -70 -98q0 -16 4 -56
q-6 -3 -21.5 4t-26.5 16q0 1 -4 6.5t-6 9.5l-6 12.5t-6 16.5t-4 20t-2 25q0 25 2.5 45.5t10.5 39t14.5 32t23.5 29.5l27.5 25.5t36 26l40 25.5l49 29l54.5 32q50 30 85 54.5t80 67t72.5 86.5t47 109t19.5 139q21 2 50 -12q40 -30 71 -91t31 -127q0 -210 -272 -342
q16 -36 16 -76q0 -99 -49 -185.5t-128.5 -144.5t-181 -91t-207.5 -33q-78 0 -155.5 17.5t-147.5 54t-123.5 87.5t-85.5 123q-31 71 -32 153q-56 -18 -79 -30q-59 -32 -59 -85q0 -23 9.5 -38t32.5 -36q40 -37 40 -78q0 -48 -31 -78t-77 -30q-31 0 -64 10q-34 57 -34 136
q0 108 65.5 187.5t186.5 120.5l17 5q12 72 45 146q53 116 140 208t209.5 150.5t252.5 58.5zM504 582q28 10 60 24q66 29 111 62t76 87t31 119q0 42 -22 67t-52 25q-64 0 -113 -74t-72 -180q-14 -64 -19 -130z" />
    <glyph glyph-name="quotesingle" unicode="'" horiz-adv-x="362" 
d="M212 1422q55 0 76 -44q-25 -319 -46 -438q-17 -25 -52 -38q-15 0 -24 12q-5 14 -22 57.5l-24 62.5l-20 56.5t-18.5 60.5t-10.5 51.5t-5 51.5q0 68 42 118t104 50z" />
    <glyph glyph-name="parenleft" unicode="(" horiz-adv-x="940" 
d="M530 342q0 -463 187 -835q87 -172 169 -244l-24 -55q-168 90 -311 273q-279 358 -279 861q0 501 279 859q143 183 311 273l24 -55q-82 -72 -169 -244q-187 -372 -187 -833z" />
    <glyph glyph-name="parenright" unicode=")" horiz-adv-x="940" 
d="M410 342q0 461 -187 833q-87 172 -169 244l24 55q168 -90 311 -273q279 -358 279 -859q0 -503 -279 -861q-143 -183 -311 -273l-24 55q82 72 169 244q187 372 187 835z" />
    <glyph glyph-name="asterisk" unicode="*" horiz-adv-x="882" 
d="M575 1236q30 34 73.5 36.5t64.5 -20.5q26 -26 27 -63t-29 -75q-27 -31 -63.5 -45t-72 -24.5t-58.5 -32.5q-14 -16 -14 -26t16 -16q33 -15 99.5 -16.5t112.5 -21.5q41 -17 57 -57t1 -71q-16 -32 -52 -44t-80 4q-30 13 -52.5 35t-34 42t-30.5 41.5t-41 33.5q-2 1 -5.5 2.5
t-12 4.5t-10.5 -1q-6 -3 -8 -16q-4 -36 14.5 -99t13.5 -113q-4 -44 -36.5 -70.5t-65.5 -23.5q-36 6 -60 37t-20 75q5 52 47.5 108t48.5 90q2 20 -4 28q-2 5 -18 2q-35 -8 -90 -44.5t-104 -47.5q-44 -10 -78.5 12.5t-41.5 55.5q-5 36 16.5 68t65.5 42q40 9 77.5 -0.5
t73.5 -21.5t67 -8q24 2 26 12q2 6 -8 22q-18 31 -70 71.5t-78 84.5q-22 42 -11.5 81t39.5 55q29 17 68 5.5t62 -49.5q21 -36 23.5 -75t1.5 -76t13 -65q10 -20 20 -22q10 0 18 8q25 27 47 89t55 99z" />
    <glyph glyph-name="plus" unicode="+" horiz-adv-x="1084" 
d="M482 948q14 11 42 16.5t42 5.5q32 0 32 -18l-2 -402h408q8 0 13 -9t5 -19q0 -53 -28 -88h-396v-396q-33 -22 -94 -22q-9 0 -15.5 5t-6.5 11v402h-408q-12 0 -12 32q0 54 20 84h398z" />
    <glyph glyph-name="comma" unicode="," horiz-adv-x="428" 
d="M-60 -206q17 11 46.5 36t65.5 75.5t36 94.5q0 19 -11 35t-24 25.5t-24 29.5t-11 46q0 57 50.5 95.5t117.5 38.5q18 0 37 -7.5t27 -16.5q6 -15 6 -44q0 -115 -58 -222q-45 -80 -93.5 -126t-132.5 -100q-13 3 -22.5 14.5t-9.5 25.5z" />
    <glyph glyph-name="hyphen" unicode="-" horiz-adv-x="730" 
d="M144 534l454 24q12 0 12 -24q0 -23 -19 -74t-33 -52l-452 -22q-10 0 -10 30q0 21 16.5 69t31.5 49z" />
    <glyph glyph-name="period" unicode="." horiz-adv-x="434" 
d="M15 120q11 56 55.5 95t96.5 39q51 0 80.5 -39.5t19.5 -94.5q-11 -57 -54.5 -99.5t-95.5 -42.5q-53 0 -83 43t-19 99z" />
    <glyph glyph-name="slash" unicode="/" horiz-adv-x="706" 
d="M644 1457q34 0 38 -16l-517 -1814q-4 -15 -29 -28.5t-71 -13.5q-13 0 -22 3.5t-11 7.5l-3 3l517 1814q8 16 33 30t65 14z" />
    <glyph glyph-name="zero" unicode="0" horiz-adv-x="1090" 
d="M552 1166q-63 0 -106 -76.5t-62.5 -200t-19.5 -285.5q0 -231 55 -378.5t133 -147.5q47 0 81.5 45.5t54.5 127t29 182t9 223.5q0 237 -46 373.5t-128 136.5zM550 1250q90 0 169.5 -42.5t138.5 -121t93.5 -198.5t34.5 -266q0 -171 -58.5 -315.5t-159 -228.5t-218.5 -84
q-91 0 -171.5 42.5t-141.5 121t-97 198.5t-36 266q0 170 61 315.5t164 229t221 83.5z" />
    <glyph glyph-name="one" unicode="1" horiz-adv-x="1090" 
d="M446 290v674q0 65 -8.5 85.5t-33.5 20.5q-16 0 -65.5 -15t-78.5 -31q-11 6 -18.5 17t-7.5 21q0 23 4 24l214 93l179.5 79.5t64.5 27.5h4q8 0 15 -13.5t9 -24.5q-18 -58 -18 -188v-770q0 -148 16 -188q10 -27 128 -36q7 -11 6.5 -38t-6.5 -36q-136 14 -274 14t-274 -14
q-6 9 -6.5 36t6.5 38q118 9 128 36q16 40 16 188z" />
    <glyph glyph-name="two" unicode="2" horiz-adv-x="1090" 
d="M978 384q-8 -32 -27 -95l-36.5 -117.5l-36 -109.5t-20.5 -62h-728q-14 14 -18 36l104 113t115.5 127.5t88 111t108.5 154.5q116 184 116 356q0 96 -65 163t-149 67q-39 0 -75 -12.5t-62.5 -33.5t-44.5 -39t-32.5 -37t-15.5 -20q-10 0 -26 14t-16 34q15 33 46.5 72t81 81
t121.5 69.5t151 27.5q150 0 249 -89.5t99 -246.5q0 -170 -152 -348q-210 -245 -376 -396h344q18 0 34 3.5t28.5 8t25 14l21 16t18.5 21t15.5 21.5t14 24t11 23.5t10.5 24.5t10 22q6 14 28 14q25 0 40 -12z" />
    <glyph glyph-name="three" unicode="3" horiz-adv-x="1090" 
d="M576 1284q32 0 68.5 -7t79 -25.5t76 -46.5t56 -74t22.5 -103q0 -59 -26 -111.5t-65 -87t-70.5 -55t-56.5 -30.5q24 -1 56 -9.5t76 -30.5t80 -54t61 -87t25 -123q0 -102 -47.5 -189t-124 -143.5t-171 -88t-191.5 -31.5q-89 0 -160.5 22.5t-107.5 51.5q-10 12 -17 40.5
t-7 45.5q0 40 28 73t76 33q9 0 17.5 -1.5t17 -6l15 -8t15.5 -11.5t14 -12t14 -14.5t12 -13t12.5 -14.5t10.5 -13q75 -88 140 -88q92 0 140 74t48 210q0 118 -59.5 203t-156.5 85q-45 0 -112 -18q-16 20 -16 48v18q38 7 75 17.5t78 29.5t72 42.5t51 58.5t20 76
q0 95 -50.5 157.5t-137.5 62.5q-69 0 -132.5 -38.5t-87.5 -65.5q-10 3 -17 22t-7 34q63 83 158 139.5t206 56.5z" />
    <glyph glyph-name="four" unicode="4" horiz-adv-x="1090" 
d="M824 1288q11 0 31.5 -20t20.5 -36v-748h92q11 0 19.5 -26t8.5 -68q0 -13 -5 -23.5t-10 -14.5l-5 -4h-100v-340q-52 -18 -136 -18q-116 0 -116 26v332h-508q-20 10 -20 50l362 453l326 409q24 28 40 28zM624 932l-356 -448h356v448z" />
    <glyph glyph-name="five" unicode="5" horiz-adv-x="1090" 
d="M554 846q97 0 189.5 -52t151.5 -142t59 -192t-46 -192t-120 -150.5t-168 -95t-190 -34.5q-89 0 -162 23t-108 51q-10 12 -17 40.5t-7 45.5q0 40 28 73t76 33q9 0 17.5 -1.5t17 -6l15 -8t15.5 -11.5t14 -12t14 -14.5t12 -13t12.5 -14.5t10.5 -13q75 -88 142 -88
q92 0 140 74t48 210q0 86 -46 157t-108.5 107t-121.5 36q-114 0 -184 -28q-8 0 -14 14.5t-6 25.5q1 3 25.5 131l52 277t34.5 194h356q81 0 184 22q1 0 5 -1.5t6 -2.5t5.5 -3t5 -4.5t3 -7t1.5 -9.5q0 -22 -29 -92t-45 -100q-124 -12 -300 -16q-64 -2 -134 -2l-46 -234
q108 26 212 26z" />
    <glyph glyph-name="six" unicode="6" horiz-adv-x="1090" 
d="M406 654q-14 -98 -14 -212q0 -68 8.5 -129.5t27 -117.5t52.5 -89.5t80 -33.5q60 0 99 80t39 212q0 91 -17.5 161.5t-62 118.5t-112.5 48q-22 0 -51.5 -9.5t-48.5 -28.5zM594 810q76 0 139.5 -21.5t115.5 -67t81.5 -124t29.5 -183.5q0 -114 -61 -213t-158.5 -156
t-202.5 -57q-109 0 -204 69.5t-149.5 184t-54.5 242.5q0 154 66 293.5t166 244.5q81 85 179.5 145.5t177 86.5t155.5 36q21 -16 14 -52q-353 -146 -458 -478q87 50 164 50z" />
    <glyph glyph-name="seven" unicode="7" horiz-adv-x="1090" 
d="M780 1274q31 0 73 2t73 4t34 2q14 0 14 -30q0 -5 -2.5 -12.5t-8 -19.5l-10.5 -23t-15.5 -31.5t-17.5 -35.5l-544 -1146q-8 -6 -34 -6q-22 0 -55 12t-33 36q64 91 241.5 426t312.5 620h-462q-36 0 -62.5 -14t-45 -43.5t-28 -50.5t-22.5 -60q-3 -10 -24 -12q-29 -3 -48 16
q39 147 88 364z" />
    <glyph glyph-name="eight" unicode="8" horiz-adv-x="1090" 
d="M552 72q71 0 110.5 46.5t39.5 117.5q0 44 -18.5 88.5t-41 75t-60 66t-55 49l-47.5 35.5q-12 10 -18 10q-9 0 -10 -2q-64 -79 -64 -246q0 -61 15.5 -113t54 -89.5t94.5 -37.5zM536 1184q-54 0 -88 -46t-34 -114q0 -48 19 -93t49 -76t55.5 -51t48.5 -32q15 -10 24 -10
q6 0 12 6q42 63 42 204q0 49 -12.5 95.5t-43 81.5t-72.5 35zM540 1266q95 0 178.5 -31.5t139.5 -98.5t56 -158q0 -89 -64 -159.5t-158 -110.5q-3 -2 -3 -5t3 -5q28 -16 57.5 -37.5t70 -58t71 -75.5t52 -90.5t21.5 -102.5q0 -103 -63 -183.5t-159.5 -121.5t-205.5 -41
q-80 0 -150 16.5t-130 52t-95 99.5t-35 150q0 115 76.5 195t179.5 111q6 3 -4 10l-29 24.5l-35.5 29.5t-36 33t-37 40t-32 45t-28 52.5t-17.5 58.5t-7 67q0 85 57 153.5t144.5 104.5t182.5 36z" />
    <glyph glyph-name="nine" unicode="9" horiz-adv-x="1090" 
d="M684 624q14 68 14 212q0 68 -8.5 129.5t-27 117.5t-52.5 89.5t-80 33.5q-60 0 -99 -80t-39 -212q0 -91 17.5 -161.5t62 -118.5t112.5 -48q22 0 51.5 9.5t48.5 28.5zM202 40q353 146 458 478q-87 -50 -164 -50q-76 0 -139.5 21.5t-115.5 67t-81.5 124t-29.5 183.5
q0 114 61 213t158.5 156t202.5 57q109 0 204 -69.5t149.5 -184t54.5 -242.5q0 -154 -66 -293.5t-166 -244.5q-81 -85 -179.5 -145.5t-177 -86.5t-155.5 -36q-21 16 -14 52z" />
    <glyph glyph-name="colon" unicode=":" horiz-adv-x="524" 
d="M112 716q0 60 44 103t106 43t106 -45.5t44 -106.5q0 -60 -43.5 -104t-104.5 -44q-63 0 -107.5 45t-44.5 109zM112 132q0 60 44 103t106 43t106 -45.5t44 -106.5q0 -60 -43.5 -104t-104.5 -44q-63 0 -107.5 45t-44.5 109z" />
    <glyph glyph-name="semicolon" unicode=";" horiz-adv-x="508" 
d="M278 278q44 0 88 -32q28 -52 28 -130q0 -136 -81 -255t-193 -175q-15 4 -28.5 21t-13.5 27q44 28 93 88t49 124q0 18 -10 32t-24 26.5t-28 27t-24 41.5t-10 63q0 15 7 36t23 46.5t48.5 42.5t75.5 17zM98 718q0 60 45 103t107 43q60 0 101 -43t41 -103q0 -62 -41 -109
t-101 -47q-62 0 -107 47.5t-45 108.5z" />
    <glyph glyph-name="less" unicode="&#x3c;" horiz-adv-x="990" 
d="M888 90q0 -15 -12 -67.5t-20 -52.5q-2 0 -10 4l-750 380q-36 19 -36 80q0 30 36 48l746 374q8 4 10 4q12 0 34 -114q1 -5 -0.5 -9.5t-3.5 -6.5l-2 -2l-636 -310l638 -316q6 -2 6 -12z" />
    <glyph glyph-name="equal" unicode="=" horiz-adv-x="1118" 
d="M953 268h-812q-10 4 -8.5 28.5t14.5 54.5t26 35h806q12 -4 11.5 -27.5t-12.5 -53.5t-25 -37zM953 556h-812q-10 4 -8.5 28.5t14.5 54.5t26 35h806q12 -4 11.5 -27.5t-12.5 -53.5t-25 -37z" />
    <glyph glyph-name="greater" unicode="&#x3e;" horiz-adv-x="990" 
d="M102 90q0 4 2 7q0 3 2 4l2 1l638 316l-636 310l-2 2t-3 6t-1 10q22 114 34 114q2 0 10 -4l746 -374q36 -18 36 -48q0 -61 -36 -80l-750 -380q-8 -4 -10 -4q-8 0 -20 52.5t-12 67.5z" />
    <glyph glyph-name="question" unicode="?" horiz-adv-x="798" 
d="M134 132q0 62 43 104t101 42q63 0 106.5 -42.5t43.5 -103.5q0 -62 -41.5 -108t-100.5 -46q-58 0 -105 44.5t-47 109.5zM232 1036q-55 0 -89.5 40t-34.5 92q0 25 9.5 54t20.5 38q60 34 180 34q32 0 78 -9.5t105.5 -35t109.5 -63t84.5 -101.5t34.5 -143q0 -32 -7 -61.5
t-16.5 -51.5t-29 -45.5t-33 -37.5t-41 -34t-40.5 -28l-44.5 -27t-40.5 -25l-42 -25.5l-48.5 -29.5t-39.5 -29.5t-34 -35.5q-4 -6 -6.5 -14t-3 -18.5t-1 -18.5t0 -19t0.5 -14q-3 -10 -13 -23t-17 -13q-22 0 -46 24q-14 31 -27 88.5t-13 111.5q0 41 13.5 76.5t40.5 64
t49.5 46.5t56.5 41q212 140 212 220q0 36 -29 66t-79 30q-24 0 -53 -19.5t-52.5 -42.5t-55 -42.5t-59.5 -19.5z" />
    <glyph glyph-name="at" unicode="@" horiz-adv-x="1534" 
d="M892 1156q143 0 254 -45.5t179.5 -125.5t103.5 -183t35 -222q0 -150 -61 -288t-164 -222t-217 -84q-81 0 -138.5 43t-57.5 129q0 37 8 58q-38 -73 -120.5 -149.5t-163.5 -76.5q-42 0 -74 10.5t-60.5 36t-44 77t-15.5 126.5q0 142 93.5 294t238 252t282.5 100q54 0 122 -8
t96 -18l-112 -606q-6 -24 -6 -50q0 -2 -0.5 -14t0 -17.5l1.5 -17t4 -18t8 -13.5t13.5 -10.5t19.5 -3.5q38 0 83 37t84.5 96.5t66 146.5t26.5 176q0 105 -27.5 194.5t-83.5 161.5t-151.5 113t-221.5 41q-99 0 -193.5 -30.5t-170.5 -83t-140.5 -124t-108 -153t-67.5 -170.5
t-24 -175q0 -166 77 -296t193 -198q70 -41 154 -54q0 -12 -28 -26t-52 -14q-43 0 -90 18q-146 54 -248 206t-102 354q0 117 38 236t110.5 224.5t169 187.5t222 130t260.5 48zM886 778q-80 0 -146.5 -73t-102 -183t-35.5 -226q0 -53 22 -80.5t58 -27.5q64 0 123.5 98.5
t92.5 261.5l40 204q-14 16 -23.5 21t-28.5 5z" />
    <glyph glyph-name="A" unicode="A" horiz-adv-x="1240" 
d="M123 268l588 980q14 22 41 49t41 27q12 0 23 -4.5t13 -9.5l186 -1014q7 -34 14 -80t10 -64q6 -28 24.5 -47.5t42.5 -26.5t38 -9.5t25 -2.5q4 -13 -1 -40.5t-11 -33.5q-17 1 -107.5 8.5t-138.5 7.5q-38 0 -91 -3t-114 -7.5t-79 -5.5q-6 7 1 40.5t15 33.5q27 0 61 9.5
t55 26.5q21 15 24 34q2 8 -11.5 84l-27.5 148l-15 72q-4 8 -10 8q-35 2 -178 2q-128 0 -194 -2q-11 0 -16 -10l-100 -168q-63 -112 -66 -136q-3 -18 14 -32.5t42.5 -21.5t45.5 -10.5t28 -3.5q6 -10 -0.5 -38.5t-13.5 -35.5q-128 16 -198 16q-72 0 -204 -16q-5 5 -2 30.5
t12 41.5q21 0 73.5 21t68.5 43q37 49 92 140zM631 952l-236 -392q0 -8 4 -8q54 -6 152 -6q92 0 150 4q2 0 4 2l3 6l1 2z" />
    <glyph glyph-name="B" unicode="B" horiz-adv-x="1178" 
d="M524 742h96q71 0 126.5 61t77.5 171q50 266 -102 266q-83 0 -98 -24q-4 -7 -7.5 -15.5t-6.5 -22l-5 -22t-6.5 -30.5l-6.5 -32zM508 664l-86 -446q-16 -97 -8 -116q11 -24 112 -24q35 0 70.5 14.5t71.5 44.5t65 85.5t43 129.5q14 56 10.5 112t-19.5 100.5t-58 72
t-105 27.5h-96zM792 1320q54 0 103 -10.5t95 -34t75 -60t42.5 -89.5t-1.5 -122q-11 -56 -44.5 -106t-75 -83.5t-75.5 -53.5t-59 -29q-12 -7 -12 -12q29 -4 63 -19.5t69.5 -44.5t62.5 -67t38.5 -92t0.5 -113q-19 -97 -88.5 -182t-169.5 -142q-58 -33 -133 -48.5t-125 -17
t-142 -0.5h-432q-5 9 0 36.5t14 37.5q113 9 126 34q23 41 50 188l144 736q2 10 6.5 34.5t6.5 34t5 28.5t4 28t2 22.5t0.5 23t-2.5 17.5q-4 23 -114 32q-4 10 2 37.5t14 36.5q82 -6 264 -6q35 0 131.5 3t154.5 3z" />
    <glyph glyph-name="C" unicode="C" horiz-adv-x="1292" 
d="M886 1248q-98 0 -188 -53t-157.5 -145t-108 -226t-40.5 -288q0 -59 9.5 -119t34.5 -123t61.5 -111t97 -78.5t135.5 -30.5q137 0 240 86q41 34 84.5 94t66 100t27.5 54q41 0 62 -24q-5 -25 -61.5 -159.5t-74.5 -144.5q-87 -48 -181 -71t-219 -23q-113 0 -208.5 33t-161 89
t-111.5 129t-67.5 153t-21.5 162q0 145 47 272.5t126 219t180.5 158.5t211.5 99.5t217 32.5q134 0 390 -58q0 -16 -11.5 -143t-14.5 -145q-2 -10 -15 -19t-29 -9q-18 0 -24 8q-1 27 -9 59t-29.5 72.5t-52.5 72.5t-84.5 54t-120.5 22z" />
    <glyph glyph-name="D" unicode="D" horiz-adv-x="1440" 
d="M592 1094l-158 -812q-22 -130 -16 -158q4 -20 37 -33t71 -13q230 0 361.5 130t188.5 420q56 288 -43 450t-311 162q-83 0 -98 -24q-4 -7 -7.5 -15.5t-6.5 -22l-5 -22t-6.5 -30.5zM792 1320q213 0 358.5 -85.5t203.5 -241.5t18 -359q-26 -137 -84.5 -246t-138 -182
t-182 -121t-213 -69.5t-234.5 -21.5h-536q-5 9 0 36.5t14 37.5q113 9 126 34q23 41 50 188l144 736q2 10 6.5 34.5t6.5 34t5 28.5t4 28t2 22.5t0.5 23t-2.5 17.5q-4 23 -114 32q-4 10 2 37.5t14 36.5q82 -6 264 -6q45 0 147.5 2.5t138.5 3.5z" />
    <glyph glyph-name="E" unicode="E" horiz-adv-x="1144" 
d="M506 1314q45 0 309.5 6.5t298.5 7.5q-4 -67 -4 -296q-10 -10 -46 -10q-23 0 -26 16q-8 47 -17.5 79t-27 62.5t-47 45.5t-70.5 15h-154q-83 0 -98 -24q-4 -7 -7.5 -15.5t-6.5 -22l-5 -22t-6.5 -30.5l-6.5 -32l-70 -358q-1 -6 9.5 -11t28.5 -8t38 -3h98q82 0 117.5 26
t74.5 114q6 16 24 16q27 0 34 -10l-74 -384q-8 -8 -36 -8q-22 0 -22 16q-4 103 -42 122q-28 14 -138 14q-135 0 -140 -28l-60 -310q-22 -130 -16 -158q4 -19 37.5 -29.5t74.5 -10.5h124q111 0 186 66q59 52 136 190q6 12 30 12q14 0 31.5 -4t20.5 -8q-4 -7 -34.5 -65.5
l-41.5 -80.5l-33 -66.5t-35 -75.5t-22 -56q-401 0 -652 -1q-232 0 -256 -1q-5 9 0 36.5t14 37.5q113 9 126 34q23 41 50 188l144 736q2 10 6.5 34.5t6.5 34t5 28.5t4 28t2 22.5t0.5 23t-2.5 17.5q-4 23 -114 32q-4 10 2 37.5t14 36.5q82 -6 264 -6z" />
    <glyph glyph-name="F" unicode="F" horiz-adv-x="1050" 
d="M506 1314q45 0 309.5 6.5t298.5 7.5q-4 -67 -4 -296q-10 -10 -46 -10q-23 0 -26 16q-8 47 -17.5 79t-27 62.5t-47 45.5t-70.5 15h-154q-83 0 -98 -24q-4 -7 -7.5 -15.5t-6.5 -22l-5 -22t-6.5 -30.5l-6.5 -32l-72 -366q-1 -6 9.5 -11t28.5 -8t38 -3h98q82 0 117.5 26
t74.5 114q6 16 24 16q27 0 34 -10l-74 -384q-8 -8 -36 -8q-22 0 -22 16q-4 103 -42 122q-28 14 -138 14q-135 0 -140 -28l-56 -294q-2 -10 -6.5 -34.5t-6.5 -34t-5 -28.5t-4 -28t-2 -22.5t-0.5 -23t2.5 -17.5q4 -26 128 -36q4 -10 -1 -37.5t-13 -36.5q-122 14 -280 14
q-136 0 -266 -14q-5 9 1 36.5t15 37.5q112 9 126 36q23 41 50 188l144 736q2 10 6.5 34.5t6.5 34t5 28.5t4 28t2 22.5t0.5 23t-2.5 17.5q-4 23 -114 32q-4 10 2 37.5t14 36.5q82 -6 264 -6z" />
    <glyph glyph-name="G" unicode="G" horiz-adv-x="1356" 
d="M886 1334q134 0 390 -58q0 -16 -11.5 -143t-14.5 -145q-2 -10 -15 -19t-29 -9q-18 0 -24 8q-1 27 -9.5 59.5t-29.5 72.5t-52.5 72t-85 54t-119.5 22q-98 0 -188 -53t-157.5 -145t-108 -226t-40.5 -288q0 -59 9.5 -119t34.5 -123t61.5 -111t97 -78.5t135.5 -30.5
q78 0 114 26q15 11 20 34q3 13 10.5 55.5l19 103.5l18.5 99q12 60 10 102q-1 17 -16.5 29t-38.5 17t-38.5 6.5t-28.5 1.5q-4 2 -3.5 16.5t6 33.5t11.5 24q30 -1 91 -4.5t110 -5.5t91 -2q35 0 71 2t79.5 5.5t69.5 4.5q1 -19 -5 -46.5t-11 -27.5q-13 0 -45.5 -8t-48.5 -18
q-9 -6 -20.5 -32t-17.5 -54l-46 -240q-2 -10 -0.5 -32t0.5 -26q-3 -15 -27 -35.5t-47 -30.5q-88 -43 -175.5 -64.5t-208.5 -21.5q-113 0 -208.5 33t-161 89t-111.5 129t-67.5 153t-21.5 162q0 145 47 272.5t126 219t180.5 158.5t211.5 99.5t217 32.5z" />
    <glyph glyph-name="H" unicode="H" horiz-adv-x="1414" 
d="M506 1310q134 0 264 14q5 -9 0 -36.5t-14 -37.5q-112 -9 -126 -36q-26 -47 -52 -188l-54 -284l2 -6q216 -6 224 -6q14 0 218 6q6 4 6 8l52 282q2 10 6.5 34.5t6.5 34t5 28.5t4 28t2 22.5t0.5 23t-2.5 17.5q-4 27 -112 36q-4 10 1 37.5t13 36.5q122 -14 264 -14
q134 0 264 14q5 -9 0 -36.5t-14 -37.5q-112 -9 -126 -36q-26 -47 -52 -188l-142 -736q-2 -10 -6.5 -34.5t-6.5 -34t-5 -28.5t-4 -28t-2 -22.5t-0.5 -23t2.5 -17.5q4 -27 112 -36q4 -10 -1 -37.5t-13 -36.5q-122 14 -264 14q-134 0 -264 -14q-5 9 0 36.5t14 37.5
q112 9 126 36q26 47 52 188l64 330l-2 10q-136 4 -216 4q-216 0 -228 -8l-4 -8l-62 -328q-2 -10 -6.5 -34.5t-6.5 -34t-5 -28.5t-4 -28t-2 -22.5t-0.5 -23t2.5 -17.5q4 -27 112 -36q4 -10 -1 -37.5t-13 -36.5q-122 14 -264 14q-136 0 -266 -14q-5 9 1 36.5t15 37.5
q112 9 126 36q23 41 50 188l144 736q2 10 6.5 34.5t6.5 34t5 28.5t4 28t2 22.5t0.5 23t-2.5 17.5q-4 27 -112 36q-4 10 1 37.5t13 36.5q122 -14 264 -14z" />
    <glyph glyph-name="I" unicode="I" horiz-adv-x="706" 
d="M506 1310q134 0 264 14q5 -9 0 -36.5t-14 -37.5q-112 -9 -126 -36q-26 -47 -52 -188l-142 -736q-2 -10 -6.5 -34.5t-6.5 -34t-5 -28.5t-4 -28t-2 -22.5t-0.5 -23t2.5 -17.5q4 -27 112 -36q4 -10 -1 -37.5t-13 -36.5q-122 14 -264 14q-136 0 -266 -14q-5 9 1 36.5t15 37.5
q112 9 126 36q23 41 50 188l144 736q2 10 6.5 34.5t6.5 34t5 28.5t4 28t2 22.5t0.5 23t-2.5 17.5q-4 27 -112 36q-4 10 1 37.5t13 36.5q122 -14 264 -14z" />
    <glyph glyph-name="J" unicode="J" horiz-adv-x="672" 
d="M494 1310q134 0 264 14q5 -9 0 -36.5t-14 -37.5q-112 -9 -126 -36q-26 -47 -52 -188l-144 -740q-18 -94 -56 -181.5t-84.5 -155t-102.5 -127.5t-109.5 -102.5t-106.5 -76t-92 -52t-67 -27.5q-7 4 -14.5 16t-7.5 20t4 12q150 81 237 240.5t137 417.5l146 756
q2 10 6.5 34.5t6.5 34t5 28.5t4 28t2 22.5t0.5 23t-2.5 17.5q-4 27 -112 36q-4 10 1 37.5t13 36.5q122 -14 264 -14z" />
    <glyph glyph-name="K" unicode="K" horiz-adv-x="1376" 
d="M1042 282q43 -65 87 -111.5t73 -67.5t59 -32t39 -12t20 -1q4 -9 -1.5 -32t-8.5 -30q-17 -1 -38 -3.5t-39.5 -3.5t-52.5 -1q-145 0 -224.5 42.5t-153.5 153.5q-1 2 -268 420q-5 8 -18 8q-11 0 -20 -12l-60 -310q-2 -10 -6.5 -34.5t-6.5 -34t-5 -28.5t-4 -28t-2 -22.5
t-0.5 -23t2.5 -17.5q4 -27 112 -36q4 -10 -1 -37.5t-13 -36.5q-122 14 -264 14q-136 0 -266 -14q-5 9 1 36.5t15 37.5q112 9 126 36q23 41 50 188l144 736q2 10 6.5 34.5t6.5 34t5 28.5t4 28t2 22.5t0.5 23t-2.5 17.5q-4 27 -112 36q-4 10 1 37.5t13 36.5q122 -14 264 -14
q134 0 264 14q5 -9 0 -36.5t-14 -37.5q-112 -9 -126 -36q-26 -47 -52 -188l-68 -352q148 108 228 182l71.5 63.5l65.5 59l50 46.5t57 56l54 59q27 29 32 66q3 15 -7.5 25t-28.5 14t-32 5.5t-28 1.5q-4 12 -1 35t11 37q21 -1 73 -5t94.5 -6.5t72.5 -2.5q110 0 232 14
q2 -12 -3 -37t-13 -33q-151 -17 -228 -88l-450 -414q-18 -18 -10 -32l93.5 -145.5l106 -156.5z" />
    <glyph glyph-name="L" unicode="L" horiz-adv-x="1094" 
d="M434 282q-22 -130 -16 -158q4 -19 37.5 -29.5t74.5 -10.5h124q111 0 186 66q59 52 136 190q6 12 30 12q14 0 31.5 -4t20.5 -8q-4 -7 -34.5 -65.5l-41.5 -80.5l-33 -66.5t-35 -75.5t-22 -56h-644q-58 0 -118 -0.5t-99 -1t-47 -0.5q-5 9 0 36.5t14 37.5q113 9 126 34
q23 41 50 188l144 736q2 10 6.5 34.5t6.5 34t5 28.5t4 28t2 22.5t0.5 23t-2.5 17.5q-4 27 -112 36q-4 10 1 37.5t13 36.5q122 -14 264 -14q134 0 264 14q5 -9 0 -36.5t-14 -37.5q-112 -9 -126 -36q-26 -47 -52 -188z" />
    <glyph glyph-name="M" unicode="M" horiz-adv-x="1718" 
d="M483 1312q37 0 104.5 5.5t91.5 6.5q48 -205 188 -848q4 -4 6 -4q1 0 5.5 5t4.5 7q212 368 338 608q20 38 46 94l42 93l16 37q48 -6 200 -6q37 0 116.5 6.5t103.5 7.5q5 -5 3.5 -35t-9.5 -41q-16 0 -52 -6.5t-50 -15.5q-18 -12 -27 -28t-15 -54q-3 -21 -58 -354.5
t-78 -485.5q-23 -146 -14 -202q4 -18 45 -27t65 -9q8 -37 -10 -74q-16 1 -109 8.5t-141 7.5q-51 0 -164.5 -7.5t-131.5 -8.5q-4 6 1 33.5t11 40.5q28 0 75 10t61 28q22 29 30 70q2 9 5.5 30.5l8 50l6.5 41.5l118 698q1 3 2.5 10.5t2.5 17.5t-0.5 17t-6.5 7q-4 0 -12 -14
l-514 -952q-12 -21 -43 -52.5t-53 -31.5q-4 0 -16 4l-212 1046l-90.5 -405.5l-83.5 -372.5q-7 -30 -13.5 -78t-6.5 -60q1 -27 62.5 -45.5t87.5 -18.5q2 -12 -1.5 -36t-10.5 -38q-22 1 -100.5 8.5t-125.5 7.5q-48 0 -126 -7t-110 -9q-3 11 1 34t11 38q31 0 92 19t80 53
q8 13 28 78t28 98l68.5 291l84 361.5t45.5 197.5q4 30 -2 44q-7 15 -46.5 29.5t-65.5 14.5q-5 10 2 40t12 34q29 -1 90 -6.5t110 -5.5z" />
    <glyph glyph-name="N" unicode="N" horiz-adv-x="1430" 
d="M441 1310q97 0 206 14q14 -55 64.5 -158t101.5 -193.5l139.5 -245.5l130.5 -231q5 11 20 82l72 374q40 218 30 256q-5 23 -56 33.5t-86 10.5q-1 2 -0.5 15t4.5 32t10 27q32 -2 104 -9t120 -7q47 0 131.5 7.5t106.5 8.5q2 -11 -3.5 -37t-16.5 -39q-17 0 -44 -2t-67 -13.5
t-51 -30.5q-10 -21 -33.5 -106t-34.5 -140l-132 -680q-15 -82 -46 -280q-8 -8 -48 -8q-23 0 -48 46l-564 1002l-140 -724q-10 -53 -15.5 -112.5t-2.5 -81.5q4 -24 60.5 -38t83.5 -14q5 -13 -0.5 -38t-11.5 -38q-21 1 -103 8.5t-129 7.5q-48 0 -122.5 -7t-107.5 -9
q-3 8 0.5 26.5t8.5 33t7 14.5q29 0 86.5 14.5t71.5 37.5t33 84.5t29 117.5l78.5 406.5l59.5 301.5q15 84 14 116.5t-14 63.5q-8 17 -49.5 29.5t-64.5 12.5q-4 2 -4.5 16.5t4 33.5t10.5 24q16 -1 55.5 -5t77 -6.5t75.5 -2.5z" />
    <glyph glyph-name="O" unicode="O" horiz-adv-x="1410" 
d="M804 1248q-80 0 -149 -47.5t-117.5 -125t-83.5 -177t-51.5 -204.5t-16.5 -206q0 -89 15 -163.5t46 -133.5t83.5 -92t121.5 -33q97 0 178.5 71t132.5 183t79 242.5t28 257.5q0 119 -28 213.5t-89.5 154.5t-148.5 60zM848 1334q118 0 217 -49t161.5 -128.5t97 -176
t34.5 -194.5q0 -148 -48 -279.5t-127 -226t-179 -163.5t-206.5 -103t-207.5 -34q-137 0 -250.5 74.5t-177.5 198.5t-64 269q0 144 46 275t123 227t174 167t202 107t205 36z" />
    <glyph glyph-name="P" unicode="P" horiz-adv-x="1114" 
d="M1146 930q-17 -86 -67.5 -156.5t-119 -113t-143.5 -65.5t-148 -23q-52 0 -94 30q-6 4 -13 21t-7 25q0 6 3.5 10t6.5 4q24 -8 60 -8q71 0 146 75.5t94 172.5q26 138 -13 238t-129 100q-83 0 -98 -24q-4 -7 -7.5 -15.5t-6.5 -22l-5 -22t-6.5 -30.5l-6.5 -32l-156 -804
q-2 -10 -6.5 -34.5t-6.5 -34t-5 -28.5t-4 -28t-2 -22.5t-0.5 -23t2.5 -17.5q4 -27 112 -36q4 -10 -1 -37.5t-13 -36.5q-122 14 -264 14q-136 0 -266 -14q-5 9 1 36.5t15 37.5q112 9 126 36q23 41 50 188l144 736q2 10 6.5 34.5t6.5 34t5 28.5t4 28t2 22.5t0.5 23t-2.5 17.5
q-4 23 -114 32q-4 10 2 37.5t14 36.5q82 -6 264 -6q35 0 132 3t156 3q175 0 279 -115t73 -275z" />
    <glyph glyph-name="Q" unicode="Q" horiz-adv-x="1412" 
d="M850 1334q118 0 217 -49t161.5 -128.5t97 -176t34.5 -194.5q0 -124 -32.5 -235t-86 -193.5t-125.5 -151t-147.5 -113t-156.5 -73.5l85.5 -51t84 -49t71.5 -32.5t92 -26.5t101 -7q53 0 102 14q25 0 38 -20q-34 -28 -138.5 -78t-177.5 -50q-60 0 -119.5 17.5t-116 47.5
t-109.5 62.5t-123 71.5t-134 65q-173 72 -270.5 214.5t-97.5 323.5q0 144 46 275t123 227t174 167t202 107t205 36zM806 1248q-80 0 -149 -47.5t-117.5 -125t-83.5 -177t-51.5 -204.5t-16.5 -206q0 -89 15 -163.5t46 -133.5t83.5 -92t121.5 -33q97 0 178.5 71t132.5 183
t79 242.5t28 257.5q0 119 -28 213.5t-89.5 154.5t-148.5 60z" />
    <glyph glyph-name="R" unicode="R" horiz-adv-x="1290" 
d="M506 1314q35 0 132 3t156 3q177 0 270 -110.5t58 -293.5q-12 -61 -54 -114.5t-95.5 -87t-99.5 -54t-81 -28.5l58 -117.5l46 -93t37 -68t57 -93.5q38 -60 85 -103.5t87 -63.5t67.5 -28.5t42.5 -8.5q4 -12 1 -35.5t-5 -28.5q-19 -1 -35.5 -3.5t-32.5 -3.5t-50 -1
q-87 0 -157 17t-109.5 37.5t-73 56t-44 54t-26.5 49.5l-190 370q-14 30 -28 30h-26l-60 -308q-2 -10 -6.5 -34.5t-6.5 -34t-5 -28.5t-4 -28t-2 -22.5t-0.5 -23t2.5 -17.5q4 -27 112 -36q4 -10 -1 -37.5t-13 -36.5q-122 14 -264 14q-136 0 -266 -14q-5 9 1 36.5t15 37.5
q112 9 126 36q23 41 50 188l144 736q2 10 6.5 34.5t6.5 34t5 28.5t4 28t2 22.5t0.5 23t-2.5 17.5q-4 23 -114 32q-4 10 2 37.5t14 36.5q82 -6 264 -6zM510 676h86q84 0 150 55.5t96 164.5q16 57 19.5 115t-7 110.5t-44.5 85.5t-88 33q-83 0 -98 -24q-4 -7 -7.5 -15.5
t-6.5 -22l-5 -22t-6.5 -30.5l-6.5 -32z" />
    <glyph glyph-name="S" unicode="S" horiz-adv-x="988" 
d="M664 1340q39 0 81 -6t68 -11.5t78.5 -19.5t74.5 -19q-16 -145 -44 -332q-12 -12 -24 -12q-52 0 -52 14q3 62 -13.5 128.5t-63 120t-113.5 53.5q-64 0 -119 -41t-73 -133q-7 -36 4 -74t29.5 -67.5t53.5 -67t58.5 -58l62.5 -53.5q84 -70 101 -86q99 -98 102 -226
q1 -47 -9 -100q-20 -106 -96 -192.5t-177.5 -132t-204.5 -45.5q-147 0 -344 52q-1 60 7 175.5t15 164.5q7 8 29.5 18t30.5 10q20 0 20 -16q-2 -43 12.5 -96t42.5 -104t77 -85.5t108 -34.5q78 0 138 47t80 147q7 37 -3 75.5t-27 67t-49.5 63.5t-53.5 53l-55 47l-24 20
q-92 78 -122 112q-93 106 -78 246q2 18 6 36q19 99 94.5 184t175.5 131.5t196 46.5z" />
    <glyph glyph-name="T" unicode="T" horiz-adv-x="1192" 
d="M728 1314h328q59 0 101 9.5t65 19t34 9.5q13 0 22 -6l-22 -368q-4 -4 -24 -9t-32 -5q-16 0 -16 10q5 100 -38 176t-112 76h-174l-182 -936q-2 -10 -6.5 -34.5t-6.5 -34t-5 -28.5t-4 -28t-2 -22.5t-0.5 -23t2.5 -17.5q4 -27 112 -36q4 -10 -1 -37.5t-13 -36.5
q-122 14 -262 14q-136 0 -266 -14q-5 9 0 36.5t14 37.5q112 9 126 36q26 47 52 188l182 936h-174q-69 0 -141.5 -76t-106.5 -176q-5 -10 -20 -10q-12 0 -29.5 5t-20.5 9l120 368q12 6 24 6q11 0 30.5 -9.5t58 -19t97.5 -9.5h290z" />
    <glyph glyph-name="U" unicode="U" horiz-adv-x="1384" 
d="M469 1310q135 0 264 14q5 -9 0 -36.5t-14 -37.5q-112 -9 -126 -36q-26 -47 -52 -188l-70 -366q-11 -60 -17 -98t-10.5 -83t-2.5 -84t10 -77q39 -192 246 -192q58 0 115.5 28.5t112 85.5t99 154.5t69.5 223.5l66 340q34 183 22 244q-8 38 -130 48q-4 10 1 37.5t13 36.5
q151 -14 230 -14q47 0 122 6.5t98 7.5q5 -9 0 -36.5t-14 -37.5q-131 -11 -152 -48q-17 -30 -39.5 -104t-34.5 -138l-76 -388q-29 -148 -93 -263.5t-149 -185.5t-182 -105.5t-200 -35.5q-121 0 -215.5 44.5t-142.5 131.5q-77 139 -18 444l82 424q2 10 6.5 34.5t6.5 34t5 28.5
t4 28t2 22.5t0.5 23t-2.5 17.5q-4 27 -112 36q-4 10 1 37.5t13 36.5q123 -14 264 -14z" />
    <glyph glyph-name="V" unicode="V" horiz-adv-x="1254" 
d="M394 1310q136 0 266 14q5 -9 -1 -36.5t-15 -37.5q-1 0 -10 -0.5t-14.5 -1t-16 -2t-18 -3.5l-17.5 -4.5t-17 -6.5t-14 -9t-11 -12t-6 -15q-8 -40 16 -150l146 -674l376 670l20.5 39.5t23 45.5t16.5 38t12 37q6 36 -140 48q-4 10 2 37.5t14 36.5q150 -14 218 -14
q47 0 115.5 6.5t94.5 7.5q5 -9 0 -36.5t-14 -37.5q-2 0 -13.5 -1t-19.5 -1.5t-21.5 -2.5t-24 -4.5t-22 -6t-20.5 -8.5t-15 -12q-40 -44 -110 -166l-576 -988q-16 -26 -52.5 -54t-53.5 -28q-7 0 -10.5 3t-6 12.5t-3.5 12.5l-208 1014q-4 21 -11.5 56.5l-13 62.5t-9.5 45
q-8 34 -44.5 48.5t-69.5 17.5q-4 10 2 37.5t14 36.5q122 -14 262 -14z" />
    <glyph glyph-name="W" unicode="W" horiz-adv-x="1754" 
d="M399 1310q135 0 264 14q5 -9 0 -36.5t-14 -37.5q-120 -10 -120 -78q0 -39 12 -126l76 -544l392 748q16 30 37 52t35 22q10 0 16 -32l150 -864l302 614l19 40.5l21.5 44.5t16.5 38.5t11 36.5q6 36 -136 48q-4 10 2 37.5t14 36.5q151 -14 218 -14q47 0 117 6.5t95 7.5
q5 -9 -1 -36.5t-15 -37.5q-2 0 -13.5 -1t-19.5 -1.5t-21.5 -2.5t-24 -4.5t-22 -6t-20.5 -8.5t-15 -12q-64 -71 -110 -166l-492 -968q-20 -38 -49 -70t-45 -32q-18 0 -30 28l-146 830l-382 -748q-17 -32 -44.5 -71t-41.5 -39q-18 0 -30 28l-138 1014q-3 31 -22 160
q-3 18 -19 32.5t-38 22t-38 11t-29 4.5q-6 10 0 37t14 37q123 -14 264 -14z" />
    <glyph glyph-name="X" unicode="X" horiz-adv-x="1318" 
d="M478 1312q42 0 270 12q2 -11 -4.5 -42.5t-13.5 -31.5q-28 0 -64.5 -11t-41.5 -31q-4 -24 6 -44l142 -336l111 117.5l128.5 137.5t68.5 85q8 11 8 20q4 25 -35 43.5t-89 18.5q-4 2 -4 16.5t5 33.5t11 24q112 -14 244 -14q128 0 226 14q3 -10 -3 -42t-13 -32q-18 0 -44 -4
t-82.5 -30t-101.5 -72l-398 -406l162 -376.5t98 -209.5q26 -45 80 -65.5t88 -20.5q3 -14 -1 -38t-13 -36q-222 12 -296 12q-46 0 -94.5 -2t-106.5 -5.5t-95 -4.5q-6 7 2 40.5t16 33.5q24 0 68 16.5t48 39.5q3 8 -2 22l-170 402q-272 -303 -330 -380q-19 -26 -22 -34
q-7 -32 41 -49t101 -17q5 -10 2 -34t-10 -40q-180 12 -244 12q-43 0 -83.5 -2t-86.5 -5.5t-70 -4.5q-5 9 0 36.5t14 37.5q12 0 31 2.5t54 10t72 28.5t63 51l426 486l-176 430q-52 128 -72 146q-15 13 -56.5 21.5t-65.5 8.5q-4 2 -3.5 16.5t6 33.5t11.5 24q270 -12 288 -12z
" />
    <glyph glyph-name="Y" unicode="Y" horiz-adv-x="1152" 
d="M382 290l54 278q2 15 -4 40q-12 50 -48 166q-34 116 -64 208l-30 92q-28 88 -36 110q-12 32 -48 47.5t-66 18.5q-4 10 1 37.5t13 36.5q122 -14 264 -14q134 0 264 14q5 -9 0 -36.5t-14 -37.5q-1 0 -10 -0.5t-14.5 -1t-16 -2t-18 -3.5l-17.5 -4.5t-17 -6.5t-14 -9t-11 -12
t-6 -15q-1 -2 8 -32l136 -442q2 -2 18 17t44 56.5l58.5 79l69.5 96.5l67.5 96l62.5 89q15 24 18 46q6 37 -128 48q-4 10 1 37.5t13 36.5q150 -14 206 -14q47 0 117 6.5t95 7.5q5 -9 0 -36.5t-14 -37.5q-1 0 -11.5 -1t-16.5 -1.5t-19.5 -2t-22.5 -4l-21.5 -6t-22 -8.5
t-18.5 -12t-16 -15q-53 -64 -229.5 -295t-226.5 -309q-15 -21 -18 -38l-52 -268q-30 -146 -22 -188q4 -27 112 -36q4 -10 -1 -37.5t-13 -36.5q-122 14 -264 14q-134 0 -264 -14q-5 9 0 36.5t14 37.5q112 9 126 36q10 19 20 52t14.5 53.5z" />
    <glyph glyph-name="Z" unicode="Z" horiz-adv-x="1216" 
d="M582 1220q-32 0 -60.5 -4.5t-53 -16.5l-43 -21.5t-38 -31t-31 -33t-28.5 -40.5t-23 -40l-23.5 -44l-21.5 -41q-8 -12 -26 -12q-45 0 -52 10q107 283 140 378q18 -5 113 -9.5t129 -4.5l260 2q208 3 436 20q6 -1 7.5 -26t-1.5 -40q-3 -7 -241 -300l-475 -582l-236 -290h402
q111 0 190 70q67 58 132 176q6 12 28 12q14 0 32.5 -4t21.5 -8l-82 -162t-84 -176l-956 -2q-11 0 -22.5 9.5t-16.5 20t-1 14.5l966 1176h-342z" />
    <glyph glyph-name="bracketleft" unicode="[" horiz-adv-x="740" 
d="M258 1460q246 0 410 32q8 0 11 -11q1 -4 1 -7q0 -14 -18 -50q-1 -2 -2 -2q-39 -20 -185 -46q-28 -5 -41 -8v-2060q15 -3 54 -10q119 -20 172 -44q11 -5 17 -30q3 -12 3 -22q-1 -15 -12 -18q-166 32 -410 32q-31 2 -37 36q-1 5 -1 10v2152q0 32 29 44q5 2 9 2z" />
    <glyph glyph-name="backslash" unicode="\" horiz-adv-x="706" 
d="M62 1457q40 0 65 -14t33 -30l517 -1814l-3 -3q-2 -4 -11 -7.5t-22 -3.5q-46 0 -71 13.5t-29 28.5l-517 1814q4 16 38 16z" />
    <glyph glyph-name="bracketright" unicode="]" horiz-adv-x="740" 
d="M482 1460q4 0 9 -2q29 -12 29 -44v-2152q0 -5 -1 -10q-6 -34 -37 -36q-244 0 -410 -32q-11 3 -12 18q0 10 3 22q6 25 17 30q53 24 172 44q39 7 54 10v2060q-13 3 -41 8q-146 26 -185 46q-1 0 -2 2q-18 36 -18 50q0 3 1 7q3 11 11 11q164 -32 410 -32z" />
    <glyph glyph-name="asciicircum" unicode="^" horiz-adv-x="782" 
d="M372 1338q24 0 40 -28l81 -144.5l87.5 -153.5t85.5 -138q0 -15 -12.5 -25.5t-25.5 -10.5q-52 48 -116 116l-102 114l-38 44q-140 -166 -256 -274q-14 0 -27 10.5t-13 25.5l75 119.5l53 89l65 113.5l65 114q16 28 38 28z" />
    <glyph glyph-name="underscore" unicode="_" horiz-adv-x="948" 
d="M-71 -70q1 4 2 11t6 25t10 32t12.5 25t15.5 11h836q4 0 4 -16q0 -31 -30 -96q-3 -5 -7.5 -8.5t-7.5 -3.5h-3h-828h-1.5t-3 1t-3.5 3t-2.5 6t0.5 10z" />
    <glyph glyph-name="grave" unicode="`" horiz-adv-x="404" 
d="M346 980q-23 5 -98.5 42t-151.5 88.5t-76 83.5q0 37 30 59.5t60 22.5q48 0 62 -14q41 -38 114 -139t78 -119q-2 -14 -18 -24z" />
    <glyph glyph-name="a" unicode="a" horiz-adv-x="978" 
d="M636 898q50 0 114.5 -12t99.5 -24l-124 -598q-8 -32 -8 -66q0 -16 7 -29t21 -13q28 0 80.5 52t61.5 70q9 0 18.5 -21t9.5 -33q-19 -35 -72 -90t-124.5 -102.5t-121.5 -47.5q-55 0 -89.5 34t-34.5 98q0 10 4 38q2 12 8 38q-39 -68 -125 -137t-167 -69t-126.5 69t-45.5 175
q0 129 60.5 254.5t151.5 214.5t199 144t203 55zM524 788q-66 0 -124.5 -71.5t-92 -183.5t-33.5 -229q0 -142 72 -142q50 0 113.5 124.5t94.5 275.5l40 202q-21 24 -70 24z" />
    <glyph glyph-name="b" unicode="b" horiz-adv-x="930" 
d="M560 722q-65 0 -141 -125.5t-103 -262.5q-12 -61 -13.5 -116.5t14 -97.5t49.5 -42q60 0 120 92t95 214.5t35 219.5q0 118 -56 118zM380 672q47 73 146 149.5t166 76.5q85 0 133.5 -58t48.5 -166q0 -135 -57.5 -265t-143 -220t-185.5 -145.5t-186 -55.5q-97 0 -164.5 62.5
t-67.5 163.5q0 54 12 110l156 796q18 81 18 106q0 38 -122 38q-4 6 -1 29t9 29q77 7 200 32t160 38q12 -7 12 -38q0 -25 -26 -150z" />
    <glyph glyph-name="c" unicode="c" horiz-adv-x="754" 
d="M532 898q56 0 105 -13.5t71 -30.5q30 -45 30 -100q0 -46 -34 -84t-78 -38q-63 0 -102 74l-6 12t-7.5 13.5t-7.5 13t-8.5 14l-9.5 12t-11 11.5t-11 8t-13 6t-14 2q-36 0 -72 -70t-59 -177.5t-23 -210.5q0 -99 31 -142.5t93 -43.5q13 0 27.5 3.5t27.5 9t27 13.5t25.5 16.5
l24 18t21.5 18.5t18 17t15 14t10 11l4 5q11 0 18.5 -19.5t7.5 -32.5q-14 -21 -49 -57.5t-85 -79t-112.5 -73t-115.5 -30.5q-97 0 -168.5 71t-71.5 203q0 152 75 301t192.5 242t234.5 93z" />
    <glyph glyph-name="d" unicode="d" horiz-adv-x="974" 
d="M574 706q0 82 -52 82q-66 0 -124.5 -71.5t-92 -183.5t-33.5 -229q0 -142 72 -142q33 0 78 66.5t81.5 160.5t48.5 173q22 118 22 144zM664 1120q2 12 7 36.5t8 42t3 27.5q0 38 -122 38q-4 6 -1 29t9 29q77 7 200 32t160 38q12 -7 12 -38q0 -25 -26 -150l-190 -940
q-8 -32 -8 -66q0 -16 7 -29t21 -13q28 0 80.5 52t61.5 70q9 0 18.5 -21t9.5 -33q-19 -35 -72 -90t-124.5 -102.5t-121.5 -47.5q-67 0 -100 48q-24 36 -24 84q0 28 12 76q-39 -68 -125 -137t-167 -69t-126.5 69t-45.5 175q0 120 53.5 238.5t136.5 206t183 147.5t193 74
q12 2 34 2z" />
    <glyph glyph-name="e" unicode="e" horiz-adv-x="788" 
d="M536 898q41 0 78 -9.5t70.5 -29.5t53.5 -57.5t20 -87.5q0 -72 -56 -138.5t-135 -108.5t-156 -66.5t-127 -24.5q-4 -12 -4 -50q0 -31 5.5 -58.5t18 -54.5t37.5 -43t61 -16q14 0 30 4t31 11.5t30 16.5t28.5 20l25.5 21t22.5 20.5t16.5 17.5t12 13l6 6q12 0 21 -23.5
t9 -36.5q-11 -18 -52.5 -56t-95.5 -78.5t-117 -71t-107 -30.5q-107 0 -168.5 77t-61.5 215q0 108 46.5 221t118.5 199.5t163.5 142t175.5 55.5zM290 452q29 0 68.5 25.5t75.5 65.5t61 95t25 108q0 78 -52 78q-34 0 -66.5 -43t-55 -105t-37.5 -122t-19 -102z" />
    <glyph glyph-name="f" unicode="f" horiz-adv-x="636" 
d="M686 1390q47 0 88 -11t60 -25q18 -29 18 -66q0 -39 -21.5 -68.5t-54.5 -29.5q-49 0 -84 48q-1 1 -6 8.5t-6.5 9.5l-6.5 9t-7.5 9t-7.5 7t-9 7t-9 5t-10.5 4t-11.5 1q-44 0 -74.5 -95.5t-81.5 -354.5h200q10 0 10 -24q0 -33 -22 -68h-206q-62 -388 -110 -640
q-23 -118 -74.5 -223.5t-114.5 -176t-132 -111.5t-129 -41q-47 0 -88 11t-60 25q-18 29 -18 66q0 39 21.5 68.5t54.5 29.5q49 0 84 -48q1 -1 6 -8.5t6.5 -9.5l6.5 -9t7.5 -9t7.5 -7t9 -7t9 -5t10.5 -4t11.5 -1q45 0 67 63.5t57 249.5l26 139l112 648h-130q-4 0 -4 6
q0 18 32.5 52t63.5 34h54q23 117 79 222t123 173t135 107.5t119 39.5z" />
    <glyph glyph-name="g" unicode="g" horiz-adv-x="888" 
d="M548 -226q0 38 -58 80t-123.5 69t-136.5 49q-57 -30 -84.5 -62.5t-27.5 -77.5q0 -92 64.5 -140t161.5 -48q42 0 87.5 13.5t81 44.5t35.5 72zM470 838q-46 2 -83 -42t-55.5 -108t-21.5 -134q-3 -82 17 -138.5t71 -59.5q63 -3 111 75t51 173q2 39 -1.5 76.5t-12.5 74
t-28.5 59.5t-47.5 24zM728 788q0 -1 4.5 -6.5t8 -10.5t9 -15t9.5 -19.5t9 -23t8.5 -27.5t5.5 -32t2 -36q0 -66 -28.5 -125.5t-74.5 -101t-88.5 -68t-84.5 -43.5q-13 -5 -55 -17t-59.5 -23t-17.5 -30q0 -16 39 -33.5t95 -37.5t112 -47t95 -71.5t39 -100.5q0 -146 -150 -259
t-364 -113q-161 0 -258.5 66.5t-97.5 165.5q0 38 17.5 71t43 55t62 41.5t66 31t65.5 23.5l18 6q-76 34 -90 48q-3 3 -9 8t-8.5 8t-6 8.5t-5 13t-1.5 18.5q0 35 106 96.5t184 79.5q-107 28 -176.5 92.5t-69.5 173.5q0 148 108 255t256 107q81 0 190 -48q8 -4 44 2.5
t78.5 16.5t49.5 11q25 -8 63.5 -33t38.5 -41q0 -11 -10.5 -23.5t-21.5 -12.5h-150z" />
    <glyph glyph-name="h" unicode="h" horiz-adv-x="1008" 
d="M494 1204q-110 -558 -114 -576l-16 -80q31 69 91 150t130 140.5t117 59.5q81 0 112.5 -42t31.5 -132q0 -50 -40 -258l-38 -202q-8 -32 -8 -66q0 -16 7 -29t21 -13q28 0 80.5 52t61.5 70q9 0 18.5 -21t9.5 -33q-19 -35 -72 -90t-124.5 -102.5t-121.5 -47.5q-54 0 -90 35
t-36 107q0 48 18 120l46 238q5 20 14.5 79t9.5 73q0 17 -8.5 29.5t-23.5 12.5q-29 0 -82 -69.5t-107.5 -188t-80.5 -238.5l-40 -182q-40 -12 -112 -12q-70 0 -118 12q197 1017 214 1120q18 86 18 106q0 38 -122 38q-4 6 -1 29t9 29q77 7 200 32t160 38q12 -7 12 -38
q0 -29 -26 -150z" />
    <glyph glyph-name="i" unicode="i" horiz-adv-x="620" 
d="M212 618q10 40 10 66q0 15 -8 28.5t-22 13.5q-28 0 -80.5 -52t-61.5 -70q-9 0 -18.5 21t-9.5 33q33 62 135.5 151t174.5 89q61 0 97.5 -37t36.5 -105q0 -30 -18 -120l-74 -372q-8 -32 -8 -66q0 -16 7 -29t21 -13q28 0 80.5 52t61.5 70q9 0 18.5 -21t9.5 -33
q-19 -35 -72 -90t-124.5 -102.5t-121.5 -47.5q-54 0 -90 35t-36 107q0 48 18 120zM426 1374q51 0 83.5 -35.5t32.5 -88.5q0 -67 -47 -118.5t-109 -51.5q-50 0 -83 36.5t-33 89.5q0 66 46.5 117t109.5 51z" />
    <glyph glyph-name="j" unicode="j" horiz-adv-x="572" 
d="M232 618q10 40 10 66q0 15 -8 28.5t-22 13.5q-28 0 -80.5 -52t-61.5 -70q-9 0 -18.5 21t-9.5 33q33 62 135.5 151t174.5 89q61 0 97.5 -37t36.5 -105q0 -30 -18 -120l-76 -396q-23 -119 -65 -210t-109 -180q-59 -78 -192.5 -175t-183.5 -111q-7 0 -12.5 14.5t-5.5 29.5
q153 118 218 239.5t110 352.5zM472 1378q50 0 83 -36.5t33 -89.5q0 -67 -47 -118.5t-109 -51.5q-50 0 -83 36.5t-33 89.5q0 67 47 118.5t109 51.5z" />
    <glyph glyph-name="k" unicode="k" horiz-adv-x="1006" 
d="M752 898q164 0 164 -144q0 -47 -32 -94t-84.5 -84.5t-110 -66.5t-117.5 -49q15 -43 35.5 -88t48.5 -95t61 -81.5t63 -31.5q22 0 53.5 25t50.5 47t32 40q13 0 20.5 -19.5t7.5 -32.5q-20 -53 -121 -142.5t-181 -89.5q-44 0 -86.5 31.5t-73.5 76.5t-60.5 106.5t-47 110
t-32.5 99.5l-82 -416q-40 -12 -112 -12q-70 0 -118 12q197 1017 214 1120q18 86 18 106q0 38 -122 38q-4 6 -1 29t9 29q77 7 200 32t160 38q12 -7 12 -38q0 -29 -26 -150l-98 -522q10 22 43 56.5t80 71t110.5 62.5t122.5 26zM602 748q-41 0 -87.5 -32.5t-79.5 -75.5t-55 -84
t-22 -60q64 0 132.5 24t118 68.5t49.5 95.5q0 22 -13 43t-43 21z" />
    <glyph glyph-name="l" unicode="l" horiz-adv-x="566" 
d="M250 1120q2 12 7 36.5t8 42t3 27.5q0 38 -122 38q-4 6 -1 29t9 29q77 7 200 32t160 38q12 -7 12 -38q0 -25 -26 -150l-184 -940q-8 -48 -8 -66q0 -16 7 -29t21 -13q28 0 80.5 52t61.5 70q9 0 18.5 -21t9.5 -33q-19 -35 -72 -90t-124.5 -102.5t-121.5 -47.5q-54 0 -90 35
t-36 107q0 48 18 120z" />
    <glyph glyph-name="m" unicode="m" horiz-adv-x="1510" 
d="M1034 246l52 238q5 20 14.5 79t9.5 73q0 17 -8.5 29.5t-23.5 12.5q-29 0 -82 -69.5t-107.5 -188t-80.5 -238.5l-40 -182q-40 -12 -112 -12q-70 0 -118 12l104 484q5 20 14.5 79t9.5 73q0 17 -8.5 29.5t-23.5 12.5q-29 0 -82 -69.5t-107.5 -188t-80.5 -238.5l-40 -182
q-40 -12 -112 -12q-70 0 -118 12l118 618q10 40 10 66q0 15 -8 28.5t-22 13.5q-28 0 -80.5 -52t-61.5 -70q-9 0 -18.5 21t-9.5 33q33 62 135.5 151t174.5 89q61 0 97.5 -37t36.5 -105q0 -30 -18 -120l-20 -88q31 69 91 150t130 140.5t117 59.5q81 0 112.5 -42t31.5 -132
q0 -46 -14 -130q61 110 156 207t158 97q81 0 112.5 -42t31.5 -132q0 -26 -5 -65.5t-10.5 -69.5t-14 -72t-10.5 -51l-21 -95t-23 -107q-8 -40 -8 -66q0 -16 7 -29t21 -13q28 0 80.5 52t61.5 70q9 0 18.5 -21t9.5 -33q-19 -35 -72 -90t-124.5 -102.5t-121.5 -47.5
q-54 0 -90 35t-36 107q0 48 18 120z" />
    <glyph glyph-name="n" unicode="n" horiz-adv-x="1072" 
d="M448 636q-2 -11 -7 -33l-9 -39t-4 -16q31 69 91 150t130 140.5t117 59.5q81 0 112.5 -42t31.5 -132q0 -50 -40 -258l-38 -202q-8 -32 -8 -66q0 -16 7 -29t21 -13q28 0 80.5 52t61.5 70q9 0 18.5 -21t9.5 -33q-19 -35 -72 -90t-124.5 -102.5t-121.5 -47.5q-54 0 -90 35
t-36 107q0 48 18 120l46 238q5 20 14.5 79t9.5 73q0 17 -8.5 29.5t-23.5 12.5q-29 0 -82 -69.5t-107.5 -188t-80.5 -238.5l-40 -182q-40 -12 -112 -12q-70 0 -118 12l118 618q10 40 10 66q0 15 -8 28.5t-22 13.5q-28 0 -80.5 -52t-61.5 -70q-9 0 -18.5 21t-9.5 33
q33 62 135.5 151t174.5 89q61 0 97.5 -37t36.5 -105q0 -30 -18 -120z" />
    <glyph glyph-name="o" unicode="o" horiz-adv-x="910" 
d="M524 818q-53 0 -100.5 -57.5t-78 -144.5t-48 -184t-17.5 -182q0 -182 68 -182q70 0 128.5 97.5t87 223.5t28.5 235q0 24 -0.5 38t-2 41t-6 43.5t-11.5 35t-19.5 27.5t-28.5 9zM546 898q66 0 117 -14.5t92.5 -48t64 -94.5t22.5 -147q0 -140 -81 -282.5t-204.5 -233
t-240.5 -90.5q-128 0 -207 78t-79 218t78.5 284.5t199.5 237t238 92.5z" />
    <glyph glyph-name="p" unicode="p" horiz-adv-x="992" 
d="M602 730q-80 0 -164 -84l-70 -348q-21 -116 -8 -168t54 -52q50 0 101 57.5t86 139.5t57 170.5t22 152.5q0 132 -78 132zM742 898q93 0 144.5 -67t51.5 -175q0 -121 -56.5 -245t-142 -215t-188.5 -148.5t-193 -57.5q-32 0 -54 10l-52 -252q-6 -27 -6 -56q0 -11 7.5 -26.5
t20.5 -19.5q26 -6 94 -6q6 -1 2.5 -30t-10.5 -32q-14 0 -37 1t-33 1q-245 0 -394 -18q-7 2 -5.5 30.5t9.5 33.5q54 0 80 32q18 24 32 86l150 720l-96 -96q-14 18 -14 54q0 31 30 56l102 96l60 314q37 10 122 10q22 0 62.5 -4.5t53.5 -11.5q-7 -40 -28 -136q49 54 133.5 103
t154.5 49z" />
    <glyph glyph-name="q" unicode="q" horiz-adv-x="908" 
d="M714 -422q-14 0 -81.5 1t-80.5 1q-119 0 -304 -20q-4 3 -2 33.5t10 30.5q48 5 82.5 26t41.5 58l88 460q-40 -64 -119.5 -123t-158.5 -59q-82 0 -125 72.5t-43 169.5q0 118 55.5 240.5t143 216.5t201 153.5t222.5 59.5q122 0 194 -44l-110 -576l-104 -544q-4 -28 -4 -42
q0 -27 20.5 -40.5t81.5 -13.5q4 -2 4 -14t-3.5 -27.5t-8.5 -18.5zM574 682q2 19 2 42.5t-13.5 43.5t-38.5 20q-65 0 -123.5 -70.5t-92.5 -180t-34 -223.5q0 -77 20 -114.5t48 -37.5q51 0 117.5 125.5t92.5 262.5q12 66 22 132z" />
    <glyph glyph-name="r" unicode="r" horiz-adv-x="864" 
d="M750 898q40 0 60.5 -5.5t49.5 -20.5q32 -40 32 -88q0 -67 -35.5 -105.5t-80.5 -38.5q-18 0 -33.5 5.5t-35.5 17.5t-23 13q-4 2 -12 6.5t-11 5.5t-11 2.5t-20 1.5q-29 0 -81 -73t-105 -195t-80 -242l-40 -182q-40 -12 -112 -12q-70 0 -118 12l118 618q10 40 10 66
q0 15 -8 28.5t-22 13.5q-28 0 -80.5 -52t-61.5 -70q-9 0 -18.5 21t-9.5 33q33 62 135.5 151t174.5 89q61 0 97.5 -37t36.5 -105q0 -30 -18 -120q-2 -11 -9 -43l-13 -59t-6 -26q24 90 82 181.5t126.5 150t121.5 58.5z" />
    <glyph glyph-name="s" unicode="s" horiz-adv-x="732" 
d="M446 898q140 0 220 -62q22 -24 22 -80q0 -37 -27.5 -69.5t-72.5 -32.5q-55 0 -118 92q-16 25 -27 38t-29.5 24.5t-41.5 11.5q-34 0 -57 -26t-23 -66q0 -26 21.5 -57.5t46 -55t66.5 -59.5t60 -54q27 -26 39.5 -39.5t33 -43.5t30 -65.5t9.5 -79.5q0 -129 -107.5 -208.5
t-258.5 -79.5q-58 0 -117 18t-93 44q-24 29 -24 76q0 41 27 74.5t69 33.5q35 0 61.5 -22t58.5 -68q29 -41 51 -58.5t57 -17.5q32 0 61 29t29 57q0 31 -22.5 66t-50.5 61l-69.5 63.5t-63.5 61.5q-3 4 -18 20t-19 21l-15.5 20t-15.5 23.5l-12 25t-10.5 30.5t-5 34t-2.5 42
q0 120 96 199t242 79z" />
    <glyph glyph-name="t" unicode="t" horiz-adv-x="656" 
d="M236 848l30 160q15 20 111 76t109 56q18 0 34 -12l-52 -280h176q8 0 8 -24q0 -36 -20 -68h-182l-96 -492q-8 -48 -8 -66q0 -16 7 -29t21 -13q28 0 80.5 52t61.5 70q9 0 18.5 -21t9.5 -33q-19 -35 -72 -90t-124.5 -102.5t-121.5 -47.5q-54 0 -90 35t-36 107q0 42 18 120
l100 510h-148q-4 0 -4 6q0 18 32.5 52t63.5 34h74z" />
    <glyph glyph-name="u" unicode="u" horiz-adv-x="1066" 
d="M578 226q11 60 24 106q-57 -121 -171 -234.5t-179 -113.5q-74 0 -100 38.5t-26 133.5q0 54 38 252q37 190 40 210q10 40 10 66q0 15 -8 28.5t-22 13.5q-28 0 -80.5 -52t-61.5 -70q-9 0 -18.5 21t-9.5 33q33 62 135.5 151t174.5 89q61 0 97.5 -37t36.5 -105
q0 -30 -18 -120l-46 -238q-24 -144 -24 -152q0 -17 8.5 -29.5t23.5 -12.5q21 0 60 50.5t80 126.5t78.5 175.5t55.5 187.5l28 138q40 12 112 12q70 0 118 -12l-116 -618q-8 -40 -8 -66q0 -16 7 -29t21 -13q28 0 80.5 52t61.5 70q9 0 18.5 -21t9.5 -33q-19 -35 -72 -90
t-124.5 -102.5t-121.5 -47.5q-54 0 -90 35t-36 107q0 23 14 100z" />
    <glyph glyph-name="v" unicode="v" horiz-adv-x="930" 
d="M472 224q114 82 176 198q48 92 48 192q0 38 -23.5 81t-60.5 73q0 51 45.5 90.5t86.5 39.5q65 0 110.5 -45t45.5 -139q0 -72 -54 -172t-136 -193.5t-171 -176t-166.5 -132.5t-114.5 -50q-33 75 -53.5 240.5t-20.5 349.5v88q0 44 -22 44q-19 0 -63.5 -46t-52.5 -62
q-9 0 -18.5 21t-9.5 33q35 64 136.5 152t173.5 88q59 0 79.5 -29.5t20.5 -82.5v-64v-40q0 -154 15.5 -297.5t28.5 -160.5z" />
    <glyph glyph-name="w" unicode="w" horiz-adv-x="1452" 
d="M916 812q0 -140 26 -352q28 -216 44 -236q44 24 96 74.5t88 113.5q48 83 48 192q0 43 -23 88.5t-61 75.5q0 51 45.5 90.5t86.5 39.5q65 0 110.5 -45t45.5 -139q0 -73 -52 -172t-132 -192.5t-167.5 -175.5t-167.5 -132t-123 -50q-34 46 -64 212q-19 103 -22 180
q-48 -100 -186.5 -225t-247.5 -169q-33 76 -55.5 242.5t-22.5 347.5v88q0 44 -22 44q-19 0 -63.5 -46t-52.5 -62q-9 0 -18.5 21t-9.5 33q35 64 136.5 152t173.5 88q59 0 79.5 -29.5t20.5 -82.5v-64v-40q0 -153 15 -288t29 -152q36 25 78.5 80t71.5 114q52 105 70 210
q11 47 99.5 106.5t126.5 59.5z" />
    <glyph glyph-name="x" unicode="x" horiz-adv-x="1022" 
d="M408 898q69 0 100 -112l54 -192l80 156q80 148 192 148q39 0 82 -12t62 -30q8 -15 16 -44.5t8 -51.5q0 -45 -30 -83.5t-80 -38.5q-53 0 -90 58q-30 50 -44 50q-15 0 -29 -16t-35 -50l-104 -178l80 -266q25 -80 62 -80q28 0 80.5 52t61.5 70q9 0 18.5 -21t9.5 -33
q-32 -60 -139.5 -150t-180.5 -90q-47 0 -74.5 34.5t-49.5 97.5q0 9 -48 170l-78 -152q-80 -148 -192 -148q-82 0 -134 36q-11 10 -20.5 37.5t-9.5 58.5q0 47 28 87.5t78 40.5q53 0 90 -58q1 -2 7.5 -11.5l9.5 -14t8.5 -11.5t10 -10t8.5 -3q33 0 72 70l94 170l-74 252
q-27 82 -66 82q-19 0 -63.5 -46t-52.5 -62q-9 0 -18.5 21t-9.5 33q35 64 136.5 152t173.5 88z" />
    <glyph glyph-name="y" unicode="y" horiz-adv-x="1002" 
d="M258 898q49 0 89.5 -28.5t67.5 -77t48 -111.5t31.5 -133t19 -141t9.5 -135t3 -116t0 -83v-21q42 51 87.5 133.5t85 202t39.5 220.5q0 52 -26.5 93.5t-57.5 66.5q0 49 44 89.5t90 40.5q63 0 108.5 -45t45.5 -141q0 -112 -53 -247t-137 -259t-191 -243t-213 -206t-205 -140
t-165 -53q-57 0 -93.5 31t-36.5 93q0 26 19 57t41 43q35 -21 91.5 -42.5t106.5 -21.5q43 0 76 9.5t50 24.5t24 24.5t10 17.5q18 56 18 302q0 126 -14 260t-48 242t-80 108q-17 0 -38 -16q-22 -18 -36 -36l-28 -37l-14 -19q-11 1 -20.5 24.5t-7.5 29.5q11 19 37.5 54.5
t64.5 79t81.5 75t76.5 31.5z" />
    <glyph glyph-name="z" unicode="z" horiz-adv-x="882" 
d="M340 900q91 0 190 -44q86 -38 166 -38q55 0 140 80q6 0 11.5 -1t9.5 -4t7 -5.5t5 -7t3.5 -7.5t2.5 -8.5t1.5 -8t1 -8t0.5 -6.5q0 -12 -151.5 -158l-306.5 -289.5t-156 -144.5q40 16 84 16q90 0 150 -30q3 -2 21.5 -10.5l28 -13t25.5 -10.5t29.5 -9t25.5 -3q21 0 41.5 14
t32 28.5t25.5 35.5t15 22q14 0 24 -16.5t12 -31.5q-16 -32 -44.5 -72t-65.5 -80.5t-81 -68t-81 -27.5q-91 0 -190 44q-86 38 -166 38q-55 0 -140 -80q-6 0 -11.5 1t-9.5 4t-7 5.5t-5 7t-3.5 7.5t-2.5 8.5t-1.5 8t-1 8t-0.5 6.5q0 14 152.5 160l306.5 288t155 144
q-40 -16 -84 -16q-90 0 -150 30q-3 2 -21.5 10.5l-28 13t-25.5 10.5t-29.5 9t-25.5 3q-21 0 -41.5 -14t-32 -28.5t-25.5 -35.5t-15 -22q-14 0 -24 16.5t-12 31.5q16 32 44.5 72t65.5 80.5t81 68t81 27.5z" />
    <glyph glyph-name="braceleft" unicode="{" horiz-adv-x="814" 
d="M265 314v52q170 97 143 234q-10 52 -68 207q-53 139 -50 284q5 273 173 406q47 37 72 6q29 -36 -7 -73q-131 -137 -124 -289q3 -52 70 -165q106 -174 70 -374q-32 -182 -171 -262q139 -80 171 -262q36 -200 -70 -374q-67 -113 -70 -165q-7 -152 124 -289q36 -37 7 -73
q-25 -31 -72 6q-168 133 -173 406q-3 145 50 284q58 155 68 207q27 137 -143 234z" />
    <glyph glyph-name="bar" unicode="|" horiz-adv-x="404" 
d="M255 -757q0 -11 -89 -29q-5 -1 -7 -1q-10 0 -11 7q0 1 0.5 4.5t0.5 4.5v2215l2 11q4 3 8 5q34 10 78 10q17 -1 16 -12z" />
    <glyph glyph-name="braceright" unicode="}" horiz-adv-x="814" 
d="M544 314q-170 -97 -143 -234q10 -52 68 -207q53 -139 50 -284q-5 -273 -173 -406q-47 -37 -72 -6q-29 36 7 73q131 137 124 289q-3 52 -70 165q-106 174 -70 374q32 182 171 262q-139 80 -171 262q-36 200 70 374q67 113 70 165q7 152 -124 289q-36 37 -7 73q25 31 72 -6
q168 -133 173 -406q3 -145 -50 -284q-58 -155 -68 -207q-27 -137 143 -234v-52z" />
    <glyph glyph-name="asciitilde" unicode="~" horiz-adv-x="1076" 
d="M386 718q58 0 114 -16.5t95 -36.5t95 -36.5t114 -16.5q34 0 69.5 15t53.5 27t63 46q8 -4 8 -30q0 -44 -43.5 -86.5t-106 -68t-120.5 -25.5q-59 0 -115.5 16.5t-95.5 36.5t-95.5 36.5t-115.5 16.5q-34 0 -69.5 -15t-53.5 -27t-63 -46q-8 4 -8 30q0 46 47 89t110.5 67
t116.5 24z" />
    <glyph glyph-name="exclamdown" unicode="&#xa1;" horiz-adv-x="494" 
d="M98 738q0 60 43.5 104t104.5 44q63 0 107.5 -45t44.5 -109q0 -60 -44 -103t-106 -43t-106 45.5t-44 106.5zM240 -420q-50 0 -87 37t-37 99q0 40 31.5 302.5t52.5 403.5q13 43 40 52q8 0 23 -10t23 -24q20 -122 53 -389.5t33 -336.5q0 -61 -38 -97.5t-94 -36.5z" />
    <glyph glyph-name="cent" unicode="&#xa2;" horiz-adv-x="812" 
d="M552 898q56 0 105 -13.5t71 -30.5q30 -45 30 -100q0 -46 -34 -84t-78 -38q-63 0 -102 74l-6 12t-7.5 13.5t-7.5 13t-8.5 14l-9.5 12t-11 11.5t-11 8t-13 6t-14 2q-36 0 -72 -70t-59 -177.5t-23 -210.5q0 -99 31 -142.5t93 -43.5q13 0 27.5 3.5t27.5 9t27 13.5t25.5 16.5
l24 18t21.5 18.5t18 17t15 14t10 11l4 5q11 0 18.5 -19.5t7.5 -32.5q-14 -21 -49 -57.5t-85 -79t-112.5 -73t-115.5 -30.5q-97 0 -168.5 71t-71.5 203q0 152 75 301t192.5 242t234.5 93zM562 948q72 0 70 -16l-352 -1022q-7 0 -18 1q-12 1 -24 3t-20 6t-8 8z" />
    <glyph glyph-name="sterling" unicode="&#xa3;" horiz-adv-x="950" 
d="M455 540q-20 -100 -71 -175t-107 -121q57 30 128 30q32 0 120.5 -43t139.5 -43q25 0 46 9t39 28t25 28.5l20 28.5q6 3 14.5 -1.5t13.5 -12.5q7 -10 2 -38q-15 -30 -41 -66.5t-65 -79.5t-91 -71.5t-103 -28.5q-42 0 -86.5 18.5t-78 40.5t-80.5 40.5t-93 18.5
q-31 0 -166 -114q-10 0 -16.5 20t-3.5 34q17 24 76.5 83t73.5 79q58 102 90 260q10 50 7 150h-133q-6 9 18 46.5t36 37.5h76q-2 67 2 84q26 126 84 225.5t130.5 157.5t147 87.5t142.5 29.5q19 0 33.5 -2t28.5 -9.5l18.5 -10t19.5 -15t16 -13.5q17 -36 -12.5 -99t-83.5 -63
q-24 0 -42 10.5t-29 25l-21.5 29t-27 25t-38.5 10.5q-52 0 -89 -70t-57 -182q-12 -74 -7 -201q1 -10 1 -19h296q14 -14 -3.5 -44t-32.5 -40h-259q-1 -48 -7 -74z" />
    <glyph glyph-name="currency" unicode="&#xa4;" horiz-adv-x="1078" 
d="M510 310q67 0 123 80.5t79 197.5q27 137 -7.5 235.5t-106.5 98.5q-67 0 -126 -83.5t-82 -200.5q-27 -136 10 -232t110 -96zM820 910l130 110q8 7 21 -4q13 -12 25 -36t14 -48l-134 -112q35 -95 14 -206q-24 -121 -104 -216l78 -116q6 -7 -6 -22q-12 -17 -38.5 -35
t-51.5 -25l-76 110q-102 -70 -212 -70q-119 0 -196 80l-118 -100q-7 -7 -19 2q-13 10 -25 35.5t-14 50.5l120 102q-37 93 -16 204q27 134 116 232l-76 112q-4 5 4 18q12 17 40 37t54 27l76 -110q96 62 202 62q116 0 192 -82z" />
    <glyph glyph-name="yen" unicode="&#xa5;" horiz-adv-x="1262" 
d="M278 438q-10 0 -10 14q0 41 30 74h620q6 0 6 -14q0 -50 -26 -74h-620zM244 260q-10 0 -10 14q0 41 30 74h620q6 0 6 -14q0 -50 -26 -74h-620zM424 282l52 268q2 15 -4 40q-12 47 -47 159.5l-63 202.5l-28 90q-8 24 -17 55t-17 51q-12 31 -46.5 46.5t-63.5 17.5
q-4 10 0 36.5t12 35.5q119 -14 258 -14q130 0 256 14q5 -9 0 -35.5t-14 -36.5q-1 0 -10 -0.5t-14 -1t-15.5 -2t-17.5 -3.5l-16.5 -4.5t-16.5 -6t-13.5 -8.5t-10.5 -11.5t-6 -14.5q-1 -4 0 -8t4 -10.5t4 -11.5l130 -430q5 -7 106 132l206 290q13 20 16 44q6 35 -124 46
q-4 10 1 36.5t13 35.5q147 -14 200 -14q46 0 113.5 6.5t92.5 7.5q5 -9 0 -35.5t-14 -36.5q-1 0 -11.5 -1t-16.5 -1.5t-19 -2t-21.5 -3.5t-21 -6t-21.5 -8.5t-18 -11t-15 -14.5q-51 -62 -222 -286.5t-220 -299.5q-16 -22 -18 -36l-50 -260q-30 -138 -20 -184q4 -25 108 -34
q4 -10 -1 -36.5t-13 -35.5q-119 14 -256 14q-130 0 -256 -14q-5 9 0 35.5t14 36.5q109 9 122 34q6 11 11.5 24t11 34.5t8 34l9.5 45.5t10 46z" />
    <glyph glyph-name="brokenbar" unicode="&#xa6;" horiz-adv-x="420" 
d="M255 490q-1 -10 -43 -20t-53 -10q-5 0 -7.5 1.5t-3 3t0 6t0.5 5.5v968q-2 12 10 16q34 10 80 10q8 0 12 -3t4 -6v-3v-968zM149 -770v958q-2 12 10 16q34 10 80 10q8 0 12 -3t4 -6v-3v-958q-1 -10 -43 -20t-53 -10q-5 0 -7.5 1.5t-3 3t0 6t0.5 5.5z" />
    <glyph glyph-name="section" unicode="&#xa7;" horiz-adv-x="934" 
d="M292 -184q162 0 277 104l13 13v-1q31 21 76.5 68.5t92 108.5t79 132.5t32.5 126.5q0 39 -7.5 75t-16.5 63t-31.5 60.5l-35 51.5t-47 52.5l-47.5 47l-55 50.5q-256 234 -256 330q0 52 48.5 80t103.5 28q49 0 78 -26q45 -40 82 -40q78 0 78 80q0 32 -14 60q-61 26 -100 26
q-162 0 -277 -104l-13 -13v1q-31 -21 -76.5 -68.5t-92 -108.5t-79 -132.5t-32.5 -126.5q0 -39 7.5 -75t16.5 -63t31.5 -60.5l35 -51.5t47 -52.5l47.5 -47l55 -50.5q256 -234 256 -330q0 -52 -48.5 -80t-103.5 -28q-50 0 -72 22q-44 44 -86 44q-41 0 -60.5 -24.5t-19.5 -61.5
q0 -28 14 -52q56 -28 100 -28zM683 129q1 11 1 21q0 33 -12.5 67t-28 59t-46.5 58.5t-50 51.5l-57 51.5l-50 44.5l-66 62.5t-59 65.5t-53.5 76t-33.5 81.5t-14 94.5q0 61 16 96q8 16 21 35q-1 -11 -1 -21q0 -33 12.5 -67t28 -59t46.5 -58.5t50 -51.5l57 -51.5l50 -44.5
l66 -62.5t59 -65.5t53.5 -76t33.5 -81.5t14 -94.5q0 -60 -18 -98q-7 -15 -19 -33z" />
    <glyph glyph-name="dieresis" unicode="&#xa8;" horiz-adv-x="690" 
d="M548 1258q54 0 83.5 -40.5t18.5 -97.5t-57.5 -98.5t-100.5 -41.5t-83.5 41t-18.5 99q10 57 57 97.5t101 40.5zM196 1258q54 0 83.5 -40.5t18.5 -97.5t-56.5 -98.5t-99.5 -41.5t-83.5 41t-18.5 99q11 57 56.5 97.5t99.5 40.5z" />
    <glyph glyph-name="copyright" unicode="&#xa9;" horiz-adv-x="1306" 
d="M882 504q0 -12 -13 -67.5t-21 -58.5q-12 -4 -40 -15l-47 -18t-47.5 -13t-55.5 -6q-129 0 -209.5 77t-80.5 207t88.5 215t209.5 85q24 0 54 -5t70 -15t50 -12q1 -3 8 -33l13.5 -58.5t6.5 -32.5q0 -3 -11 -7.5t-19 -4.5q-10 0 -12 2q-4 16 -11.5 32t-24 36.5t-47 33
t-71.5 12.5q-55 0 -92.5 -36.5t-52.5 -88t-15 -113.5q0 -103 44 -173.5t126 -70.5q67 0 104 34q35 33 58 102q30 0 38 -8zM196 620q0 -189 133.5 -322.5t322.5 -133.5t322.5 133.5t133.5 322.5t-133.5 322.5t-322.5 133.5t-322.5 -133.5t-133.5 -322.5zM106 622
q0 226 160 386t386 160q149 0 275 -73t199.5 -199t73.5 -274t-73.5 -274t-199.5 -199t-275 -73q-226 0 -386 160t-160 386z" />
    <glyph glyph-name="ordfeminine" unicode="&#xaa;" horiz-adv-x="798" 
d="M532 492q-41 0 -67.5 20t-26.5 62q0 8 4 28q1 4 2 12.5t2 11.5q-27 -45 -88.5 -88.5t-121.5 -43.5t-93 46t-33 118q0 87 44.5 172t111.5 144.5t146 96.5t148 37q38 0 85.5 -8t70.5 -16l-88 -386q0 -3 -3 -22t-3 -22q0 -28 22 -28q21 0 59.5 35t44.5 47q8 -5 13.5 -23
t2.5 -31q-22 -41 -100 -101.5t-132 -60.5zM474 1020q-74 0 -127 -95t-53 -217q0 -96 52 -96q37 0 83 83.5t69 186.5l28 122q-16 16 -52 16z" />
    <glyph glyph-name="guillemotleft" unicode="&#xab;" horiz-adv-x="850" 
d="M400 683q-170 -137 -170 -338.5t170 -347.5q35 -29 12 -71t-72 -18q-127 65 -199 181q-71 117 -70.5 252t73 252.5t196.5 178.5q50 24 73 -17t-13 -72zM758 683q-170 -137 -170 -338.5t170 -347.5q35 -29 12 -71t-72 -18q-127 65 -199 181q-71 117 -70.5 252t73 252.5
t196.5 178.5q50 24 73 -17t-13 -72z" />
    <glyph glyph-name="logicalnot" unicode="&#xac;" horiz-adv-x="1178" 
d="M1040 840v-502q-1 -1 -20.5 -5.5t-48.5 -8.5t-49 -4q-9 0 -16 4q-6 2 -8 6l-2 4v390h-792q-12 0 -12 20q10 96 30 96h918z" />
    <glyph glyph-name="uni00AD" unicode="&#xad;" horiz-adv-x="576" 
d="M176 534l454 24q12 0 12 -24q0 -23 -19 -74t-33 -52l-452 -22q-10 0 -10 30q0 21 16.5 69t31.5 49z" />
    <glyph glyph-name="registered" unicode="&#xae;" horiz-adv-x="1306" 
d="M650 1002q79 0 131.5 -39.5t52.5 -108.5q0 -44 -42.5 -82t-79.5 -48q26 -35 57 -72l49 -56l18 -20q26 -30 54 -48t41 -22t19 -4q1 -2 1.5 -7.5t0.5 -10.5q-2 -6 -2 -11v-5q-48 -4 -90 -4q-44 0 -73.5 17.5t-58.5 54.5l-120 162q-8 12 -14 12h-12v-120q0 -58 6 -74
q3 -7 22 -11.5t30 -4.5q3 -4 3 -16.5t-3 -15.5q-48 6 -116 6q-70 0 -118 -6q-3 3 -3 15.5t3 16.5q11 0 30 4.5t22 11.5q6 16 6 74v292q0 58 -6 74q-5 12 -52 12q-3 4 -3 17.5t3 16.5q36 -2 120 -2q15 0 56.5 1t67.5 1zM710 848q0 50 -22.5 83t-61.5 33q-36 0 -40 -8
q-4 -10 -4 -50v-158h32q40 0 68 27.5t28 72.5zM196 722q0 -189 133.5 -322.5t322.5 -133.5t322.5 133.5t133.5 322.5t-133.5 322.5t-322.5 133.5t-322.5 -133.5t-133.5 -322.5zM106 724q0 226 160 386t386 160q149 0 275 -73t199.5 -199t73.5 -274t-73.5 -274t-199.5 -199
t-275 -73q-226 0 -386 160t-160 386z" />
    <glyph glyph-name="macron" unicode="&#xaf;" horiz-adv-x="522" 
d="M486 980h-456q-6 6 -6 18t9.5 40t16.5 28h448q3 0 6.5 -4t3.5 -10q0 -12 -6 -36t-16 -36z" />
    <glyph glyph-name="degree" unicode="&#xb0;" horiz-adv-x="562" 
d="M263 1074q-11 -54 17 -93t77 -39t92 39t54 93q10 54 -17 92t-77 38t-93 -38t-53 -92zM177 1074q18 92 90.5 156t157.5 64q86 0 134 -64.5t30 -155.5q-18 -92 -91.5 -158t-158.5 -66t-132.5 66t-29.5 158z" />
    <glyph glyph-name="plusminus" unicode="&#xb1;" horiz-adv-x="1164" 
d="M122 134h922q8 0 13 -9t5 -19q0 -50 -30 -88h-920q-12 0 -12 32q0 12 6 40.5t16 43.5zM122 728h398v398q14 11 42 16.5t42 5.5q32 0 32 -18v-402h408q8 0 13 -9t5 -19q0 -50 -30 -88h-396v-396q-33 -22 -94 -22q-9 0 -15.5 5t-6.5 11v402h-408q-12 0 -12 32q0 12 6 40.5
t16 43.5z" />
    <glyph glyph-name="uni00B2" unicode="&#xb2;" horiz-adv-x="704" 
d="M620 764q-9 -39 -38.5 -137t-37.5 -119h-454q-7 7 -14 28q136 150 238 282q51 66 72.5 120t21.5 112t-37.5 93t-90.5 35q-30 0 -58 -14.5t-42 -30t-28 -34.5l-14 -19q-5 0 -11.5 1.5t-13.5 8.5t-7 18q10 21 31 47.5t54 57t79.5 51t95.5 20.5q108 0 170 -53.5t62 -154.5
q0 -73 -44.5 -138t-117.5 -132q-102 -92 -190 -156h224q14 0 27 6t21 12t17.5 21t13 22t12 26.5t9.5 22.5q3 10 22 10t28 -6z" />
    <glyph glyph-name="uni00B3" unicode="&#xb3;" horiz-adv-x="676" 
d="M358 1284q67 0 129.5 -43t62.5 -125q0 -43 -16 -75t-41.5 -49.5t-46.5 -25.5t-42 -12q14 -1 36.5 -7t52.5 -21.5t55 -37t42.5 -57t17.5 -77.5q0 -64 -32.5 -116t-85 -83.5t-113 -48t-121.5 -16.5q-56 0 -101 12.5t-65 29.5q-18 27 -18 54q0 25 17.5 47.5t46.5 22.5
q40 0 80 -62q14 -23 39.5 -36.5t50.5 -13.5q58 0 90 41.5t32 122.5q0 71 -42 124.5t-102 53.5q-44 0 -64 -6q-12 18 -12 30q0 16 4 24q27 4 54.5 12t57 24t48 43.5t18.5 62.5q0 50 -33 83t-87 33q-30 0 -60.5 -15.5t-45.5 -28.5t-22 -22q-10 2 -20.5 11.5t-7.5 22.5
q37 49 106.5 86.5t137.5 37.5z" />
    <glyph glyph-name="acute" unicode="&#xb4;" horiz-adv-x="404" 
d="M58 980q-16 10 -18 24q5 18 78 119t114 139q14 14 62 14q30 0 60 -22.5t30 -59.5q0 -32 -76 -83.5t-151.5 -88.5t-98.5 -42z" />
    <glyph glyph-name="uni00B5" unicode="&#xb5;" horiz-adv-x="1058" 
d="M344 892q17 0 60.5 -28t39.5 -46q-26 -128 -86 -286l-28 -86q-22 -118 -6.5 -192t62.5 -74q70 0 115 62t77 166l96 458q45 30 92 26q57 -4 91 -28t29 -46q-16 -95 -104 -326l-18 -46q-9 -45 -15 -78.5t-10 -69t-2.5 -59.5t7 -44t18 -29.5t32.5 -9.5q29 0 66.5 22t53.5 40
q6 0 16 -26q1 -6 0.5 -20.5t-2.5 -19.5q-30 -67 -86 -113.5t-108 -46.5q-40 1 -67.5 40.5t-37.5 98.5t-5 125l-49.5 -83t-50.5 -73t-56.5 -63t-60.5 -39t-69 -16q-12 0 -21.5 3t-17 11l-13.5 14.5t-10.5 20t-7 22t-5 25.5t-3.5 24.5t-3 26t-3 23.5q-1 -7 -19.5 -84
t-33.5 -152t-14 -163t31 -135q-13 -17 -50 -44.5t-58 -27.5q-33 0 -55.5 19.5t-33 52t-15 63.5t-4.5 65q0 51 54.5 264t109.5 398q6 28 16.5 101t13.5 87q1 6 50 256q9 12 45 26t53 14z" />
    <glyph glyph-name="paragraph" unicode="&#xb6;" horiz-adv-x="1058" 
d="M710 676v520q-10 10 -58 10q-44 0 -56 -12v-528q18 0 63.5 3t50.5 7zM708 584q-8 -1 -32 -2.5t-45 -3l-35 -2.5v-340q0 -104 10 -132q3 -10 46 -10q40 0 44 8q12 26 12 122v360zM808 598v-364q0 -86 10 -114q9 -24 64 -38t82 -14q8 -13 8 -38.5t-4 -37.5q-252 14 -312 14
q-54 0 -110 -2.5t-118 -6.5t-84 -5q-5 8 -5.5 26.5t1.5 33t4 14.5q29 0 79.5 14.5t60.5 37.5q12 26 12 114v342q-197 0 -313.5 94t-116.5 270q0 80 25 144.5t64.5 105t91.5 67.5t103.5 38t103.5 11q59 0 108 -4t108 -4q60 0 120 2l90 6l30 2q7 -8 6.5 -38.5t-8.5 -35.5
q-25 0 -55 -11.5t-37 -28.5q-6 -21 -6 -128v-376q4 -1 28 6q26 6 48 13l22 7q8 0 8 -20q-2 -15 -19 -43.5t-27 -32.5q-37 -17 -62 -20z" />
    <glyph glyph-name="periodcentered" unicode="&#xb7;" horiz-adv-x="474" 
d="M94 500q0 69 53 122.5t117 53.5q48 0 79 -33t31 -83q0 -67 -52 -125.5t-114 -58.5q-50 0 -82 36t-32 88z" />
    <glyph glyph-name="cedilla" unicode="&#xb8;" horiz-adv-x="812" 
d="M408 -8h58l-46 -50h34q40 0 74 -27t34 -67q0 -73 -72.5 -123.5t-167.5 -50.5q-20 0 -48.5 6.5t-37.5 13.5q-8 8 -8 18q0 24 11.5 40t26.5 16q17 0 47.5 -24t60.5 -24q37 0 61.5 22.5t24.5 57.5q0 32 -18 51t-40 19q-23 0 -58 -16q-4 0 -17 8.5t-13 15.5q0 4 11 16.5
l35.5 40t47.5 57.5z" />
    <glyph glyph-name="uni00B9" unicode="&#xb9;" horiz-adv-x="582" 
d="M228 1022q0 41 -10 67.5t-28 26.5q-20 0 -90 -32q-7 1 -14.5 14.5t-7.5 25.5t2 14q62 26 140 62.5l124.5 59t47.5 22.5h2q5 0 17.5 -17t14.5 -23q-24 -88 -24 -170v-380q0 -90 20 -110q10 -12 44.5 -19t49.5 -7q3 0 2.5 -25t-2.5 -27q-192 8 -200 8q-12 0 -204 -8
q-4 4 -4 28t4 24q16 0 51.5 8.5t44.5 19.5q7 8 13.5 49t6.5 61v328z" />
    <glyph glyph-name="ordmasculine" unicode="&#xba;" horiz-adv-x="812" 
d="M388 1046q-26 0 -45.5 -9t-31.5 -27t-20 -37.5t-11.5 -47t-4.5 -49.5t-1 -50q0 -63 14 -120t49 -99.5t85 -42.5q38 0 62.5 19.5t35.5 54.5t14.5 67t3.5 75q0 63 -14.5 121t-50 101.5t-85.5 43.5zM404 1106q147 0 242.5 -84.5t95.5 -211.5t-97.5 -217.5t-238.5 -90.5
q-147 0 -241.5 85.5t-94.5 212.5t97 216.5t237 89.5z" />
    <glyph glyph-name="guillemotright" unicode="&#xbb;" horiz-adv-x="850" 
d="M450 -3q171 148 170.5 349t-170.5 337q-36 29 -13.5 71t73.5 18q125 -62 197.5 -179.5t72 -252.5t-72 -251.5t-197.5 -180.5q-48 -24 -72 17t12 72zM92 -3q171 148 170.5 349t-170.5 337q-36 29 -13.5 71.5t73.5 17.5q125 -62 197.5 -179.5t72 -252.5t-72 -251.5
t-197.5 -180.5q-48 -24 -72 17t12 72z" />
    <glyph glyph-name="onequarter" unicode="&#xbc;" horiz-adv-x="1474" 
d="M1288 772q8 0 24 -12.5t16 -25.5v-458h50q39 -36 20 -92h-70v-180q-40 -10 -94 -10q-80 0 -80 16v174h-306q-9 3 -16.5 13t-7.5 21l438 538q13 16 26 16zM1154 276v248l-109.5 -133l-94.5 -115v0v0v0v0v0v0v0v0h1v0v0h1v0h1v0h1v0h1h1v0h1h1h1h1h1h1h1h1h1h1h1h1h1h1h1h1
h1h1h1h1h1h1h1h1h1h1h1h1h1h1h1h1h1h1h1h1h1h1h1h1h1h1h1h1h1h1h1h1h1h1h1h1h1h1h1h1h1h1h1h1h1h1h1h1h1h1h1h1h1h1h1h1h2h1h1h1h1h1h1h1h1h1h1h1h1h1h1h1h2h1h1h1h1h1h1h1h1h1h2h1h1h1h1h1h1h1h1h2h1h1h1h1h1h1h1h2h1h1h1h1h1h1h1h2h1h1h1h1h1h1h2h1h1h1h1h1h1h2h1h1h1h1h1
h1h1h2h1h1h1h1h1h1h2h1h1h1h1h1h1h1h1h2h1h1h1h1h1h1h1h1h1h1h2h1h1h1h1h9zM388 1072v-380q0 -90 20 -110q10 -12 44.5 -19t49.5 -7q3 0 2.5 -25t-2.5 -27q-192 8 -200 8q-12 0 -204 -8q-4 4 -4 28t4 24q16 0 51.5 8.5t44.5 19.5q7 8 13.5 49t6.5 61v328q0 41 -10 67.5
t-28 26.5q-20 0 -90 -32q-7 1 -14.5 26.5t-5.5 27.5q62 26 140.5 62.5l125.5 59t48 22.5q30 -34 32 -40q-24 -88 -24 -170zM438 -68q-13 -3 -21.5 1.5t-10.5 10.5l-2 6l690 1376q20 30 72 42q13 3 23.5 -1.5t12.5 -12.5l-690 -1376q-5 -11 -27.5 -25.5t-46.5 -20.5z" />
    <glyph glyph-name="onehalf" unicode="&#xbd;" horiz-adv-x="1496" 
d="M1175 772q108 0 170 -53.5t62 -154.5q0 -73 -44.5 -138t-117.5 -132q-102 -92 -190 -156h224q14 0 27 6t21 12t17.5 21t13 22t12 26.5t9.5 22.5q3 10 22 10t28 -6q-9 -39 -38.5 -137t-37.5 -119h-454q-7 7 -14 28q136 150 238 282q51 66 72.5 120t21.5 112t-37.5 93
t-90.5 35q-30 0 -58 -14.5t-42 -30t-28 -34.5l-14 -19q-5 0 -11.5 1.5t-13.5 8.5t-7 18q10 21 31 47.5t54 57t79.5 51t95.5 20.5zM391 1072v-380q0 -90 20 -110q10 -12 44.5 -19t49.5 -7q3 0 2.5 -25t-2.5 -27q-192 8 -200 8q-12 0 -204 -8q-5 4 -5 28t5 24q16 0 51.5 8.5
t44.5 19.5q7 8 13.5 49t6.5 61v328q0 41 -10 67.5t-28 26.5q-20 0 -90 -32q-7 1 -15 22t-5 32q62 26 140.5 62.5l125.5 59t48 22.5q28 -28 32 -40q-24 -88 -24 -170zM1161 1354l-690 -1376q-5 -11 -27.5 -25.5t-46.5 -20.5q-13 -3 -21.5 1.5t-10.5 10.5l-2 6l690 1376
q20 30 72 42q13 3 23.5 -1.5t12.5 -12.5z" />
    <glyph glyph-name="threequarters" unicode="&#xbe;" horiz-adv-x="1480" 
d="M1294 772q8 0 24 -12.5t16 -25.5v-458h50q39 -36 20 -92h-70v-180q-40 -10 -94 -10q-80 0 -80 16v174h-306q-9 3 -16.5 13t-7.5 21l438 538q13 16 26 16zM1160 276v248l-109.5 -133l-94.5 -115v0v0v0v0v0v0v0v0h1v0v0h1v0h1v0h1v0h1h1v0h1h1h1h1h1h1h1h1h1h1h1h1h1h1h1h1
h1h1h1h1h1h1h1h1h1h1h1h1h1h1h1h1h1h1h1h1h1h1h1h1h1h1h1h1h1h1h1h1h1h1h1h1h1h1h1h1h1h1h1h1h1h1h1h1h1h1h1h1h1h1h1h1h2h1h1h1h1h1h1h1h1h1h1h1h1h1h1h1h2h1h1h1h1h1h1h1h1h1h2h1h1h1h1h1h1h1h1h2h1h1h1h1h1h1h1h2h1h1h1h1h1h1h1h2h1h1h1h1h1h1h2h1h1h1h1h1h1h2h1h1h1h1h1
h1h1h2h1h1h1h1h1h1h2h1h1h1h1h1h1h1h1h2h1h1h1h1h1h1h1h1h1h1h2h1h1h1h1h9zM354 1284q67 0 129.5 -43t62.5 -125q0 -43 -16 -75t-41.5 -49.5t-46.5 -25.5t-42 -12q14 -1 36.5 -7t52.5 -21.5t55 -37t42.5 -57t17.5 -77.5q0 -64 -32.5 -116t-85 -83.5t-113 -48t-121.5 -16.5
q-56 0 -101 12.5t-65 29.5q-18 27 -18 54q0 25 17.5 47.5t46.5 22.5q40 0 80 -62q14 -23 39.5 -36.5t50.5 -13.5q58 0 90 41.5t32 122.5q0 71 -42 124.5t-102 53.5q-44 0 -64 -6q-12 18 -12 30q0 16 4 24q27 4 54.5 12t57 24t48 43.5t18.5 62.5q0 50 -33 83t-87 33
q-30 0 -60.5 -15.5t-45.5 -28.5t-22 -22q-10 2 -20.5 11.5t-7.5 22.5q37 49 106.5 86.5t137.5 37.5zM1228 1354l-690 -1376q-5 -11 -27.5 -25.5t-46.5 -20.5q-13 -3 -21.5 1.5t-10.5 10.5l-2 6l690 1376q20 30 72 42q13 3 23.5 -1.5t12.5 -12.5z" />
    <glyph glyph-name="questiondown" unicode="&#xbf;" horiz-adv-x="776" 
d="M660 734q0 -62 -43 -104t-101 -42q-63 0 -106.5 42.5t-43.5 103.5q0 62 41.5 108t100.5 46q58 0 105 -44.5t47 -109.5zM566 450q14 -31 27 -88.5t13 -111.5q0 -41 -13.5 -76.5t-40.5 -64t-49.5 -46.5t-56.5 -41q-212 -140 -212 -220q0 -36 29 -66t79 -30q24 0 53 19.5
t52.5 42.5t55 42.5t59.5 19.5q55 0 89.5 -40t34.5 -92q0 -25 -9.5 -54t-20.5 -38q-60 -34 -180 -34q-32 0 -78 9.5t-105.5 35t-109.5 63t-84.5 101.5t-34.5 143q0 32 7 61.5t16.5 51.5t29 45.5t33 37.5t41 34t40.5 28l44.5 27t40.5 25l42 25.5l48.5 29.5t39.5 29.5t34 35.5
q4 6 6.5 14t3 18.5t1 18.5t0 19t-0.5 14q3 10 13 23t17 13q22 0 46 -24z" />
    <glyph glyph-name="Agrave" unicode="&#xc0;" horiz-adv-x="1240" 
d="M819 1456q-28 4 -116 27.5t-184.5 66t-96.5 78.5q0 33 34.5 48.5t76.5 15.5q66 0 92 -16q55 -32 127 -103t85 -91q0 -12 -18 -26zM123 268l588 980q14 22 41 49t41 27q12 0 23 -4.5t13 -9.5l186 -1014q7 -34 14 -80t10 -64q6 -28 24.5 -47.5t42.5 -26.5t38 -9.5t25 -2.5
q4 -13 -1 -40.5t-11 -33.5q-17 1 -107.5 8.5t-138.5 7.5q-38 0 -91 -3t-114 -7.5t-79 -5.5q-6 7 1 40.5t15 33.5q27 0 61 9.5t55 26.5q21 15 24 34q2 8 -11.5 84l-27.5 148l-15 72q-4 8 -10 8q-35 2 -178 2q-128 0 -194 -2q-11 0 -16 -10l-100 -168q-63 -112 -66 -136
q-3 -18 14 -32.5t42.5 -21.5t45.5 -10.5t28 -3.5q6 -10 -0.5 -38.5t-13.5 -35.5q-128 16 -198 16q-72 0 -204 -16q-5 5 -2 30.5t12 41.5q21 0 73.5 21t68.5 43q37 49 92 140zM631 952l-236 -392q0 -8 4 -8q54 -6 152 -6q92 0 150 4q2 0 4 2l3 6l1 2z" />
    <glyph glyph-name="Aacute" unicode="&#xc1;" horiz-adv-x="1240" 
d="M781 1456q-18 14 -18 26q13 20 85 91t127 103q26 16 92 16q42 0 76.5 -15.5t34.5 -48.5q0 -36 -96.5 -78.5t-184.5 -66t-116 -27.5zM123 268l588 980q14 22 41 49t41 27q12 0 23 -4.5t13 -9.5l186 -1014q7 -34 14 -80t10 -64q6 -28 24.5 -47.5t42.5 -26.5t38 -9.5
t25 -2.5q4 -13 -1 -40.5t-11 -33.5q-17 1 -107.5 8.5t-138.5 7.5q-38 0 -91 -3t-114 -7.5t-79 -5.5q-6 7 1 40.5t15 33.5q27 0 61 9.5t55 26.5q21 15 24 34q2 8 -11.5 84l-27.5 148l-15 72q-4 8 -10 8q-35 2 -178 2q-128 0 -194 -2q-11 0 -16 -10l-100 -168
q-63 -112 -66 -136q-3 -18 14 -32.5t42.5 -21.5t45.5 -10.5t28 -3.5q6 -10 -0.5 -38.5t-13.5 -35.5q-128 16 -198 16q-72 0 -204 -16q-5 5 -2 30.5t12 41.5q21 0 73.5 21t68.5 43q37 49 92 140zM631 952l-236 -392q0 -8 4 -8q54 -6 152 -6q92 0 150 4q2 0 4 2l3 6l1 2z" />
    <glyph glyph-name="Acircumflex" unicode="&#xc2;" horiz-adv-x="1240" 
d="M865 1740q6 0 22 -20q34 -45 96 -119t96 -109q-5 -26 -24 -32q-19 5 -99 48.5t-119 71.5q-49 -28 -143 -71t-119 -49q-6 3 -10.5 13.5t-3.5 18.5q201 157 276 228q20 20 28 20zM123 268l588 980q14 22 41 49t41 27q12 0 23 -4.5t13 -9.5l186 -1014q7 -34 14 -80t10 -64
q6 -28 24.5 -47.5t42.5 -26.5t38 -9.5t25 -2.5q4 -13 -1 -40.5t-11 -33.5q-17 1 -107.5 8.5t-138.5 7.5q-38 0 -91 -3t-114 -7.5t-79 -5.5q-6 7 1 40.5t15 33.5q27 0 61 9.5t55 26.5q21 15 24 34q2 8 -11.5 84l-27.5 148l-15 72q-4 8 -10 8q-35 2 -178 2q-128 0 -194 -2
q-11 0 -16 -10l-100 -168q-63 -112 -66 -136q-3 -18 14 -32.5t42.5 -21.5t45.5 -10.5t28 -3.5q6 -10 -0.5 -38.5t-13.5 -35.5q-128 16 -198 16q-72 0 -204 -16q-5 5 -2 30.5t12 41.5q21 0 73.5 21t68.5 43q37 49 92 140zM631 952l-236 -392q0 -8 4 -8q54 -6 152 -6
q92 0 150 4q2 0 4 2l3 6l1 2z" />
    <glyph glyph-name="Atilde" unicode="&#xc3;" horiz-adv-x="1240" 
d="M715 1640q72 0 126 -32q31 -18 46 -26t44.5 -17t59.5 -9q71 0 134 84q18 -6 18 -28q0 -40 -38 -82q-71 -74 -162 -74q-72 0 -126 32q-31 18 -46 26t-44.5 17t-59.5 9q-71 0 -134 -84q-18 6 -18 28q0 40 38 82q71 74 162 74zM123 268l588 980q14 22 41 49t41 27
q12 0 23 -4.5t13 -9.5l186 -1014q7 -34 14 -80t10 -64q6 -28 24.5 -47.5t42.5 -26.5t38 -9.5t25 -2.5q4 -13 -1 -40.5t-11 -33.5q-17 1 -107.5 8.5t-138.5 7.5q-38 0 -91 -3t-114 -7.5t-79 -5.5q-6 7 1 40.5t15 33.5q27 0 61 9.5t55 26.5q21 15 24 34q2 8 -11.5 84
l-27.5 148l-15 72q-4 8 -10 8q-35 2 -178 2q-128 0 -194 -2q-11 0 -16 -10l-100 -168q-63 -112 -66 -136q-3 -18 14 -32.5t42.5 -21.5t45.5 -10.5t28 -3.5q6 -10 -0.5 -38.5t-13.5 -35.5q-128 16 -198 16q-72 0 -204 -16q-5 5 -2 30.5t12 41.5q21 0 73.5 21t68.5 43
q37 49 92 140zM631 952l-236 -392q0 -8 4 -8q54 -6 152 -6q92 0 150 4q2 0 4 2l3 6l1 2z" />
    <glyph glyph-name="Adieresis" unicode="&#xc4;" horiz-adv-x="1240" 
d="M929 1600q11 56 55.5 95t96.5 39q51 0 80.5 -39.5t19.5 -94.5q-11 -57 -54.5 -99.5t-95.5 -42.5q-53 0 -83 43t-19 99zM541 1600q11 56 55.5 95t96.5 39q51 0 80.5 -39.5t19.5 -94.5q-11 -57 -54.5 -99.5t-95.5 -42.5q-53 0 -83 43t-19 99zM123 268l588 980q14 22 41 49
t41 27q12 0 23 -4.5t13 -9.5l186 -1014q7 -34 14 -80t10 -64q6 -28 24.5 -47.5t42.5 -26.5t38 -9.5t25 -2.5q4 -13 -1 -40.5t-11 -33.5q-17 1 -107.5 8.5t-138.5 7.5q-38 0 -91 -3t-114 -7.5t-79 -5.5q-6 7 1 40.5t15 33.5q27 0 61 9.5t55 26.5q21 15 24 34q2 8 -11.5 84
l-27.5 148l-15 72q-4 8 -10 8q-35 2 -178 2q-128 0 -194 -2q-11 0 -16 -10l-100 -168q-63 -112 -66 -136q-3 -18 14 -32.5t42.5 -21.5t45.5 -10.5t28 -3.5q6 -10 -0.5 -38.5t-13.5 -35.5q-128 16 -198 16q-72 0 -204 -16q-5 5 -2 30.5t12 41.5q21 0 73.5 21t68.5 43
q37 49 92 140zM631 952l-236 -392q0 -8 4 -8q54 -6 152 -6q92 0 150 4q2 0 4 2l3 6l1 2z" />
    <glyph glyph-name="Aring" unicode="&#xc5;" horiz-adv-x="1240" 
d="M737 1518q-9 -45 13.5 -76.5t64.5 -31.5t76.5 31.5t43.5 76.5t-13.5 76.5t-64.5 31.5t-76.5 -31.5t-43.5 -76.5zM651 1518q15 81 81 138.5t141 57.5t118 -57.5t28 -138.5t-81 -139.5t-141 -58.5t-118 58.5t-28 139.5zM123 268l588 980q14 22 41 49t41 27q12 0 23 -4.5
t13 -9.5l186 -1014q7 -34 14 -80t10 -64q6 -28 24.5 -47.5t42.5 -26.5t38 -9.5t25 -2.5q4 -13 -1 -40.5t-11 -33.5q-17 1 -107.5 8.5t-138.5 7.5q-38 0 -91 -3t-114 -7.5t-79 -5.5q-6 7 1 40.5t15 33.5q27 0 61 9.5t55 26.5q21 15 24 34q2 8 -11.5 84l-27.5 148l-15 72
q-4 8 -10 8q-35 2 -178 2q-128 0 -194 -2q-11 0 -16 -10l-100 -168q-63 -112 -66 -136q-3 -18 14 -32.5t42.5 -21.5t45.5 -10.5t28 -3.5q6 -10 -0.5 -38.5t-13.5 -35.5q-128 16 -198 16q-72 0 -204 -16q-5 5 -2 30.5t12 41.5q21 0 73.5 21t68.5 43q37 49 92 140zM631 952
l-236 -392q0 -8 4 -8q54 -6 152 -6q92 0 150 4q2 0 4 2l3 6l1 2z" />
    <glyph glyph-name="AE" unicode="&#xc6;" horiz-adv-x="1728" 
d="M1015 1314q45 0 309.5 6.5t298.5 7.5q4 -88 22 -296q-10 -10 -44 -10q-25 0 -28 16q-12 47 -24.5 79t-33 62.5t-51 45.5t-71.5 15h-154q-83 0 -96 -24q-12 -24 -22 -122l-36 -374q0 -9 24 -15.5t54 -6.5h98q82 0 115 26t65 114q6 16 22 16q27 0 34 -10l-38 -384
q-8 -8 -34 -8q-24 0 -24 16q-13 101 -54 122q-28 14 -138 14q-136 0 -138 -28l-32 -294q-3 -21 -5 -68.5t5 -89.5q6 -19 40.5 -29.5t75.5 -10.5h124q111 0 180 66q53 50 118 190q6 12 28 12q14 0 32.5 -4t21.5 -8l-23.5 -55.5l-27.5 -63.5t-24.5 -59l-24.5 -63l-19 -53
t-15 -50q-401 0 -652 -1q-232 0 -256 -1q-6 9 -4 36t10 38q113 9 124 34q18 41 32 188l24 240q-1 1 -2 3t-2.5 3.5t-3.5 1.5q-35 2 -160 2q-106 0 -172 -2q-13 0 -18 -10l-180 -258q-71 -110 -78 -136q-5 -18 11 -32.5t41 -21.5t44.5 -10.5t27.5 -3.5q5 -10 2.5 -39
t-8.5 -35q-128 16 -224 16q-72 0 -204 -16q-6 8 -6.5 31t8.5 41q21 0 75.5 21t72.5 43l36.5 44.5t36.5 51t31 44.5l632 912q16 26 16 36q0 13 -18.5 21.5t-31.5 8.5q-5 12 -1 38t11 36q82 -6 276 -6zM863 1134l-342 -484q0 -8 4 -8q54 -6 128 -6q94 0 152 4q2 0 4.5 3t4.5 5
l1 2l40 376q3 28 8 108z" />
    <glyph glyph-name="Ccedilla" unicode="&#xc7;" horiz-adv-x="1292" 
d="M626 -6h62l-50 -52h36q42 0 79 -28.5t37 -71.5q0 -78 -76 -131t-178 -53q-22 0 -52.5 6.5t-39.5 13.5q-8 8 -8 20q0 25 11.5 41.5t28.5 16.5q18 0 50 -25t64 -25q39 0 64.5 24t25.5 60q0 34 -18.5 54t-41.5 20q-24 0 -62 -16q-4 0 -18 9.5t-14 16.5q0 4 11.5 17l38 42
t50.5 61zM886 1248q-98 0 -188 -53t-157.5 -145t-108 -226t-40.5 -288q0 -59 9.5 -119t34.5 -123t61.5 -111t97 -78.5t135.5 -30.5q137 0 240 86q41 34 84.5 94t66 100t27.5 54q41 0 62 -24q-5 -25 -61.5 -159.5t-74.5 -144.5q-87 -48 -181 -71t-219 -23q-113 0 -208.5 33
t-161 89t-111.5 129t-67.5 153t-21.5 162q0 145 47 272.5t126 219t180.5 158.5t211.5 99.5t217 32.5q134 0 390 -58q0 -16 -11.5 -143t-14.5 -145q-2 -10 -15 -19t-29 -9q-18 0 -24 8q-1 27 -9 59t-29.5 72.5t-52.5 72.5t-84.5 54t-120.5 22z" />
    <glyph glyph-name="Egrave" unicode="&#xc8;" horiz-adv-x="1144" 
d="M840 1430q-28 4 -116 27.5t-184.5 66t-96.5 78.5q0 33 34.5 48.5t76.5 15.5q66 0 92 -16q55 -32 127 -103t85 -91q0 -12 -18 -26zM506 1314q45 0 309.5 6.5t298.5 7.5q-4 -67 -4 -296q-10 -10 -46 -10q-23 0 -26 16q-8 47 -17.5 79t-27 62.5t-47 45.5t-70.5 15h-154
q-83 0 -98 -24q-4 -7 -7.5 -15.5t-6.5 -22l-5 -22t-6.5 -30.5l-6.5 -32l-70 -358q-1 -6 9.5 -11t28.5 -8t38 -3h98q82 0 117.5 26t74.5 114q6 16 24 16q27 0 34 -10l-74 -384q-8 -8 -36 -8q-22 0 -22 16q-4 103 -42 122q-28 14 -138 14q-135 0 -140 -28l-60 -310
q-22 -130 -16 -158q4 -19 37.5 -29.5t74.5 -10.5h124q111 0 186 66q59 52 136 190q6 12 30 12q14 0 31.5 -4t20.5 -8q-4 -7 -34.5 -65.5l-41.5 -80.5l-33 -66.5t-35 -75.5t-22 -56q-401 0 -652 -1q-232 0 -256 -1q-5 9 0 36.5t14 37.5q113 9 126 34q23 41 50 188l144 736
q2 10 6.5 34.5t6.5 34t5 28.5t4 28t2 22.5t0.5 23t-2.5 17.5q-4 23 -114 32q-4 10 2 37.5t14 36.5q82 -6 264 -6z" />
    <glyph glyph-name="Eacute" unicode="&#xc9;" horiz-adv-x="1144" 
d="M654 1430q-18 14 -18 26q13 20 85 91t127 103q26 16 92 16q42 0 76.5 -15.5t34.5 -48.5q0 -36 -96.5 -78.5t-184.5 -66t-116 -27.5zM506 1314q45 0 309.5 6.5t298.5 7.5q-4 -67 -4 -296q-10 -10 -46 -10q-23 0 -26 16q-8 47 -17.5 79t-27 62.5t-47 45.5t-70.5 15h-154
q-83 0 -98 -24q-4 -7 -7.5 -15.5t-6.5 -22l-5 -22t-6.5 -30.5l-6.5 -32l-70 -358q-1 -6 9.5 -11t28.5 -8t38 -3h98q82 0 117.5 26t74.5 114q6 16 24 16q27 0 34 -10l-74 -384q-8 -8 -36 -8q-22 0 -22 16q-4 103 -42 122q-28 14 -138 14q-135 0 -140 -28l-60 -310
q-22 -130 -16 -158q4 -19 37.5 -29.5t74.5 -10.5h124q111 0 186 66q59 52 136 190q6 12 30 12q14 0 31.5 -4t20.5 -8q-4 -7 -34.5 -65.5l-41.5 -80.5l-33 -66.5t-35 -75.5t-22 -56q-401 0 -652 -1q-232 0 -256 -1q-5 9 0 36.5t14 37.5q113 9 126 34q23 41 50 188l144 736
q2 10 6.5 34.5t6.5 34t5 28.5t4 28t2 22.5t0.5 23t-2.5 17.5q-4 23 -114 32q-4 10 2 37.5t14 36.5q82 -6 264 -6z" />
    <glyph glyph-name="Ecircumflex" unicode="&#xca;" horiz-adv-x="1144" 
d="M768 1740q6 0 22 -20q34 -45 96 -119t96 -109q-5 -26 -24 -32q-19 5 -99 48.5t-119 71.5q-49 -28 -143 -71t-119 -49q-6 3 -10.5 13.5t-3.5 18.5q201 157 276 228q20 20 28 20zM506 1314q45 0 309.5 6.5t298.5 7.5q-4 -67 -4 -296q-10 -10 -46 -10q-23 0 -26 16
q-8 47 -17.5 79t-27 62.5t-47 45.5t-70.5 15h-154q-83 0 -98 -24q-4 -7 -7.5 -15.5t-6.5 -22l-5 -22t-6.5 -30.5l-6.5 -32l-70 -358q-1 -6 9.5 -11t28.5 -8t38 -3h98q82 0 117.5 26t74.5 114q6 16 24 16q27 0 34 -10l-74 -384q-8 -8 -36 -8q-22 0 -22 16q-4 103 -42 122
q-28 14 -138 14q-135 0 -140 -28l-60 -310q-22 -130 -16 -158q4 -19 37.5 -29.5t74.5 -10.5h124q111 0 186 66q59 52 136 190q6 12 30 12q14 0 31.5 -4t20.5 -8q-4 -7 -34.5 -65.5l-41.5 -80.5l-33 -66.5t-35 -75.5t-22 -56q-401 0 -652 -1q-232 0 -256 -1q-5 9 0 36.5
t14 37.5q113 9 126 34q23 41 50 188l144 736q2 10 6.5 34.5t6.5 34t5 28.5t4 28t2 22.5t0.5 23t-2.5 17.5q-4 23 -114 32q-4 10 2 37.5t14 36.5q82 -6 264 -6z" />
    <glyph glyph-name="Edieresis" unicode="&#xcb;" horiz-adv-x="1144" 
d="M852 1600q11 56 55.5 95t96.5 39q51 0 80.5 -39.5t19.5 -94.5q-11 -57 -54.5 -99.5t-95.5 -42.5q-53 0 -83 43t-19 99zM464 1600q11 56 55.5 95t96.5 39q51 0 80.5 -39.5t19.5 -94.5q-11 -57 -54.5 -99.5t-95.5 -42.5q-53 0 -83 43t-19 99zM506 1314q45 0 309.5 6.5
t298.5 7.5q-4 -67 -4 -296q-10 -10 -46 -10q-23 0 -26 16q-8 47 -17.5 79t-27 62.5t-47 45.5t-70.5 15h-154q-83 0 -98 -24q-4 -7 -7.5 -15.5t-6.5 -22l-5 -22t-6.5 -30.5l-6.5 -32l-70 -358q-1 -6 9.5 -11t28.5 -8t38 -3h98q82 0 117.5 26t74.5 114q6 16 24 16q27 0 34 -10
l-74 -384q-8 -8 -36 -8q-22 0 -22 16q-4 103 -42 122q-28 14 -138 14q-135 0 -140 -28l-60 -310q-22 -130 -16 -158q4 -19 37.5 -29.5t74.5 -10.5h124q111 0 186 66q59 52 136 190q6 12 30 12q14 0 31.5 -4t20.5 -8q-4 -7 -34.5 -65.5l-41.5 -80.5l-33 -66.5t-35 -75.5
t-22 -56q-401 0 -652 -1q-232 0 -256 -1q-5 9 0 36.5t14 37.5q113 9 126 34q23 41 50 188l144 736q2 10 6.5 34.5t6.5 34t5 28.5t4 28t2 22.5t0.5 23t-2.5 17.5q-4 23 -114 32q-4 10 2 37.5t14 36.5q82 -6 264 -6z" />
    <glyph glyph-name="Igrave" unicode="&#xcc;" horiz-adv-x="706" 
d="M656 1430q-28 4 -116 27.5t-184.5 66t-96.5 78.5q0 33 34.5 48.5t76.5 15.5q66 0 92 -16q55 -32 127 -103t85 -91q0 -12 -18 -26zM506 1310q134 0 264 14q5 -9 0 -36.5t-14 -37.5q-112 -9 -126 -36q-26 -47 -52 -188l-142 -736q-2 -10 -6.5 -34.5t-6.5 -34t-5 -28.5
t-4 -28t-2 -22.5t-0.5 -23t2.5 -17.5q4 -27 112 -36q4 -10 -1 -37.5t-13 -36.5q-122 14 -264 14q-136 0 -266 -14q-5 9 1 36.5t15 37.5q112 9 126 36q23 41 50 188l144 736q2 10 6.5 34.5t6.5 34t5 28.5t4 28t2 22.5t0.5 23t-2.5 17.5q-4 27 -112 36q-4 10 1 37.5t13 36.5
q122 -14 264 -14z" />
    <glyph glyph-name="Iacute" unicode="&#xcd;" horiz-adv-x="706" 
d="M388 1430q-18 14 -18 26q13 20 85 91t127 103q26 16 92 16q42 0 76.5 -15.5t34.5 -48.5q0 -36 -96.5 -78.5t-184.5 -66t-116 -27.5zM506 1310q134 0 264 14q5 -9 0 -36.5t-14 -37.5q-112 -9 -126 -36q-26 -47 -52 -188l-142 -736q-2 -10 -6.5 -34.5t-6.5 -34t-5 -28.5
t-4 -28t-2 -22.5t-0.5 -23t2.5 -17.5q4 -27 112 -36q4 -10 -1 -37.5t-13 -36.5q-122 14 -264 14q-136 0 -266 -14q-5 9 1 36.5t15 37.5q112 9 126 36q23 41 50 188l144 736q2 10 6.5 34.5t6.5 34t5 28.5t4 28t2 22.5t0.5 23t-2.5 17.5q-4 27 -112 36q-4 10 1 37.5t13 36.5
q122 -14 264 -14z" />
    <glyph glyph-name="Icircumflex" unicode="&#xce;" horiz-adv-x="706" 
d="M574 1740q6 0 22 -20q34 -45 96 -119t96 -109q-5 -26 -24 -32q-19 5 -99 48.5t-119 71.5q-49 -28 -143 -71t-119 -49q-6 3 -10.5 13.5t-3.5 18.5q201 157 276 228q20 20 28 20zM506 1310q134 0 264 14q5 -9 0 -36.5t-14 -37.5q-112 -9 -126 -36q-26 -47 -52 -188
l-142 -736q-2 -10 -6.5 -34.5t-6.5 -34t-5 -28.5t-4 -28t-2 -22.5t-0.5 -23t2.5 -17.5q4 -27 112 -36q4 -10 -1 -37.5t-13 -36.5q-122 14 -264 14q-136 0 -266 -14q-5 9 1 36.5t15 37.5q112 9 126 36q23 41 50 188l144 736q2 10 6.5 34.5t6.5 34t5 28.5t4 28t2 22.5t0.5 23
t-2.5 17.5q-4 27 -112 36q-4 10 1 37.5t13 36.5q122 -14 264 -14z" />
    <glyph glyph-name="Idieresis" unicode="&#xcf;" horiz-adv-x="706" 
d="M638 1600q11 56 55.5 95t96.5 39q51 0 80.5 -39.5t19.5 -94.5q-11 -57 -54.5 -99.5t-95.5 -42.5q-53 0 -83 43t-19 99zM250 1600q11 56 55.5 95t96.5 39q51 0 80.5 -39.5t19.5 -94.5q-11 -57 -54.5 -99.5t-95.5 -42.5q-53 0 -83 43t-19 99zM506 1310q134 0 264 14
q5 -9 0 -36.5t-14 -37.5q-112 -9 -126 -36q-26 -47 -52 -188l-142 -736q-2 -10 -6.5 -34.5t-6.5 -34t-5 -28.5t-4 -28t-2 -22.5t-0.5 -23t2.5 -17.5q4 -27 112 -36q4 -10 -1 -37.5t-13 -36.5q-122 14 -264 14q-136 0 -266 -14q-5 9 1 36.5t15 37.5q112 9 126 36
q23 41 50 188l144 736q2 10 6.5 34.5t6.5 34t5 28.5t4 28t2 22.5t0.5 23t-2.5 17.5q-4 27 -112 36q-4 10 1 37.5t13 36.5q122 -14 264 -14z" />
    <glyph glyph-name="Eth" unicode="&#xd0;" horiz-adv-x="1442" 
d="M594 1094l-158 -812q-22 -130 -16 -158q4 -20 37 -33t71 -13q230 0 361.5 130t188.5 420q56 288 -43 450t-311 162q-83 0 -98 -24q-4 -7 -7.5 -15.5t-6.5 -22l-5 -22t-6.5 -30.5zM794 1320q213 0 358.5 -85.5t203.5 -241.5t18 -359q-26 -137 -84.5 -246t-138 -182
t-182 -121t-213 -69.5t-234.5 -21.5h-536q-5 9 0 36.5t14 37.5q113 9 126 34q23 41 50 188l144 736q2 10 6.5 34.5t6.5 34t5 28.5t4 28t2 22.5t0.5 23t-2.5 17.5q-4 23 -114 32q-4 10 2 37.5t14 36.5q82 -6 264 -6q45 0 147.5 2.5t138.5 3.5zM120 686h660q6 0 9 -5t1 -11
q-9 -43 -22 -62h-662q-12 0 -6 22q9 45 20 56z" />
    </font>
</defs>
</svg>
