<?xml version="1.0" standalone="no"?>
<!DOCTYPE svg PUBLIC "-//W3C//DTD SVG 1.1//EN" "http://www.w3.org/Graphics/SVG/1.1/DTD/svg11.dtd" >
<svg>
<metadata>
Created by FontForge 20090622 at Thu Nov 24 10:18:40 2016
 By deploy user
Copyright (c) 2014 by Abjad / Ali Almasri. All rights reserved.
</metadata>
<defs>
<font id="Swissra-Bold" horiz-adv-x="0" >
  <font-face 
    font-family="Swissra"
    font-weight="700"
    font-stretch="normal"
    units-per-em="1000"
    panose-1="0 0 0 0 0 0 0 0 0 0"
    ascent="662"
    descent="-338"
    bbox="-170 -556 1591 1089"
    underline-thickness="24"
    underline-position="-37"
    unicode-range="U+000D-U+FEFC"
  />
<missing-glyph horiz-adv-x="499" 
d="M499 699v-699h-499v699h499zM450 48v601h-402v-601h402zM219 228h-7q0 5 -1 8t-1 9v20q0 7 2 21t4 21q3 11 6 18q10 20 25 35q11 11 31 33q15 17 27 33t12 36q0 16 -6 31t-15 27q-8 11 -23 19q-13 7 -30 7q-20 0 -33 -7q-14 -8 -23 -21q-9 -14 -15 -30q-5 -15 -7 -33
l-48 7q3 29 12 53q9 25 25 42q16 18 40 28q23 10 55 10q30 0 51 -10q23 -11 38 -27q15 -17 24 -40q9 -24 9 -51q0 -24 -6 -42q-6 -19 -16 -33q-12 -17 -22 -27q-8 -8 -24 -22q-12 -11 -21 -21q-8 -10 -13 -24q-1 -6 -3 -15q-2 -12 -2 -19v-21v-15h-45zM209 114v65h55v-65
h-55z" />
    <glyph glyph-name="uniFB50" unicode="&#x671;" horiz-adv-x="262" arabic-form="isolated" 
d="M162 947l-1 -1q39 0 57 -21t18 -53v-52h-216v46h34q10 15 24 30q16 17 28 26q13 9 29 18q13 7 27 7zM180 865l-2 6q0 14 -7 21q-8 8 -18 8q-19 0 -33 -12q-13 -11 -21 -23h81zM57 -1v715h142v-715h-142z" />
    <glyph glyph-name="uniFB51" unicode="&#x671;" horiz-adv-x="274" arabic-form="final" 
d="M171 947l-1 -1q39 0 57 -21t18 -53v-52h-216v46h34q11 15 24 30q16 17 28 26q13 9 29 18q13 7 27 7zM189 865l-2 6q0 14 -7 21q-8 8 -18 8q-20 0 -33 -12q-13 -11 -21 -23h81zM271 117h1q6 0 14 -2q6 -1 6 -12v-93q0 -11 -21 -11h-214v715h142v-597h72z" />
    <glyph glyph-name="uniFB56" unicode="&#x67e;" horiz-adv-x="992" arabic-form="isolated" 
d="M451 -253h115v-114h-115v114zM536 -99h115v-114h-115v114zM366 -99h114v-114h-114v114zM222 0l2 2q-42 0 -79 14q-36 14 -63 42t-42 72t-15 102v67h126v-53q0 -27 5 -54q5 -24 16 -40q12 -16 31 -25t48 -9h539v308h142v-426h-710z" />
    <glyph glyph-name="uniFB57" unicode="&#x67e;" horiz-adv-x="1062" arabic-form="final" 
d="M444 -253h115v-114h-115v114zM529 -99h115v-114h-115v114zM359 -99h114v-114h-114v114zM1062 118l2 4q6 0 14 -2q6 -2 6 -12v-93q0 -11 -21 -11h-45q-20 0 -39 6t-36 15q-15 8 -31 21q-13 10 -25 26q-18 -21 -40 -34q-23 -14 -45 -21q-26 -9 -43 -11q-21 -3 -37 -3h-499
q-42 0 -79 14q-36 13 -63 42t-42 72t-15 102v67h126v-53q0 -27 5 -54q5 -24 16 -40q12 -16 31 -25q20 -9 48 -9h470q10 0 22 3q13 3 23 12q11 9 18 24q7 14 7 38v230h142v-215q0 -23 8 -42q8 -18 20 -29q11 -10 27 -16q15 -6 30 -6h45z" />
    <glyph glyph-name="uniFB58" unicode="&#x67e;" horiz-adv-x="374" arabic-form="initial" 
d="M110 -253h115v-114h-115v114zM195 -99h115v-114h-115v114zM25 -99h114v-114h-114v114zM0 0h1q-21 0 -21 11v93q0 10 6 12q8 2 14 2h172v308h142v-426h-314z" />
    <glyph glyph-name="uniFB59" unicode="&#x67e;" horiz-adv-x="475" arabic-form="medial" 
d="M226 -253h115v-114h-115v114zM311 -99h115v-114h-115v114zM141 -99h114v-114h-114v114zM0 0l1 2q-21 0 -21 11v93q0 10 6 12q8 2 14 2h134q10 0 22 3q13 3 23 12q11 9 18 24q7 14 7 38v230h142v-210q0 -25 8 -44q7 -17 20 -30q12 -12 27 -18t30 -6h45q6 0 14 -2
q6 -1 6 -12v-93q0 -11 -21 -11h-45q-20 0 -39 6t-36 15q-15 8 -31 21q-13 10 -25 26q-18 -21 -40 -34q-23 -13 -45 -21q-26 -8 -43 -11q-21 -3 -37 -3h-134z" />
    <glyph glyph-name="uniFB66" unicode="&#x679;" horiz-adv-x="992" arabic-form="isolated" 
d="M222 0l2 2q-42 0 -79 14q-36 14 -63 42t-42 72t-15 102v67h126v-53q0 -27 5 -54q5 -24 16 -40q12 -16 31 -25t48 -9h539v308h142v-426h-710zM517 555l-1 -1q39 0 57 -21t18 -53v-52h-216v46h23v139h55v-93h4q15 15 28 24q16 11 32 11zM535 473l-2 6q0 14 -7 21
q-8 8 -18 8q-20 0 -33 -12q-13 -11 -21 -23h81z" />
    <glyph glyph-name="uniFB67" unicode="&#x679;" horiz-adv-x="1062" arabic-form="final" 
d="M1062 118l2 4q6 0 14 -2q6 -2 6 -12v-93q0 -11 -21 -11h-45q-20 0 -39 6t-36 15q-15 8 -31 21q-13 10 -25 26q-18 -21 -40 -34q-23 -14 -45 -21q-26 -9 -43 -11q-21 -3 -37 -3h-499q-42 0 -79 14q-36 13 -63 42t-42 72t-15 102v67h126v-53q0 -27 5 -54q5 -24 16 -40
q12 -16 31 -25q20 -9 48 -9h470q10 0 22 3q13 3 23 12q11 9 18 24q7 14 7 38v230h142v-215q0 -23 8 -42q8 -18 20 -29q11 -10 27 -16q15 -6 30 -6h45zM510 557l-1 -1q39 0 57 -21t18 -53v-52h-216v46h23v139h55v-93h4q15 15 28 24q16 11 32 11zM528 475l-2 6q0 14 -7 21
q-8 8 -18 8q-19 0 -33 -12q-13 -11 -21 -23h81z" />
    <glyph glyph-name="uniFB68" unicode="&#x679;" horiz-adv-x="374" arabic-form="initial" 
d="M239 714l-1 -1q39 0 57 -21t18 -53v-52h-216v46h23v139h55v-93h4q15 15 28 24q16 11 32 11zM257 632l-2 6q0 14 -7 21q-8 8 -18 8q-20 0 -33 -12q-13 -11 -21 -23h81zM-3 -1h1q-21 0 -21 11v93q0 11 6 12q8 2 14 2h172v308h142v-426h-314z" />
    <glyph glyph-name="uniFB69" unicode="&#x679;" horiz-adv-x="475" arabic-form="medial" 
d="M311 712l-1 -1q39 0 57 -21t18 -53v-52h-216v46h23v139h55v-93h4q15 15 28 24q16 11 32 11zM329 630l-2 6q0 14 -7 21q-8 8 -18 8q-20 0 -33 -12q-13 -11 -21 -23h81zM-3 -1l1 2q-21 0 -21 11v93q0 11 6 12q8 2 14 2h134q10 0 22 3q13 3 23 12t18 24q7 14 7 38v230h142
v-210q0 -25 8 -44q7 -17 20 -30q12 -12 27 -18t30 -6h45q6 0 14 -2q6 -2 6 -12v-93q0 -11 -21 -11h-45q-19 0 -39 6t-36 15q-15 8 -31 21q-13 10 -25 26q-18 -21 -40 -34q-22 -14 -45 -21q-25 -9 -43 -11q-21 -3 -37 -3h-134z" />
    <glyph glyph-name="uniFB6A" unicode="&#x6a4;" horiz-adv-x="1118" arabic-form="isolated" 
d="M765 869h115v-114h-115v114zM850 715h115v-114h-115v114zM680 715h114v-114h-114v114zM554 245v3q0 59 20 105t54 77t83 48q47 16 104 16q56 0 104 -15q49 -15 84 -46q36 -31 57 -78t21 -108t-21 -108q-21 -46 -57 -76t-84 -45t-104 -15h-592q-42 0 -79 14q-36 13 -63 42
t-42 72t-15 102v67h126v-53q0 -27 5 -54q5 -24 16 -40q12 -16 31 -25q20 -9 48 -9h359v4q-23 21 -39 54q-16 32 -16 68zM698 248l-2 -3q0 -58 29 -96q28 -37 87 -37q28 0 50 11q20 10 36 29q14 17 22 42q8 26 8 52q0 31 -7 53q-8 25 -22 42q-16 19 -36 29q-22 11 -50 11
q-30 0 -50 -10t-36 -29q-14 -17 -22 -42q-7 -22 -7 -52z" />
    <glyph glyph-name="uniFB6B" unicode="&#x6a4;" horiz-adv-x="1133" arabic-form="final" 
d="M771 869h115v-114h-115v114zM856 715h115v-114h-115v114zM686 715h114v-114h-114v114zM1133 118l-2 5q6 0 14 -2q6 -1 6 -12v-93q0 -11 -21 -11h-911q-42 0 -79 14q-36 13 -63 42t-42 72t-15 102v67h126v-53q0 -27 5 -54q5 -24 16 -40q12 -16 31 -25q20 -9 48 -9h359v4
q-23 21 -39 54q-16 32 -16 68q0 59 20 105t54 77t83 48q47 16 104 16q56 0 104 -15q49 -15 84 -46q36 -32 57 -78t21 -108q0 -33 -17 -69q-16 -34 -39 -55v-4h112zM812 117l-2 -2q59 0 87 37q29 38 29 96q0 31 -7 53q-8 25 -22 42q-16 19 -36 29q-22 11 -50 11
q-30 0 -50 -10t-36 -29q-14 -17 -22 -42q-7 -22 -7 -52q0 -58 29 -96q28 -37 87 -37z" />
    <glyph glyph-name="uniFB6C" unicode="&#x6a4;" horiz-adv-x="634" arabic-form="initial" 
d="M282 869h115v-114h-115v114zM367 715h115v-114h-115v114zM197 715h114v-114h-114v114zM215 245l-2 -3q0 -58 29 -96q28 -37 87 -37q28 0 50 11q20 10 36 29q14 17 22 42q8 26 8 52q0 31 -7 53q-8 25 -22 42q-16 19 -36 29q-22 11 -50 11q-30 0 -50 -10t-36 -29
q-14 -17 -22 -42q-7 -22 -7 -52zM125 115l-1 5q-22 21 -39 54q-16 32 -16 68q0 59 20 105t54 77t83 48q47 16 104 16q56 0 104 -15q49 -15 84 -46q36 -31 57 -78t21 -108t-21 -108q-21 -46 -57 -76t-84 -45t-104 -15h-331q-21 0 -21 11v93q0 11 6 12q8 2 14 2h127z" />
    <glyph glyph-name="uniFB6D" unicode="&#x6a4;" horiz-adv-x="644" arabic-form="medial" 
d="M252 869h115v-114h-115v114zM337 715h115v-114h-115v114zM167 715h114v-114h-114v114zM0 0l-3 3q-21 0 -21 11v93q0 11 6 12q8 2 14 2h114v4q-22 21 -39 54q-16 32 -16 68q0 59 20 105t54 77t83 48q47 16 104 16q56 0 104 -15q49 -15 84 -46q36 -32 57 -78t21 -108
q0 -33 -17 -69q-16 -34 -39 -55v-4h119q6 0 14 -2q6 -2 6 -12v-93q0 -11 -21 -11h-644zM315 115l-2 -2q59 0 87 37q29 38 29 96q0 31 -7 53q-8 25 -22 42q-16 19 -36 29q-22 11 -50 11q-30 0 -50 -10t-36 -29q-14 -17 -22 -42q-7 -22 -7 -52q0 -58 29 -96q28 -37 87 -37z
" />
    <glyph glyph-name="uniFB7A" unicode="&#x686;" horiz-adv-x="695" arabic-form="isolated" 
d="M353 -38h75v-74h-75v74zM243 -38h74v-74h-74v74zM298 -138h75v-75h-75v75zM282 0l-7 -2q-31 0 -54 -9t-38 -24q-14 -14 -22 -35q-7 -18 -7 -40q0 -38 9 -65q9 -26 32 -62h-135q-20 25 -33 57q-13 30 -13 74q0 40 15 81q15 40 45 73q31 34 75 53q46 20 107 20h233
q-4 14 -7 22q-3 9 -6 26q-4 19 -5 33q-4 38 -14 74q-9 33 -24 57q-14 23 -38 37q-22 13 -56 13q-31 0 -54 -10q-24 -11 -42 -27q-19 -17 -29 -39q-10 -23 -15 -45h-128q3 50 24 92t57 72t84 48t104 18q72 0 123 -23q49 -23 81 -63t48 -96t24 -120l12 -85l8 -47q3 -15 6 -28
l3.5 -14t4.5 -16h-368z" />
    <glyph glyph-name="uniFB7B" unicode="&#x686;" horiz-adv-x="762" arabic-form="final" 
d="M355 -38h75v-74h-75v74zM245 -38h74v-74h-74v74zM300 -138h75v-75h-75v75zM160 -110l2 -4q0 -38 9 -65q9 -26 32 -62h-135q-20 25 -33 57q-13 30 -13 74q0 46 15 87t45 72q29 31 75 49q45 18 107 18h222v121q0 73 -39 107q-40 35 -105 35q-31 0 -54 -10q-24 -11 -42 -27
q-17 -15 -28 -38q-10 -21 -15 -44h-128q3 50 24 92q21 41 56 72q35 30 81 48t102 18q74 0 127 -22q55 -23 90 -61q36 -39 54 -91t18 -111q0 -25 9 -42t24 -27t35 -15q17 -4 37 -4h31q6 0 14 -2q6 -1 6 -12v-93q0 -11 -21 -11h-31q-12 0 -29 5q-15 4 -30 12q-14 7 -27 20
q-12 12 -18 27h-4q-1 -7 -8 -30q-6 -21 -16 -33h-318q-65 0 -93 -31t-28 -79z" />
    <glyph glyph-name="uniFB7C" unicode="&#x686;" horiz-adv-x="739" arabic-form="initial" 
d="M295 -253h115v-114h-115v114zM380 -99h115v-114h-115v114zM210 -99h114v-114h-114v114zM-22 22l-4 77q0 9 6 15t15 6h538q-4 22 -7 34q-3 15 -6 33q-1 6 -2.5 18t-2.5 18q-9 73 -57 116q-47 42 -112 42q-31 0 -58 -10q-28 -11 -51 -27q-22 -16 -37 -39q-14 -21 -19 -45
h-128q3 51 28 92q25 42 66 72q40 30 92 48q51 18 107 18q74 0 129 -21q56 -21 94 -58q39 -37 61 -88q23 -52 29 -111l10 -88q5 -33 9 -54q2 -8 4 -21t3 -15q1 -5 8 -33h-694q-9 0 -15 6t-6 15z" />
    <glyph glyph-name="uniFB7D" unicode="&#x686;" horiz-adv-x="787" arabic-form="medial" 
d="M281 -253h115v-114h-115v114zM366 -99h115v-114h-115v114zM196 -99h114v-114h-114v114zM0 0l3 -3q-21 0 -21 11v93q0 11 6 12q8 2 14 2h518v121q0 36 -15 63t-39 45t-54 27t-63 9q-32 0 -59 -10q-28 -10 -51 -27t-38 -38q-14 -20 -19 -44h-128q3 49 29 92q25 42 66 72
q40 30 92 48q51 18 107 18q74 0 132 -24t99 -66q41 -43 62 -96q21 -54 21 -114q0 -25 10 -39q10 -15 25 -22q14 -7 34 -10t37 -3h21q6 0 14 -2q6 -1 6 -12v-93q0 -11 -21 -11h-21q-12 0 -29 5q-15 4 -30 12q-14 7 -27 20q-12 12 -18 27h-4q-1 -7 -8 -30q-6 -21 -16 -33h-635
z" />
    <glyph glyph-name="uniFB88" unicode="&#x688;" horiz-adv-x="524" arabic-form="isolated" 
d="M250 714l-1 -1q39 0 57 -21t18 -53v-52h-216v46h23v139h55v-93h4q15 15 28 24q16 11 32 11zM268 632l-2 6q0 14 -7 21q-8 8 -18 8q-19 0 -33 -12q-13 -11 -21 -23h81zM61 117l273 -1v80q0 36 -9 66q-10 32 -25 53q-16 22 -39 34t-51 12h-103v111h103q57 0 104 -16t84 -50
q36 -33 57 -85t21 -124v-198h-415v118z" />
    <glyph glyph-name="uniFB89" unicode="&#x688;" horiz-adv-x="613" arabic-form="final" 
d="M258 714l-1 -1q39 0 57 -21t18 -53v-52h-216v46h23v139h55v-93h4q15 15 28 24q16 11 32 11zM276 632l-2 6q0 14 -7 21q-8 8 -18 8q-19 0 -33 -12q-13 -11 -21 -23h81zM610 117l3 -1q6 0 14 -2q6 -2 6 -12v-93q0 -11 -21 -11h-21q-12 0 -29 5q-15 5 -30 12q-14 7 -27 20
q-12 12 -18 27h-4q-1 -7 -8 -30q-6 -21 -16 -33h-390v118h272v80q0 36 -9 66q-10 32 -25 53q-16 22 -39 34q-22 12 -51 12h-103v111h103q56 0 104 -15q47 -15 84 -47q36 -31 57 -80q21 -48 21 -116v-20q0 -22 12 -39q11 -16 25 -24q15 -9 33 -12t36 -3h21z" />
    <glyph glyph-name="uniFB8A" unicode="&#x698;" horiz-adv-x="343" arabic-form="isolated" 
d="M163 869h115v-114h-115v114zM248 715h115v-114h-115v114zM78 715h114v-114h-114v114zM284 426l-1 -411q0 -56 -9 -103t-30 -80t-57 -51t-90 -18q-25 0 -46 4q-23 4 -43 12v103q10 -7 26 -10q14 -3 30 -3q44 0 60 36q17 37 17 111v410h143z" />
    <glyph glyph-name="uniFB8B" unicode="&#x698;" horiz-adv-x="414" arabic-form="final" 
d="M165 869h115v-114h-115v114zM250 715h115v-114h-115v114zM80 715h114v-114h-114v114zM414 118v-2q6 0 14 -2q6 -2 6 -12v-93q0 -11 -21 -11h-21q-12 0 -29 5q-15 5 -30 12q-13 7 -25 20q-11 13 -17 27h-4v-47q0 -56 -9 -103t-30 -80t-57 -51t-90 -18q-25 0 -46 4
q-23 4 -43 12v103q10 -7 26 -10q14 -3 30 -3q44 0 60 36q17 37 17 111v410h143v-226q0 -26 9 -42t24 -25t35 -12q19 -3 37 -3h21z" />
    <glyph glyph-name="uniFB8C" unicode="&#x691;" horiz-adv-x="343" arabic-form="isolated" 
d="M245 714l-1 -1q39 0 57 -21t18 -53v-52h-216v46h23v139h55v-93h4q15 15 28 24q16 11 32 11zM263 632l-2 6q0 14 -7 21q-8 8 -18 8q-20 0 -33 -12q-13 -11 -21 -23h81zM281 425l-1 -411q0 -56 -9 -103t-30 -80t-57 -51t-90 -18q-25 0 -46 4q-23 4 -43 12v103q10 -7 26 -10
q13 -3 30 -3q43 0 60 36q17 37 17 111v410h143z" />
    <glyph glyph-name="uniFB8D" unicode="&#x691;" horiz-adv-x="414" arabic-form="final" 
d="M248 714l-1 -1q39 0 57 -21t18 -53v-52h-216v46h23v139h55v-93h4q15 15 28 24q16 11 32 11zM266 632l-2 6q0 14 -7 21q-8 8 -18 8q-19 0 -33 -12q-13 -11 -21 -23h81zM411 117v-2q6 0 14 -2q6 -1 6 -12v-93q0 -11 -21 -11h-21q-12 0 -29 5q-15 4 -30 12q-13 7 -25 20
q-11 13 -17 27h-4v-47q0 -56 -9 -103t-30 -80t-57 -51t-90 -18q-25 0 -46 4q-23 4 -43 12v103q10 -7 26 -10q13 -3 30 -3q43 0 60 36q17 37 17 111v410h143v-226q0 -25 9 -42q9 -16 24 -25t35 -12q19 -3 37 -3h21z" />
    <glyph glyph-name="uniFB8E" unicode="&#x6a9;" horiz-adv-x="908" arabic-form="isolated" 
d="M581 474h1q146 0 213 -69q68 -70 68 -200v-205h-642q-42 0 -79 14t-62 42t-40 72t-15 102v68h125v-52q0 -60 21 -94t79 -34h471v93q0 80 -37 116q-38 36 -103 36h-250v111l240 241h151l-238 -241h97z" />
    <glyph glyph-name="uniFB8F" unicode="&#x6a9;" horiz-adv-x="990" arabic-form="final" 
d="M990 118l3 -1q6 0 14 -2q6 -1 6 -12v-93q0 -11 -21 -11h-21q-12 0 -29 5q-15 4 -30 12q-14 7 -27 20q-12 12 -18 27h-4q-1 -7 -8 -30q-6 -21 -16 -33h-617q-42 0 -79 14t-62 42t-40 72t-15 102v68h125v-52q0 -60 21 -94t79 -34h471v93q0 80 -37 116t-103 36h-250v111
l240 241h151l-238 -241h97q143 0 212 -66t69 -190q0 -26 10 -45t25 -31t34 -18q20 -6 37 -6h21z" />
    <glyph glyph-name="uniFB90" unicode="&#x6a9;" horiz-adv-x="665" arabic-form="initial" 
d="M478 118l2 93q1 79 -31 116q-31 36 -90 36h-314v111l240 241h151l-237 -241h159q139 0 201 -65t62 -188v-221h-621q-21 0 -21 11v93q0 10 6 12q8 2 14 2h479z" />
    <glyph glyph-name="uniFB91" unicode="&#x6a9;" horiz-adv-x="748" arabic-form="medial" 
d="M479 118l4 91q3 77 -31 116q-32 36 -90 36h-314v111l240 241h151l-237 -241h159q139 0 201 -65t62 -188v-16q0 -21 12 -40q11 -17 25 -27q15 -10 33 -15q16 -4 36 -4h21q6 0 14 -2q6 -1 6 -12v-93q0 -11 -21 -11h-21q-12 0 -29 5q-15 4 -30 12q-14 7 -27 20
q-12 12 -18 27h-4q-1 -7 -8 -30q-6 -21 -16 -33h-596q-21 0 -21 11v93q0 10 6 12q8 2 14 2h479z" />
    <glyph glyph-name="uniFB92" unicode="&#x6af;" horiz-adv-x="908" arabic-form="isolated" 
d="M144 474l239 241h109l-241 -241h-107zM581 474h1q146 0 213 -69q68 -70 68 -200v-205h-642q-42 0 -79 14t-62 42t-40 72t-15 102v68h125v-52q0 -60 21 -94t79 -34h471v93q0 80 -37 116q-38 36 -103 36h-250v111l240 241h151l-238 -241h97z" />
    <glyph glyph-name="uniFB93" unicode="&#x6af;" horiz-adv-x="990" arabic-form="final" 
d="M251 474h-107l239 241h109zM990 118l3 -1q6 0 14 -2q6 -1 6 -12v-93q0 -11 -21 -11h-21q-12 0 -29 5q-15 4 -30 12q-14 7 -27 20q-12 12 -18 27h-4q-1 -7 -8 -30q-6 -21 -16 -33h-617q-42 0 -79 14t-62 42t-40 72t-15 102v68h125v-52q0 -60 21 -94t79 -34h471v93
q0 80 -37 116t-103 36h-250v111l240 241h151l-238 -241h97q143 0 212 -66t69 -190q0 -26 10 -45t25 -31t34 -18q20 -6 37 -6h21z" />
    <glyph glyph-name="uniFB94" unicode="&#x6af;" horiz-adv-x="827" arabic-form="initial" 
d="M126 466h-107l238 249h109zM640 118l2 93q1 79 -31 116q-31 36 -90 36h-314v111l240 241h151l-237 -241h159q139 0 201 -65t62 -188v-221h-783q-21 0 -21 11v93q0 10 6 12q8 2 14 2h641z" />
    <glyph glyph-name="uniFB95" unicode="&#x6af;" horiz-adv-x="909" arabic-form="medial" 
d="M640 118l4 91q3 77 -31 116q-31 36 -90 36h-314v111l240 241h151l-237 -241h159q139 0 201 -65t62 -188v-16q0 -21 12 -40q11 -17 25 -27q15 -10 33 -15q16 -4 36 -4h21q6 0 14 -2q6 -1 6 -12v-93q0 -11 -21 -11h-21q-12 0 -29 5q-15 4 -30 12q-14 7 -27 20
q-12 12 -18 27h-4q-1 -7 -8 -30q-6 -21 -16 -33h-757q-21 0 -21 11v93q0 10 6 12q8 2 14 2h640zM129 464h-107l238 249h109z" />
    <glyph glyph-name="uniFB9E" unicode="&#x6ba;" horiz-adv-x="866" arabic-form="isolated" 
d="M414 -118h-2q61 0 109 17q47 17 77 54t45 95q15 57 15 140v114h143v-99q0 -95 -16 -174q-17 -81 -60 -141q-44 -60 -118 -93q-75 -33 -192 -33q-118 0 -193 33t-117 90q-41 56 -58 135q-16 76 -16 166v93h135v-93q0 -83 15 -140q15 -56 45 -94q30 -37 77 -54
q45 -16 111 -16z" />
    <glyph glyph-name="uniFB9F" unicode="&#x6ba;" horiz-adv-x="928" arabic-form="final" 
d="M416 -238l-2 -2q-118 0 -193 33t-117 90q-41 56 -58 135q-16 76 -16 166v93h135v-93q0 -83 15 -140q15 -56 45 -94q30 -37 77 -54q45 -16 111 -16q61 0 109 17q47 17 77 54t45 95q15 57 15 140v114h143v-85q0 -53 24 -75q25 -23 60 -23h41q6 0 14 -2q6 -1 6 -12v-93
q0 -11 -21 -11h-35q-32 0 -57 13q-26 14 -39 37h-4q-10 -63 -35 -117q-24 -52 -69 -90q-46 -38 -111 -59q-66 -21 -160 -21z" />
    <glyph glyph-name="uniFBA5" unicode="&#x6c0;" horiz-adv-x="611" arabic-form="final" 
d="M205 672l27 1v3q-14 17 -14 39q0 35 24 54q23 19 62 19q17 0 30 -4q16 -5 27 -13q12 -9 19 -22q8 -13 9 -33h-54q-1 14 -9 21q-7 7 -20 7q-10 0 -18 -9q-8 -10 -8 -26t8 -27q7 -10 26 -10h79v-46h-188v46zM606 119l-2 -1q6 0 14 -2q6 -2 6 -12v-93q0 -11 -21 -11h-49
q-51 0 -88 28q-38 29 -54 76q-23 -32 -62 -53t-87 -21q-46 0 -88 15q-41 15 -73 42q-31 26 -49 66q-18 39 -18 89t15 92q15 43 45 74q29 31 75 49q45 18 107 18h231v-252q0 -59 18 -81q18 -23 62 -23h18zM269 142v-1q20 0 38 6q19 7 32 19q15 15 23 34q9 21 9 50v109h-97
q-52 0 -79 -31q-27 -32 -27 -85q0 -50 26 -76q25 -25 75 -25z" />
    <glyph glyph-name="uniFBA6" unicode="&#x6c1;" horiz-adv-x="606" arabic-form="isolated" 
d="M303 380h-2q-32 0 -54 -13q-23 -14 -36 -34t-19 -45q-6 -24 -6 -48t6 -48q6 -23 20 -45q13 -20 36 -34q22 -13 54 -13t54 13q23 14 36 34q14 22 20 45q6 24 6 48t-6 48q-6 25 -19 45t-36 34q-22 13 -54 13zM301 -11q-61 0 -111 18t-84 51t-52 79q-18 47 -18 105t18 105
q18 46 52 79t84 51t111 18t111 -18t84 -51t52 -79q18 -47 18 -105t-18 -105q-18 -46 -52 -79t-84 -51t-111 -18z" />
    <glyph glyph-name="uniFBA7" unicode="&#x6c1;" horiz-adv-x="611" arabic-form="final" 
d="M611 118v4q6 0 14 -2q6 -2 6 -12v-93q0 -11 -21 -11h-49q-37 0 -72 11q-33 11 -57 30t-39 48q-15 28 -15 65v198h-97q-29 0 -49 -10q-22 -11 -33 -28q-12 -18 -18 -42t-6 -51v-136h-135v138q0 49 15 92q15 44 45 77q31 34 75 53q46 20 107 20h231v-247q0 -58 18 -81
t62 -23h18z" />
    <glyph glyph-name="uniFBA8" unicode="&#x6c1;" horiz-adv-x="374" arabic-form="initial" 
d="M0 0v-1q-21 0 -21 11v93q0 11 6 12q8 2 14 2h172v308h142v-426h-104v-86q0 -13 2 -27q1 -10 8 -15q6 -5 15 -6q12 -2 26 -2h34v-76h-34q-72 0 -109 27t-37 100v52q0 25 1 34h-115z" />
    <glyph glyph-name="uniFBA9" unicode="&#x6c1;" horiz-adv-x="801" arabic-form="medial" 
d="M49 198l2 -4q0 40 13 69t35 51t51 35q30 13 63 18q31 53 83 87q51 33 123 33t120 -19q50 -20 80 -56q31 -37 44 -87q14 -53 14 -115v-7q0 -21 12 -40q11 -17 25 -27q15 -10 33 -15q16 -4 36 -4h21q6 0 14 -2q6 -1 6 -12v-93q0 -11 -21 -11h-21q-12 0 -29 5q-15 4 -30 12
q-14 7 -27 20q-12 12 -18 27h-4q-1 -7 -8 -30q-6 -21 -16 -33h-649q-21 0 -21 11v93q0 10 6 12q8 2 14 2h65q-16 33 -16 80zM418 381h-3q-22 0 -45 -10t-40 -36q32 -21 51 -55t19 -85q0 -45 -17 -81h150v94q0 92 -27 132q-27 41 -88 41zM297 194q0 44 -20 66q-19 21 -54 21
t-54 -21q-20 -22 -20 -66t20 -67q19 -22 54 -22t54 22q20 23 20 67z" />
    <glyph glyph-name="uniFBAA" unicode="&#x6be;" horiz-adv-x="908" arabic-form="isolated" 
d="M238 198l-2 -2q0 40 13 69t35 51t51 35q30 13 63 18q31 53 83 87q51 33 123 33t120 -19q50 -20 80 -56q31 -37 44 -87q14 -53 14 -115v-212h-624q-42 0 -59 -15t-17 -54v-13h-143v19q0 93 54 137q55 44 141 44h40q-16 33 -16 80zM719 210h-3q0 92 -27 132q-27 41 -88 41
q-22 0 -45 -10t-40 -36q32 -21 51 -55t19 -85q0 -45 -17 -81h150v94zM482 196q0 44 -20 66q-20 21 -54 21t-54 -21q-20 -22 -20 -66t20 -67q19 -22 54 -22t54 22q20 23 20 67z" />
    <glyph glyph-name="uniFBAB" unicode="&#x6be;" horiz-adv-x="990" arabic-form="final" 
d="M238 198v-4q0 40 13 69t35 51t51 35q30 13 63 18q31 53 83 87q51 33 123 33t120 -19q50 -20 80 -56q31 -37 44 -87q14 -53 14 -115v-7q0 -21 12 -40q11 -17 25 -27q15 -10 33 -15q16 -4 36 -4h21q6 0 14 -2q6 -1 6 -12v-93q0 -11 -21 -11h-21q-12 0 -29 5q-15 4 -30 12
q-14 7 -27 20q-12 12 -18 27h-4q-1 -7 -8 -30q-6 -21 -16 -33h-599q-42 0 -59 -15t-17 -54v-13h-143v19q0 93 54 137q55 44 141 44h40q-16 33 -16 80zM721 208h-3q0 92 -27 132q-27 41 -88 41q-22 0 -45 -10t-40 -36q32 -21 51 -55t19 -85q0 -45 -17 -81h150v94zM484 194
q0 44 -20 66q-20 21 -54 21t-54 -21q-20 -22 -20 -66t20 -67q19 -22 54 -22t54 22q20 23 20 67z" />
    <glyph glyph-name="uniFBAC" unicode="&#x6be;" horiz-adv-x="718" arabic-form="initial" 
d="M-1 0v-2q-21 0 -21 11v93q0 10 6 12q8 2 14 2h65q-16 33 -16 80q0 40 13 69t35 51t51 35q30 13 63 18q31 53 83 87q51 33 123 33t120 -19q50 -20 80 -56q31 -37 44 -87q14 -53 14 -115v-212h-674zM415 383h-3q-22 0 -45 -10t-40 -36q32 -21 51 -55t19 -85q0 -45 -17 -81
h150v94q0 92 -27 132q-27 41 -88 41zM294 196q0 44 -20 66q-20 21 -54 21t-54 -21q-20 -22 -20 -66t20 -67q19 -22 54 -22t54 22q20 23 20 67z" />
    <glyph glyph-name="uniFBAD" unicode="&#x6be;" horiz-adv-x="801" arabic-form="medial" 
d="M49 198l2 -4q0 40 13 69t35 51t51 35q30 13 63 18q31 53 83 87q51 33 123 33t120 -19q50 -20 80 -56q31 -37 44 -87q14 -53 14 -115v-7q0 -21 12 -40q11 -17 25 -27q15 -10 33 -15q16 -4 36 -4h21q6 0 14 -2q6 -1 6 -12v-93q0 -11 -21 -11h-21q-12 0 -29 5q-15 4 -30 12
q-14 7 -27 20q-12 12 -18 27h-4q-1 -7 -8 -30q-6 -21 -16 -33h-649q-21 0 -21 11v93q0 10 6 12q8 2 14 2h65q-16 33 -16 80zM418 381h-3q-22 0 -45 -10t-40 -36q32 -21 51 -55t19 -85q0 -45 -17 -81h150v94q0 92 -27 132q-27 41 -88 41zM297 194q0 44 -20 66q-19 21 -54 21
t-54 -21q-20 -22 -20 -66t20 -67q19 -22 54 -22t54 22q20 23 20 67z" />
    <glyph glyph-name="uniFBAE" unicode="&#x6d2;" horiz-adv-x="903" arabic-form="isolated" 
d="M469 354l-161 -1q-65 0 -103 -36q-37 -36 -37 -115v-85h471q58 0 79 34t21 94v53h125v-68q0 -58 -15 -102t-40 -72t-62 -42t-79 -14h-642v196q0 130 68 200q68 69 213 69h162v-111z" />
    <glyph glyph-name="uniFBAF" unicode="&#x6d2;" horiz-adv-x="903" arabic-form="final" 
d="M469 0l-161 -1q-65 0 -103 -36q-37 -36 -37 -115v-85h471q58 0 79 34q21 35 21 94v53h125v-68q0 -58 -15 -102t-40 -72t-62 -42t-79 -14h-642v196q0 130 68 200q68 69 213 69h162v-111z" />
    <glyph glyph-name="uniFBB0" unicode="&#x6d3;" horiz-adv-x="903" arabic-form="isolated" 
d="M280 627l27 1v3q-14 17 -14 39q0 34 24 54q23 19 62 19q17 0 30 -4q16 -5 27 -13q12 -9 19 -22q7 -14 9 -33h-54q-2 13 -9 21q-7 7 -20 7q-11 0 -18 -9q-8 -10 -8 -26t8 -27q7 -10 26 -10h79v-46h-188v46zM464 355l-161 -1q-65 0 -103 -36q-37 -36 -37 -115v-85h471
q58 0 79 34t21 94v53h125v-68q0 -59 -15 -102q-15 -44 -40 -72t-62 -42t-79 -14h-642v196q0 130 68 200q67 69 213 69h162v-111z" />
    <glyph glyph-name="uniFBB1" unicode="&#x6d3;" horiz-adv-x="903" arabic-form="final" 
d="M282 259l27 1v3q-14 17 -14 39q0 34 24 54q23 19 62 19q17 0 30 -4q16 -5 27 -13q12 -9 19 -22q7 -14 9 -33h-54q-2 13 -9 21q-7 7 -20 7q-11 0 -18 -9q-8 -10 -8 -26t8 -27q7 -10 26 -10h79v-46h-188v46zM464 1l-161 -1q-65 0 -103 -36q-37 -36 -37 -115v-85h471
q58 0 79 34t21 94v53h125v-68q0 -59 -15 -102q-15 -44 -40 -72t-62 -42t-79 -14h-642v196q0 130 68 200q67 69 213 69h162v-111z" />
    <glyph glyph-name="uniFBE8" unicode="&#x649;" horiz-adv-x="374" arabic-form="initial" 
d="M0 0h1q-21 0 -21 11v93q0 10 6 12q8 2 14 2h172v308h142v-426h-314z" />
    <glyph glyph-name="uniFBE9" unicode="&#x649;" horiz-adv-x="475" arabic-form="medial" 
d="M0 0l1 2q-21 0 -21 11v93q0 10 6 12q8 2 14 2h134q10 0 22 3q13 3 23 12q11 9 18 24q7 14 7 38v230h142v-210q0 -25 8 -44q7 -17 20 -30q12 -12 27 -18t30 -6h45q6 0 14 -2q6 -1 6 -12v-93q0 -11 -21 -11h-45q-20 0 -39 6t-36 15q-15 8 -31 21q-13 10 -25 26
q-18 -21 -40 -34q-23 -13 -45 -21q-26 -8 -43 -11q-21 -3 -37 -3h-134z" />
    <glyph glyph-name="uniFBFC" unicode="&#x6cc;" horiz-adv-x="818" arabic-form="isolated" 
d="M413 -159l-3 -3q42 0 87 5q41 5 71 18q31 14 48 37q18 24 18 60q0 18 -5 33q-5 14 -21 26q-15 11 -48 22q-32 11 -84 24q-41 11 -72 34q-32 24 -53 53q-21 28 -33 60t-12 59q0 44 15 85q15 40 45 70t73 48t101 18q94 0 153 -54t66 -154h-123q-9 49 -30 73t-65 24
q-37 0 -64 -27t-27 -82q0 -16 9 -34q9 -19 28 -36q19 -18 51 -33t76 -27q44 -10 75 -30q32 -20 51 -43q20 -25 29 -51q9 -27 9 -54q0 -55 -22 -98q-23 -44 -67 -75q-45 -31 -114 -48q-71 -17 -163 -17q-115 0 -187 31q-74 32 -117 85q-44 54 -60 126t-18 155h123
q2 -76 13 -126q12 -53 42 -87q30 -35 79 -51q48 -16 126 -16z" />
    <glyph glyph-name="uniFBFD" unicode="&#x6cc;" horiz-adv-x="769" arabic-form="final" 
d="M412 -278l-2 -4q-111 0 -183 28q-74 29 -117 79q-44 52 -62 123q-17 70 -19 159h123q2 -77 18 -128t49 -82t81 -45q46 -13 113 -13q47 0 88 6q39 6 69 20q28 13 45 33q16 19 16 47q0 6 -3 15t-9 18t-15 15t-19 6q-19 0 -51 8q-31 8 -59 27v114q11 -7 33 -13q14 -4 44 -10
q22 -5 45 -6q30 -2 37 -2h136q6 0 14 -2q6 -1 6 -12v-93q0 -11 -21 -11h-54q14 -16 23 -39q9 -24 9 -44q0 -34 -23 -69q-22 -35 -66 -63t-105 -45q-63 -17 -141 -17z" />
    <glyph glyph-name="uniFBFE" unicode="&#x6cc;" horiz-adv-x="374" arabic-form="initial" 
d="M177 -98h115v-114h-115v114zM7 -98h114v-114h-114v114zM0 0h1q-21 0 -21 11v93q0 10 6 12q8 2 14 2h172v308h142v-426h-314z" />
    <glyph glyph-name="uniFBFF" unicode="&#x6cc;" horiz-adv-x="475" arabic-form="medial" 
d="M194 -98h115v-114h-115v114zM24 -98h114v-114h-114v114zM0 0l1 2q-21 0 -21 11v93q0 10 6 12q8 2 14 2h134q10 0 22 3q13 3 23 12q11 9 18 24q7 14 7 38v230h142v-210q0 -25 8 -44q7 -17 20 -30q12 -12 27 -18t30 -6h45q6 0 14 -2q6 -1 6 -12v-93q0 -11 -21 -11h-45
q-20 0 -39 6t-36 15q-15 8 -31 21q-13 10 -25 26q-18 -21 -40 -34q-23 -13 -45 -21q-26 -8 -43 -11q-21 -3 -37 -3h-134z" />
    <glyph glyph-name="uniFC31" unicode="&#xfc31;" horiz-adv-x="1272" arabic-form="isolated" 
d="M747 -84l-5 -3q0 -34 -23 -69q-23 -34 -66 -63t-105 -45q-63 -17 -141 -17q-111 0 -183 28q-74 29 -117 79q-44 52 -62 123q-17 70 -19 159h123q2 -77 18 -128t49 -82q33 -32 81 -45q46 -13 113 -13q48 0 88 6q39 6 69 20q29 14 45 33t16 47q0 6 -3 15t-9 18t-15 15
t-19 6q-19 0 -51 8q-31 8 -59 27v114q11 -7 33 -13q14 -4 44 -10q23 -4 45 -6q30 -2 37 -2h131v4q-22 21 -39 54q-16 32 -16 68q0 59 20 105t54 77t83 48q47 16 104 16q56 0 104 -15q49 -15 84 -46q36 -31 57 -78t21 -108t-21 -108q-21 -46 -57 -76t-84 -45t-104 -15h-253
q14 -16 23 -39q9 -24 9 -44zM847 242l-2 -3q0 -58 29 -96q28 -37 87 -37q28 0 50 11q20 10 36 29q14 17 22 42q8 26 8 52q0 31 -7 53q-8 25 -22 42q-16 19 -36 29q-22 11 -50 11q-30 0 -50 -10t-36 -29q-14 -17 -22 -42q-7 -22 -7 -52zM891 710h142v-117h-142v117z" />
    <glyph glyph-name="uniFC32" unicode="&#xfc32;" horiz-adv-x="1272" arabic-form="isolated" 
d="M747 -84l-5 -3q0 -34 -23 -69q-23 -34 -66 -63t-105 -45q-63 -17 -141 -17q-111 0 -183 28q-74 29 -117 79q-44 52 -62 123q-17 70 -19 159h123q2 -77 18 -128t49 -82q33 -32 81 -45q46 -13 113 -13q48 0 88 6q39 6 69 20q29 14 45 33t16 47q0 6 -3 15t-9 18t-15 15
t-19 6q-19 0 -51 8q-31 8 -59 27v114q11 -7 33 -13q14 -4 44 -10q23 -4 45 -6q30 -2 37 -2h131v4q-22 21 -39 54q-16 32 -16 68q0 59 20 105t54 77t83 48q47 16 104 16q56 0 104 -15q49 -15 84 -46q36 -31 57 -78t21 -108t-21 -108q-21 -46 -57 -76t-84 -45t-104 -15h-253
q14 -16 23 -39q9 -24 9 -44zM847 242l-2 -3q0 -58 29 -96q28 -37 87 -37q28 0 50 11q20 10 36 29q14 17 22 42q8 26 8 52q0 31 -7 53q-8 25 -22 42q-16 19 -36 29q-22 11 -50 11q-30 0 -50 -10t-36 -29q-14 -17 -22 -42q-7 -22 -7 -52zM891 710h142v-117h-142v117zM419 -361
h115v-114h-115v114zM249 -361h114v-114h-114v114z" />
    <glyph glyph-name="uniFC35" unicode="&#xfc35;" horiz-adv-x="1272" arabic-form="isolated" 
d="M747 -84l-5 -3q0 -34 -23 -69q-23 -34 -66 -63t-105 -45q-63 -17 -141 -17q-111 0 -183 28q-74 29 -117 79q-44 52 -62 123q-17 70 -19 159h123q2 -77 18 -128t49 -82q33 -32 81 -45q46 -13 113 -13q48 0 88 6q39 6 69 20q29 14 45 33t16 47q0 6 -3 15t-9 18t-15 15
t-19 6q-19 0 -51 8q-31 8 -59 27v114q11 -7 33 -13q14 -4 44 -10q23 -4 45 -6q30 -2 37 -2h131v4q-22 21 -39 54q-16 32 -16 68q0 59 20 105t54 77t83 48q47 16 104 16q56 0 104 -15q49 -15 84 -46q36 -31 57 -78t21 -108t-21 -108q-21 -46 -57 -76t-84 -45t-104 -15h-253
q14 -16 23 -39q9 -24 9 -44zM847 242l-2 -3q0 -58 29 -96q28 -37 87 -37q28 0 50 11q20 10 36 29q14 17 22 42q8 26 8 52q0 31 -7 53q-8 25 -22 42q-16 19 -36 29q-22 11 -50 11q-30 0 -50 -10t-36 -29q-14 -17 -22 -42q-7 -22 -7 -52zM992 709h115v-114h-115v114zM822 709
h114v-114h-114v114z" />
    <glyph glyph-name="uniFC36" unicode="&#xfc36;" horiz-adv-x="1272" arabic-form="isolated" 
d="M747 -84l-5 -3q0 -34 -23 -69q-23 -34 -66 -63t-105 -45q-63 -17 -141 -17q-111 0 -183 28q-74 29 -117 79q-44 52 -62 123q-17 70 -19 159h123q2 -77 18 -128t49 -82q33 -32 81 -45q46 -13 113 -13q48 0 88 6q39 6 69 20q29 14 45 33t16 47q0 6 -3 15t-9 18t-15 15
t-19 6q-19 0 -51 8q-31 8 -59 27v114q11 -7 33 -13q14 -4 44 -10q23 -4 45 -6q30 -2 37 -2h131v4q-22 21 -39 54q-16 32 -16 68q0 59 20 105t54 77t83 48q47 16 104 16q56 0 104 -15q49 -15 84 -46q36 -31 57 -78t21 -108t-21 -108q-21 -46 -57 -76t-84 -45t-104 -15h-253
q14 -16 23 -39q9 -24 9 -44zM847 242l-2 -3q0 -58 29 -96q28 -37 87 -37q28 0 50 11q20 10 36 29q14 17 22 42q8 26 8 52q0 31 -7 53q-8 25 -22 42q-16 19 -36 29q-22 11 -50 11q-30 0 -50 -10t-36 -29q-14 -17 -22 -42q-7 -22 -7 -52zM992 709h115v-114h-115v114zM822 709
h114v-114h-114v114zM419 -361h115v-114h-115v114zM249 -361h114v-114h-114v114z" />
    <glyph glyph-name="uniFC3D" unicode="&#xfc3d;" horiz-adv-x="1260" arabic-form="isolated" 
d="M747 -84l-2 -4q0 -34 -23 -69q-22 -35 -66 -63t-105 -45q-63 -17 -141 -17q-111 0 -183 28q-74 29 -117 79q-44 52 -62 123q-17 70 -19 159h123q2 -77 18 -128t49 -82t81 -45q46 -13 113 -13q47 0 88 6q39 6 69 20q28 13 45 33q16 19 16 47q0 6 -3 15t-9 18t-15 15t-19 6
q-19 0 -51 8q-31 8 -59 27v114q11 -7 33 -13q14 -4 44 -10q22 -5 45 -6q30 -2 37 -2h440v93q0 81 -31 116q-31 36 -90 36h-314v111l240 241h151l-237 -241h159q139 0 201 -65t62 -188v-221h-500q14 -16 23 -39q9 -24 9 -44z" />
    <glyph glyph-name="uniFC3E" unicode="&#xfc3e;" horiz-adv-x="1260" arabic-form="isolated" 
d="M747 -84l-2 -4q0 -34 -23 -69q-22 -35 -66 -63t-105 -45q-63 -17 -141 -17q-111 0 -183 28q-74 29 -117 79q-44 52 -62 123q-17 70 -19 159h123q2 -77 18 -128t49 -82t81 -45q46 -13 113 -13q47 0 88 6q39 6 69 20q28 13 45 33q16 19 16 47q0 6 -3 15t-9 18t-15 15t-19 6
q-19 0 -51 8q-31 8 -59 27v114q11 -7 33 -13q14 -4 44 -10q22 -5 45 -6q30 -2 37 -2h440v93q0 81 -31 116q-31 36 -90 36h-314v111l240 241h151l-237 -241h159q139 0 201 -65t62 -188v-221h-500q14 -16 23 -39q9 -24 9 -44zM425 -359h115v-114h-115v114zM255 -359h114v-114
h-114v114z" />
    <glyph glyph-name="uniFC43" unicode="&#xfc43;" horiz-adv-x="951" arabic-form="isolated" 
d="M747 -84l-3 -4q0 -34 -23 -69t-66 -63t-105 -45q-63 -17 -141 -17q-111 0 -183 28q-74 29 -117 79q-44 52 -62 123q-17 70 -19 159h123q2 -77 18 -128t49 -82t81 -45q46 -13 113 -13q48 0 88 6q39 6 69 20q29 13 45 33q16 19 16 47q0 6 -3 15t-9 18t-15 15t-19 6
q-19 0 -51 8q-31 8 -59 27v114q11 -7 33 -13q14 -4 44 -10q23 -5 45 -6q30 -2 37 -2h116v597h142v-715h-176q14 -16 23 -39q9 -24 9 -44z" />
    <glyph glyph-name="uniFC44" unicode="&#xfc44;" horiz-adv-x="951" arabic-form="isolated" 
d="M747 -84l-3 -4q0 -34 -23 -69t-66 -63t-105 -45q-63 -17 -141 -17q-111 0 -183 28q-74 29 -117 79q-44 52 -62 123q-17 70 -19 159h123q2 -77 18 -128t49 -82t81 -45q46 -13 113 -13q48 0 88 6q39 6 69 20q29 13 45 33q16 19 16 47q0 6 -3 15t-9 18t-15 15t-19 6
q-19 0 -51 8q-31 8 -59 27v114q11 -7 33 -13q14 -4 44 -10q23 -5 45 -6q30 -2 37 -2h116v597h142v-715h-176q14 -16 23 -39q9 -24 9 -44zM433 -359h115v-114h-115v114zM263 -359h114v-114h-114v114z" />
    <glyph glyph-name="uniFC53" unicode="&#xfc53;" horiz-adv-x="1325" arabic-form="isolated" 
d="M655 198l-4 -6q0 40 13 69t35 51t51 35q30 13 63 18q31 53 83 87q51 33 123 33t120 -19q50 -20 80 -56q31 -37 44 -87q14 -53 14 -115v-212h-565q14 -16 23 -39q9 -24 9 -44q0 -34 -23 -69q-23 -34 -66 -63t-105 -45q-63 -17 -141 -17q-111 0 -183 28q-74 29 -117 79
q-44 52 -62 123q-17 70 -19 159h123q2 -77 18 -128t49 -82q33 -32 81 -45q46 -13 113 -13q48 0 88 6q39 6 69 20q29 14 45 33t16 47q0 6 -3 15t-9 18t-15 15t-19 6q-19 0 -51 8q-31 8 -59 27v114q11 -7 33 -13q14 -4 44 -10q23 -4 45 -6q30 -2 37 -2h38q-16 33 -16 80z
M1018 379h-3q-22 0 -45 -10t-40 -36q32 -21 51 -55t19 -85q0 -45 -17 -81h150v94q0 92 -27 132q-27 41 -88 41zM897 192q0 44 -20 66q-19 21 -54 21t-54 -21q-20 -22 -20 -66t20 -67q19 -22 54 -22t54 22q20 23 20 67z" />
    <glyph glyph-name="uniFC54" unicode="&#xfc54;" horiz-adv-x="1325" arabic-form="isolated" 
d="M655 198l-4 -6q0 40 13 69t35 51t51 35q30 13 63 18q31 53 83 87q51 33 123 33t120 -19q50 -20 80 -56q31 -37 44 -87q14 -53 14 -115v-212h-565q14 -16 23 -39q9 -24 9 -44q0 -34 -23 -69q-23 -34 -66 -63t-105 -45q-63 -17 -141 -17q-111 0 -183 28q-74 29 -117 79
q-44 52 -62 123q-17 70 -19 159h123q2 -77 18 -128t49 -82q33 -32 81 -45q46 -13 113 -13q48 0 88 6q39 6 69 20q29 14 45 33t16 47q0 6 -3 15t-9 18t-15 15t-19 6q-19 0 -51 8q-31 8 -59 27v114q11 -7 33 -13q14 -4 44 -10q23 -4 45 -6q30 -2 37 -2h38q-16 33 -16 80z
M1018 379h-3q-22 0 -45 -10t-40 -36q32 -21 51 -55t19 -85q0 -45 -17 -81h150v94q0 92 -27 132q-27 41 -88 41zM897 192q0 44 -20 66q-19 21 -54 21t-54 -21q-20 -22 -20 -66t20 -67q19 -22 54 -22t54 22q20 23 20 67zM387 -361h115v-114h-115v114zM217 -361h114v-114h-114
v114z" />
    <glyph glyph-name="uni064C0651" unicode="&#xfc5e;" arabic-form="isolated" 
d="M-46 908l-1 -2q15 0 31 8q15 8 26 20q-7 1 -16 6q-8 4 -16 12q-5 5 -13 17q-6 9 -6 23q0 26 17 38q16 12 38 12t39 -12t17 -44q0 -20 -10 -39t-27 -36q-16 -16 -37 -25t-42 -9q-22 0 -38 15q-17 15 -17 43h-16v27h25q9 0 15 -6t6 -20t7 -21t18 -7zM-6 989q0 -10 9 -19
t23 -12q8 18 8 28q0 26 -21 26q-10 0 -14 -7q-5 -8 -5 -16zM-62 730l-5 -5q-17 0 -30 10q-13 11 -21 39l-11 43l41 11l10 -36q3 -11 9 -19q6 -7 15 -7q11 0 18 7t7 18q0 1 -2 11q-1 8 -9 39l42 12l10 -37q7 -25 24 -25q9 0 16 6t7 17v4q0 5 -1 9q-3 12 -4 15t-2 6.5
t-2.5 9.5l-2.5 10l41 11q3 -13 13 -51q3 -12 3 -17q0 -24 -19 -39t-45 -15q-13 0 -23 6t-18 20q0 -25 -18 -39q-19 -14 -43 -14z" />
    <glyph glyph-name="uni064D0651" unicode="&#xfc5f;" arabic-form="isolated" 
d="M-68 921l-5 -5q-17 0 -30 10t-21 39l-11 43l41 11l10 -36q3 -11 9 -19q6 -7 15 -7q11 0 18 7t7 18q0 1 -2 11q-1 7 -9 39l42 12l10 -37q7 -25 24 -25q8 0 16 6q7 6 7 17v4q0 5 -1 9q-3 12 -4 15t-2 6.5t-2.5 9.5l-2.5 10l41 11q4 -13 13 -51q3 -12 3 -17q0 -24 -19 -39
t-45 -15q-12 0 -23 6q-10 6 -18 20q0 -26 -18 -39q-19 -14 -43 -14zM-95 812l-13 48l203 54l12 -48zM-76 737l-13 48l203 54l12 -48z" />
    <glyph glyph-name="uni064E0651" unicode="&#xfc60;" arabic-form="isolated" 
d="M-48 736l-5 -5q-17 0 -30 10q-13 11 -21 39l-11 43l41 11l10 -36q3 -11 9 -19q6 -7 15 -7q11 0 18 7t7 18q0 1 -2 11q-1 8 -9 39l42 12l10 -37q7 -25 24 -25q8 0 16 6q7 6 7 17v4q0 5 -1 9q-3 12 -4 15t-2 6.5t-2.5 9.5l-2.5 10l41 11q3 -13 13 -51q3 -12 3 -17
q0 -24 -19 -39t-45 -15q-12 0 -23 6q-10 6 -18 20q0 -25 -18 -39q-19 -14 -43 -14zM-112 867l-13 48l203 54l12 -48z" />
    <glyph glyph-name="uni064F0651" unicode="&#xfc61;" arabic-form="isolated" 
d="M-69 683l-5 -5q-17 0 -30 10q-14 10 -21 39l-11 43l41 11l10 -36q3 -11 9 -19q6 -7 15 -7q11 0 18 7t7 18q0 1 -2 11q-2 7 -9 39l42 12l10 -37q7 -25 24 -25q9 0 16 6t7 17v4q0 5 -1 9q-3 12 -4 15t-2 6.5t-2.5 9.5l-2.5 10l41 11q3 -13 13 -51q3 -12 3 -17
q0 -24 -19 -39q-20 -15 -45 -15q-13 0 -23 6t-18 20q0 -26 -18 -39q-19 -14 -43 -14zM-72 860l-1 -2q21 0 38 10q20 12 32 25q-7 1 -19 8q-10 6 -21 15q-10 8 -16 21q-6 12 -6 28q0 32 20 47t47 15q28 0 49 -15t21 -55q0 -25 -13 -48q-13 -24 -34 -43q-20 -19 -46 -31
q-25 -12 -51 -12v37zM-23 961l-1 1q0 -12 12 -24t29 -15q10 19 10 35q0 32 -26 32q-12 0 -18 -9t-6 -20z" />
    <glyph glyph-name="uni06500651" unicode="&#xfc62;" arabic-form="isolated" 
d="M-61 853l-5 -5q-17 0 -30 10q-14 10 -21 39l-11 43l41 11l10 -36q3 -11 9 -19q6 -7 15 -7q11 0 18 7t7 18q0 1 -2 11q-2 7 -9 39l42 12l10 -37q7 -25 24 -25q9 0 16 6t7 17v4q0 5 -1 9q-3 12 -4 15t-2 6.5t-2.5 9.5l-2.5 10l41 11q4 -13 13 -51q3 -12 3 -17
q0 -24 -19 -39q-20 -15 -45 -15q-13 0 -23 6t-18 20q0 -26 -18 -39q-19 -14 -43 -14zM-91 733l-13 48l203 54l12 -48z" />
    <glyph glyph-name="uni06510670" unicode="&#xfc63;" arabic-form="isolated" 
d="M-47 760l-4 -2q-24 0 -42 12t-18 50v44h43v-37q0 -14 5 -24q5 -9 17 -9q10 2 18 9q7 7 7 25v38h44v-39q0 -17 7 -24t18 -7q10 0 15 9q5 10 5 23v38h43v-44q0 -39 -18 -51t-43 -12q-16 0 -30 9t-18 30q-6 -21 -19 -29q-13 -9 -30 -9zM-25 1013h44v-116h-44v116z" />
    <glyph glyph-name="uniFC86" unicode="&#xfc86;" horiz-adv-x="1021" arabic-form="final" 
d="M747 -84l-3 -2q0 -34 -23 -69t-66 -63t-105 -45q-63 -17 -141 -17q-111 0 -183 28q-74 29 -117 79q-44 52 -62 123q-17 70 -19 159h123q2 -77 18 -128t49 -82t81 -45q46 -13 113 -13q48 0 88 6q39 6 69 20q29 13 45 33q16 19 16 47q0 6 -3 15t-9 18t-15 15t-19 6
q-19 0 -51 8q-31 8 -59 27v114q11 -7 33 -13q14 -4 44 -10q23 -5 45 -6q30 -2 37 -2h47q10 0 22 3q13 3 23 12q11 9 18 24q7 14 7 38v519h142v-499q0 -25 8 -44q7 -17 20 -30q12 -12 27 -18t30 -6h45q6 0 14 -2q6 -2 6 -12v-93q0 -11 -21 -11h-45q-20 0 -39 6t-36 15
q-15 8 -31 21q-13 10 -25 26q-29 -32 -65 -47q-38 -16 -67 -20q14 -15 24 -40q10 -24 10 -45z" />
    <glyph glyph-name="uniFC87" unicode="&#xfc87;" horiz-adv-x="1021" arabic-form="final" 
d="M747 -84l-3 -2q0 -34 -23 -69t-66 -63t-105 -45q-63 -17 -141 -17q-111 0 -183 28q-74 29 -117 79q-44 52 -62 123q-17 70 -19 159h123q2 -77 18 -128t49 -82t81 -45q46 -13 113 -13q48 0 88 6q39 6 69 20q29 13 45 33q16 19 16 47q0 6 -3 15t-9 18t-15 15t-19 6
q-19 0 -51 8q-31 8 -59 27v114q11 -7 33 -13q14 -4 44 -10q23 -5 45 -6q30 -2 37 -2h47q10 0 22 3q13 3 23 12q11 9 18 24q7 14 7 38v519h142v-499q0 -25 8 -44q7 -17 20 -30q12 -12 27 -18t30 -6h45q6 0 14 -2q6 -2 6 -12v-93q0 -11 -21 -11h-45q-20 0 -39 6t-36 15
q-15 8 -31 21q-13 10 -25 26q-29 -32 -65 -47q-38 -16 -67 -20q14 -15 24 -40q10 -24 10 -45zM409 -359h115v-114h-115v114zM239 -359h114v-114h-114v114z" />
    <glyph glyph-name="uniFDF2" unicode="&#xfdf2;" horiz-adv-x="1516" arabic-form="isolated" 
d="M1308 0v715h142v-715h-142zM557 0l-1 3q-54 0 -89 28q-37 29 -53 76q-23 -32 -60 -53q-38 -21 -85 -21t-89 15t-75 42q-32 26 -52 66q-19 38 -19 89q0 49 15 91t45 72q31 31 75 47q46 17 107 17h231v-247q0 -59 18 -81q18 -23 62 -23h69q10 0 22 3q13 3 23 12q11 9 18 24
q7 14 7 38v519h142v-504q0 -24 8 -43q7 -17 20 -30q11 -11 27 -16q17 -5 30 -5h93v597h142v-715h-235q-19 0 -39 6t-36 15q-15 8 -31 21q-13 10 -25 26q-18 -21 -40 -34t-45 -21q-26 -8 -43 -11q-21 -3 -37 -3h-100zM275 145v-1q19 0 37 6t31 19q14 14 21 34q8 22 8 50v104
h-97q-52 0 -79 -30t-27 -84q0 -31 9 -51t24 -30q16 -11 34 -14q20 -3 39 -3z" />
    <glyph glyph-name="uniFDFA" unicode="&#xfdfa;" horiz-adv-x="1057" arabic-form="isolated" 
d="M1017 437l-3 -5q0 -14 -16 -39q-15 -24 -31 -31q-45 -21 -116 -21h-23q-7 0 -25 2q-24 -47 -38 -47q-4 0 -4 6q0 16 22 47q-41 17 -48 27q-40 -26 -50 -26q8 -143 25 -176q18 -35 84 -40l2 2q-21 15 -21 43q0 33 32 76q24 32 61 32q28 0 54 -17q24 -16 24 -31
q-26 9 -51 9q-35 0 -65 -14q-26 -14 -26 -27q0 -14 25 -39q26 -26 45 -29q19 2 68 18q52 17 66 25l-17 -37q-26 -14 -75 -28q-41 -12 -78 -19q-32 -6 -39 -6l1 1q-97 0 -119 73q-30 -65 -57 -65q-25 0 -66 44q-64 -56 -197 -56q-10 0 -38 2q-22 2 -32 3q4 -32 9 -52
q9 -36 23 -50q44 -44 176 -44q112 0 165 32q15 37 28 37q4 0 4 -8q0 -14 -12 -44q6 -13 27 -13q25 0 48 12q21 66 33 66q4 0 4 -11q0 -19 -10 -43q30 -13 45 -13q8 0 8 4q0 5 -8 39l17 36q12 -36 12 -52q0 -67 -44 -67q-23 0 -48 19q-17 -26 -60 -26q-48 0 -48 26
q-18 -14 -64 -24q-52 -11 -120 -11q-98 0 -144 28q-58 35 -60 126l-22 -32q-16 -25 -26 -27q12 -22 12 -42q0 -26 -16 -42q-8 -8 -21 -8q-18 0 -61 23q-14 -31 -42 -48q-7 -4 -24 -4q-16 -1 -21 -3l-11 -4q-6 0 -6 5q0 6 24 15q10 4 24 11q8 4 14 8l34 26q-10 17 -10 40
q0 21 18 41q18 21 34 21q2 0 6 -2q19 -10 30 -10q18 0 36 23l23 42q-38 12 -55 27q-28 25 -39 84h-2q-29 -50 -78 -50q-18 0 -39 8q-16 6 -16 12q0 25 43 58q41 31 84 45l-2 17l20 33q5 -60 10 -89q6 -36 13 -51q14 -32 55 -45l-13 132l19 43l17 -180q52 -6 95 -6
q104 0 177 40q12 38 19 38q4 0 4 -9t-4 -24q37 -35 59 -35q27 0 42 43l-13 161h-5q-70 0 -84 74h-2q-2 -6 -4.5 -14.5t-2.5 -10.5q-3 -9 -6 -16q-11 -25 -27 -30l2 -2q5 1 15 1q56 0 56 -40q0 -29 -25 -45q-85 -59 -160 -59q-46 0 -75 23q-28 22 -28 66q0 32 16 67
q-29 8 -39 42h-2q-16 -51 -55 -51q-47 0 -47 69v8l-27 -24q-7 -7 -39 -7q-49 0 -49 18q0 11 13 31q14 22 24 27l76 37v10l17 36l4 -120q1 -42 32 -42q16 0 29 10q15 11 17 23l-16 114l18 39l28 -161q9 -21 33 -21q23 0 23 13q0 22 -16 74l-10 32l-9 33l13 33
q40 -123 40 -156q0 -17 -10 -44q-12 -28 -24 -28q-5 0 -9 3q-7 -21 -7 -39q0 -75 91 -75q70 0 141 48q2 2 2 3q0 6 -38 12l-61 10q-4 3 -4 8q0 10 17 32q59 25 64 54q1 2 1 6v8q0 43 -5 106q-5 58 -15 125l17 56q24 -209 38 -255q18 -57 72 -66l-5 96l21 45l8 -140
q13 4 29 14q15 9 31 22l30 -21q17 -12 39 -15q10 10 27 24t39 30q52 38 70 38t41 -14q26 -15 26 -33zM1005 -3v1q0 -50 -39 -108q-42 -64 -89 -64q-24 0 -60 16q-37 15 -37 23q0 4 5 4q6 0 27 -7q24 -8 36 -8h2q66 0 138 106l-7 22q-20 -26 -37 -26q-7 0 -13 3q-7 3 -11 9
q-6 8 -8 13q-4 9 -4 18q0 23 15 51q16 31 27 31q14 0 33 -24q22 -26 22 -60zM755 523v-1q0 -11 26 -25l-9 -24q-33 11 -33 39q0 30 26 44q65 38 117 63q47 23 95 40l-9 -25q-34 -12 -117 -51q-96 -47 -96 -60zM473 442q-3 -67 -13 -73l-25 242l22 57zM599 32l-26 -31l-48 35
l-28 -36l-50 36l29 35l47 -35l27 33zM986 415l1 -1q0 7 -18 16q-17 9 -27 9q-22 0 -60 -24q-33 -21 -48 -34h8h12q13 0 41 2q21 1 42 6q49 9 49 26zM630 -127h-1q0 -22 -2 -30q-6 -13 -25 -13q-10 0 -14 4q-15 -16 -30 -16q-8 0 -18 9q-8 8 -12 8q-7 0 -36 -17
q-28 -18 -69 -18q-44 0 -44 8q0 7 32 7h30q11 0 17 2q15 3 36 16q29 19 40 19q7 0 18 -8t12 -8q15 0 18 17q1 13 11 13q4 0 4 -6v-4q0 -4 -1 -5q3 -4 11 -6q12 0 12 12q0 16 11 16zM812 699l-6 -22l-195 -96l4 25zM78 205l-1 -1q0 -10 31 -10q34 0 60 24l-2 38
q-88 -34 -88 -51zM320 658v1q0 -32 -21 -32q-11 0 -21 8q-18 -15 -30 -15q-21 0 -21 27q0 19 3 27l6 6v-7q0 -30 17 -30q11 0 18 16l-2 23l9 14l4 -30q1 -16 15 -16q13 0 12 15l-3 22l7 10q7 -18 7 -39zM110 439l1 1q0 -10 25 -10q29 0 51 13l-1 39l-21 -9l-21 -9
q-13 -6 -25 -14q-9 -6 -9 -11zM153 5v1q-14 0 -14 -12t26 -27q27 -15 39 -15q7 0 7 6q-5 20 -24 33q-19 14 -34 14zM961 -5q13 0 15 11q-6 32 -26 32q-16 0 -20 -25q4 -18 31 -18z" />
    <glyph glyph-name="uniFE80" unicode="&#x621;" horiz-adv-x="551" arabic-form="isolated" 
d="M20 0l-2 119h103v7l-18 18q-11 10 -18 24q-6 11 -13 30q-6 16 -6 34q0 44 18 82q18 37 50 63q32 25 72 39q42 14 84 14q44 0 81 -12q39 -12 66 -34q28 -22 45 -59t20 -85h-119q-1 39 -27 60q-25 21 -64 21q-40 0 -63 -24q-23 -25 -23 -65q0 -17 5 -40q4 -20 15 -37
q10 -16 29 -27q17 -10 44 -10h212v-118h-491z" />
    <glyph glyph-name="uniFE81" unicode="&#x622;" horiz-adv-x="262" arabic-form="isolated" 
d="M71 890v2q19 0 35 -6l33 -12q18 -6 27 -8q14 -3 27 -3q22 0 30 7q9 8 9 21h38q0 -35 -21 -58q-21 -22 -50 -22q-17 0 -30 4q-20 6 -29 9q-11 3 -31 9q-17 5 -32 5q-22 0 -30 -7q-9 -7 -9 -21h-38q0 36 21 58t50 22zM60 2v715h142v-715h-142z" />
    <glyph glyph-name="uniFE82" unicode="&#x622;" horiz-adv-x="274" arabic-form="final" 
d="M71 889v2q19 0 35 -6l33 -12q18 -6 27 -8q14 -3 27 -3q22 0 30 7q9 7 9 21h38q0 -36 -21 -58t-50 -22q-17 0 -30 4q-20 6 -29 9q-11 3 -31 9q-17 5 -32 5q-22 0 -30 -7q-9 -8 -9 -21h-38q0 35 21 58q21 22 50 22zM274 120h1q6 0 14 -2q6 -2 6 -12v-93q0 -11 -21 -11h-214
v715h142v-597h72z" />
    <glyph glyph-name="uniFE83" unicode="&#x623;" horiz-adv-x="262" arabic-form="isolated" 
d="M38 830l28 1v3q-5 6 -10 18q-4 9 -4 21q0 35 24 54q23 19 62 19q17 0 30 -4q16 -5 27 -13q12 -9 19 -22q8 -13 9 -33h-54q-1 14 -9 21q-7 7 -20 7q-10 0 -18 -9q-8 -10 -8 -26q0 -34 28 -37h84v-46h-188v46zM56 1v715h142v-715h-142z" />
    <glyph glyph-name="uniFE84" unicode="&#x623;" horiz-adv-x="274" arabic-form="final" 
d="M38 830l28 1v3q-5 6 -10 18q-4 9 -4 21q0 35 24 54q23 19 62 19q17 0 30 -4q16 -5 27 -13q12 -9 19 -22q8 -13 9 -33h-54q-1 14 -9 21q-7 7 -20 7q-10 0 -18 -9q-8 -10 -8 -26q0 -34 28 -37h84v-46h-188v46zM270 119h1q6 0 14 -2q6 -1 6 -12v-93q0 -11 -21 -11h-214v715
h142v-597h72z" />
    <glyph glyph-name="uniFE85" unicode="&#x624;" horiz-adv-x="575" arabic-form="isolated" 
d="M41 672l27 1v3q-14 17 -14 39q0 35 24 54q23 19 62 19q17 0 30 -4q16 -5 27 -13q12 -9 19 -22q8 -13 9 -33h-54q-1 14 -9 21q-7 7 -20 7q-10 0 -18 -9q-8 -10 -8 -26t8 -27q7 -10 26 -10h79v-46h-188v46zM203 -131l-4 -1q79 0 122 32t53 99h-124q-51 0 -90 16
q-41 17 -69 46q-29 31 -44 72q-15 42 -15 95q0 51 13 96q14 47 43 84q30 38 78 60q47 22 116 22q68 0 114 -21q47 -21 77 -60q29 -38 43 -95q13 -53 13 -126q0 -114 -18 -195q-18 -82 -55 -132q-38 -51 -96 -75t-143 -24q-16 0 -38 2q-14 1 -29 5q-14 5 -24 9v107
q19 -7 38 -12q16 -4 39 -4zM173 231l-1 1q0 -26 5 -49q4 -20 17 -36q11 -14 33 -22q20 -7 53 -7h106v74q0 40 -5 78q-4 34 -17 59q-12 23 -33 37q-20 13 -52 13q-31 0 -50 -12q-20 -12 -32 -33t-18 -48t-6 -55z" />
    <glyph glyph-name="uniFE86" unicode="&#x624;" horiz-adv-x="645" arabic-form="final" 
d="M46 672l27 1v3q-14 17 -14 39q0 35 24 54q23 19 62 19q17 0 30 -4q16 -5 27 -13q12 -9 19 -22t9 -33h-54q-2 14 -9 21t-20 7q-11 0 -18 -9q-8 -10 -8 -26t8 -27q7 -10 26 -10h79v-46h-188v46zM203 -131l-4 -2q79 0 122 32t53 99h-124q-51 0 -90 16q-41 17 -69 46
q-29 31 -44 72q-15 42 -15 95q0 51 13 96q14 47 43 84q30 37 78 60q47 22 116 22q68 0 114 -21q47 -21 77 -60q29 -38 43 -95q13 -53 13 -126v-36q0 -22 -1 -33h112q6 0 14 -2q6 -2 6 -12v-93q0 -11 -21 -11h-124q-21 -118 -94 -178t-204 -60q-16 0 -38 2q-14 1 -29 5
q-14 5 -24 9v107q19 -7 38 -12q16 -4 39 -4zM173 230l-1 1q0 -26 5 -49q4 -20 17 -36q11 -14 33 -22q20 -7 53 -7h106v74q0 40 -5 78q-4 34 -17 59q-12 23 -33 37q-20 13 -52 13q-31 0 -50 -12q-20 -12 -32 -33t-18 -48t-6 -55z" />
    <glyph glyph-name="uniFE87" unicode="&#x625;" horiz-adv-x="262" arabic-form="isolated" 
d="M29 -212l29 1v3q-5 6 -10 18q-4 9 -4 21q0 35 24 54q23 19 62 19q17 0 30 -4q16 -5 27 -13q12 -9 19 -22q8 -13 9 -33h-54q-1 14 -9 21q-7 7 -20 7q-10 0 -18 -9q-8 -10 -8 -26q0 -15 6 -25t21 -12h84v-46h-188v46zM57 1v715h142v-715h-142z" />
    <glyph glyph-name="uniFE88" unicode="&#x625;" horiz-adv-x="274" arabic-form="final" 
d="M43 -212l29 1v3q-5 6 -10 18q-4 9 -4 21q0 35 24 54q23 19 62 19q17 0 30 -4q16 -5 27 -13q12 -9 19 -22q8 -13 9 -33h-54q-1 14 -9 21q-7 7 -20 7q-10 0 -18 -9q-8 -10 -8 -26q0 -15 6 -25t21 -12h84v-46h-188v46zM271 119h1q6 0 14 -2q6 -1 6 -12v-93q0 -11 -21 -11
h-214v715h142v-597h72z" />
    <glyph glyph-name="uniFE89" unicode="&#x626;" horiz-adv-x="820" arabic-form="isolated" 
d="M32 249l27 1v3q-14 17 -14 39q0 34 24 54q23 19 62 19q17 0 30 -4q16 -5 27 -13q12 -9 19 -22q7 -14 9 -33h-54q-2 13 -9 21q-7 7 -20 7q-11 0 -18 -9q-8 -10 -8 -26t8 -27q7 -10 26 -10h79v-46h-188v46zM410 -158l-3 -3q42 0 87 5q41 5 71 18q31 14 48 37q18 24 18 60
q0 18 -5 33q-5 14 -21 26q-15 11 -48 22q-31 10 -84 24q-41 11 -72 34q-32 24 -53 53t-33 60t-12 59q0 44 15 85q15 40 45 70t73 48q44 18 101 18q95 0 153 -54q59 -54 66 -154h-123q-9 49 -30 73t-65 24q-37 0 -64 -27t-27 -82q0 -16 9 -34q9 -19 28 -36q20 -18 51 -33
q32 -15 76 -27q43 -11 75 -30q32 -20 51 -43q20 -25 29 -51q9 -27 9 -54q0 -55 -22 -98q-23 -44 -67 -75q-45 -32 -114 -48q-71 -17 -163 -17q-115 0 -187 31q-74 32 -117 85q-43 54 -60 126q-16 72 -18 155h123q2 -76 13 -126q12 -52 42 -87t79 -51q48 -16 126 -16z" />
    <glyph glyph-name="uniFE8A" unicode="&#x626;" horiz-adv-x="775" arabic-form="final" 
d="M32 249l27 1v3q-14 17 -14 39q0 34 24 54q23 19 62 19q17 0 30 -4q16 -5 27 -13q12 -9 19 -22q7 -14 9 -33h-54q-2 13 -9 21q-7 7 -20 7q-11 0 -18 -9q-8 -10 -8 -26t8 -27q7 -10 26 -10h79v-46h-188v46zM413 -277l-2 -4q-111 0 -183 28q-74 29 -117 79q-44 52 -62 123
q-17 70 -19 159h123q2 -77 18 -128t49 -82q33 -32 81 -45q46 -13 113 -13q48 0 88 6q39 6 69 20q29 14 45 33t16 47q0 6 -3 15t-9 18t-15 15t-19 6q-19 0 -51 8q-31 8 -59 27v114q11 -7 33 -13q14 -4 44 -10q23 -4 45 -6q30 -2 37 -2h136q6 0 14 -2q6 -2 6 -12v-93
q0 -11 -21 -11h-54q14 -16 23 -39q9 -24 9 -44q0 -34 -23 -69q-23 -34 -66 -63t-105 -45q-63 -17 -141 -17z" />
    <glyph glyph-name="uniFE8B" unicode="&#x626;" horiz-adv-x="374" arabic-form="initial" 
d="M126 568l27 1v3q-14 17 -14 39q0 35 24 54q23 19 62 19q17 0 30 -4q16 -5 27 -13q12 -9 19 -22t9 -33h-54q-2 14 -9 21t-20 7q-11 0 -18 -9q-8 -10 -8 -26t8 -27q7 -10 26 -10h79v-46h-188v46zM-5 1h1q-21 0 -21 11v93q0 11 6 12q8 2 14 2h172v308h142v-426h-314z" />
    <glyph glyph-name="uniFE8C" unicode="&#x626;" horiz-adv-x="475" arabic-form="medial" 
d="M181 568l27 1v3q-14 17 -14 39q0 35 24 54q23 19 62 19q17 0 30 -4q16 -5 27 -13q12 -9 19 -22q8 -13 9 -33h-54q-1 14 -9 21q-7 7 -20 7q-10 0 -18 -9q-8 -10 -8 -26t8 -27q7 -10 26 -10h79v-46h-188v46zM-5 1l1 2q-21 0 -21 11v93q0 11 6 12q8 2 14 2h134q10 0 22 3
q13 3 23 12t18 24q7 14 7 38v230h142v-210q0 -25 8 -44q7 -17 20 -30q12 -12 27 -18t30 -6h45q6 0 14 -2q6 -2 6 -12v-93q0 -11 -21 -11h-45q-19 0 -39 6t-36 15q-15 8 -31 21q-13 10 -25 26q-18 -21 -40 -34q-22 -14 -45 -21q-25 -9 -43 -11q-21 -3 -37 -3h-134z" />
    <glyph glyph-name="uniFE8D" unicode="&#x627;" horiz-adv-x="262" arabic-form="isolated" 
d="M60 0v715h142v-715h-142z" />
    <glyph glyph-name="uniFE8E" unicode="&#x627;" horiz-adv-x="274" arabic-form="final" 
d="M274 118h1q6 0 14 -2q6 -2 6 -12v-93q0 -11 -21 -11h-214v715h142v-597h72z" />
    <glyph glyph-name="uniFE8F" unicode="&#x628;" horiz-adv-x="992" arabic-form="isolated" 
d="M438 -95h142v-117h-142v117zM222 0l2 2q-42 0 -79 14q-36 14 -63 42t-42 72t-15 102v67h126v-53q0 -27 5 -54q5 -24 16 -40q12 -16 31 -25t48 -9h539v308h142v-426h-710z" />
    <glyph glyph-name="uniFE90" unicode="&#x628;" horiz-adv-x="1062" arabic-form="final" 
d="M434 -95h142v-117h-142v117zM1062 118l2 4q6 0 14 -2q6 -2 6 -12v-93q0 -11 -21 -11h-45q-20 0 -39 6t-36 15q-15 8 -31 21q-13 10 -25 26q-18 -21 -40 -34q-23 -14 -45 -21q-26 -9 -43 -11q-21 -3 -37 -3h-499q-42 0 -79 14q-36 13 -63 42t-42 72t-15 102v67h126v-53
q0 -27 5 -54q5 -24 16 -40q12 -16 31 -25q20 -9 48 -9h470q10 0 22 3q13 3 23 12q11 9 18 24q7 14 7 38v230h142v-215q0 -23 8 -42q8 -18 20 -29q11 -10 27 -16q15 -6 30 -6h45z" />
    <glyph glyph-name="uniFE91" unicode="&#x628;" horiz-adv-x="374" arabic-form="initial" 
d="M172 -95h142v-117h-142v117zM0 0h1q-21 0 -21 11v93q0 10 6 12q8 2 14 2h172v308h142v-426h-314z" />
    <glyph glyph-name="uniFE92" unicode="&#x628;" horiz-adv-x="475" arabic-form="medial" 
d="M202 -95h142v-117h-142v117zM0 0l1 2q-21 0 -21 11v93q0 10 6 12q8 2 14 2h134q10 0 22 3q13 3 23 12q11 9 18 24q7 14 7 38v230h142v-210q0 -25 8 -44q7 -17 20 -30q12 -12 27 -18t30 -6h45q6 0 14 -2q6 -1 6 -12v-93q0 -11 -21 -11h-45q-20 0 -39 6t-36 15
q-15 8 -31 21q-13 10 -25 26q-18 -21 -40 -34q-23 -13 -45 -21q-26 -8 -43 -11q-21 -3 -37 -3h-134z" />
    <glyph glyph-name="uniFE93" unicode="&#x629;" horiz-adv-x="606" arabic-form="isolated" 
d="M325 715h115v-114h-115v114zM155 715h114v-114h-114v114zM303 380h-2q-32 0 -54 -13q-23 -14 -36 -34t-19 -45q-6 -24 -6 -48t6 -48q6 -23 20 -45q13 -20 36 -34q22 -13 54 -13t54 13q23 14 36 34q14 22 20 45q6 24 6 48t-6 48q-6 25 -19 45t-36 34q-22 13 -54 13z
M301 -11q-61 0 -111 18t-84 51t-52 79q-18 47 -18 105t18 105q18 46 52 79t84 51t111 18t111 -18t84 -51t52 -79q18 -47 18 -105t-18 -105q-18 -46 -52 -79t-84 -51t-111 -18z" />
    <glyph glyph-name="uniFE94" unicode="&#x629;" horiz-adv-x="611" arabic-form="final" 
d="M308 715h115v-114h-115v114zM138 715h114v-114h-114v114zM611 118l-2 -1q6 0 14 -2q6 -1 6 -12v-93q0 -11 -21 -11h-49q-51 0 -88 28q-38 29 -54 76q-23 -32 -62 -53t-87 -21q-46 0 -88 15q-41 15 -73 42q-31 26 -49 66q-18 39 -18 89t15 92q15 43 45 74q29 31 75 49
q45 18 107 18h231v-252q0 -58 18 -81t62 -23h18zM274 141v-1q20 0 38 6q20 6 32 19q15 15 23 34q9 21 9 50v109h-97q-52 0 -79 -31t-27 -85q0 -50 26 -76q25 -25 75 -25z" />
    <glyph glyph-name="uniFE95" unicode="&#x62a;" horiz-adv-x="992" arabic-form="isolated" 
d="M503 628h115v-114h-115v114zM333 628h114v-114h-114v114zM222 0l2 2q-42 0 -79 14q-36 14 -63 42t-42 72t-15 102v67h126v-53q0 -27 5 -54q5 -24 16 -40q12 -16 31 -25t48 -9h539v308h142v-426h-710z" />
    <glyph glyph-name="uniFE96" unicode="&#x62a;" horiz-adv-x="1062" arabic-form="final" 
d="M491 627h115v-114h-115v114zM321 627h114v-114h-114v114zM1062 118l2 4q6 0 14 -2q6 -2 6 -12v-93q0 -11 -21 -11h-45q-20 0 -39 6t-36 15q-15 8 -31 21q-13 10 -25 26q-18 -21 -40 -34q-23 -14 -45 -21q-26 -9 -43 -11q-21 -3 -37 -3h-499q-42 0 -79 14q-36 13 -63 42
t-42 72t-15 102v67h126v-53q0 -27 5 -54q5 -24 16 -40q12 -16 31 -25q20 -9 48 -9h470q10 0 22 3q13 3 23 12q11 9 18 24q7 14 7 38v230h142v-215q0 -23 8 -42q8 -18 20 -29q11 -10 27 -16q15 -6 30 -6h45z" />
    <glyph glyph-name="uniFE97" unicode="&#x62a;" horiz-adv-x="374" arabic-form="initial" 
d="M198 715h115v-114h-115v114zM28 715h114v-114h-114v114zM0 0h1q-21 0 -21 11v93q0 10 6 12q8 2 14 2h172v308h142v-426h-314z" />
    <glyph glyph-name="uniFE98" unicode="&#x62a;" horiz-adv-x="475" arabic-form="medial" 
d="M294 715h115v-114h-115v114zM124 715h114v-114h-114v114zM0 0l1 2q-21 0 -21 11v93q0 10 6 12q8 2 14 2h134q10 0 22 3q13 3 23 12q11 9 18 24q7 14 7 38v230h142v-210q0 -25 8 -44q7 -17 20 -30q12 -12 27 -18t30 -6h45q6 0 14 -2q6 -1 6 -12v-93q0 -11 -21 -11h-45
q-20 0 -39 6t-36 15q-15 8 -31 21q-13 10 -25 26q-18 -21 -40 -34q-23 -13 -45 -21q-26 -8 -43 -11q-21 -3 -37 -3h-134z" />
    <glyph glyph-name="uniFE99" unicode="&#x62b;" horiz-adv-x="992" arabic-form="isolated" 
d="M425 781h115v-114h-115v114zM510 627h115v-114h-115v114zM340 627h114v-114h-114v114zM222 0l2 2q-42 0 -79 14q-36 14 -63 42t-42 72t-15 102v67h126v-53q0 -27 5 -54q5 -24 16 -40q12 -16 31 -25t48 -9h539v308h142v-426h-710z" />
    <glyph glyph-name="uniFE9A" unicode="&#x62b;" horiz-adv-x="1062" arabic-form="final" 
d="M415 781h115v-114h-115v114zM500 627h115v-114h-115v114zM330 627h114v-114h-114v114zM1062 118l2 4q6 0 14 -2q6 -2 6 -12v-93q0 -11 -21 -11h-45q-20 0 -39 6t-36 15q-15 8 -31 21q-13 10 -25 26q-18 -21 -40 -34q-23 -14 -45 -21q-26 -9 -43 -11q-21 -3 -37 -3h-499
q-42 0 -79 14q-36 13 -63 42t-42 72t-15 102v67h126v-53q0 -27 5 -54q5 -24 16 -40q12 -16 31 -25q20 -9 48 -9h470q10 0 22 3q13 3 23 12q11 9 18 24q7 14 7 38v230h142v-215q0 -23 8 -42q8 -18 20 -29q11 -10 27 -16q15 -6 30 -6h45z" />
    <glyph glyph-name="uniFE9B" unicode="&#x62b;" horiz-adv-x="374" arabic-form="initial" 
d="M114 869h115v-114h-115v114zM199 715h115v-114h-115v114zM29 715h114v-114h-114v114zM0 0h1q-21 0 -21 11v93q0 10 6 12q8 2 14 2h172v308h142v-426h-314z" />
    <glyph glyph-name="uniFE9C" unicode="&#x62b;" horiz-adv-x="475" arabic-form="medial" 
d="M218 869h115v-114h-115v114zM303 715h115v-114h-115v114zM133 715h114v-114h-114v114zM0 0l1 2q-21 0 -21 11v93q0 10 6 12q8 2 14 2h134q10 0 22 3q13 3 23 12q11 9 18 24q7 14 7 38v230h142v-210q0 -25 8 -44q7 -17 20 -30q12 -12 27 -18t30 -6h45q6 0 14 -2
q6 -1 6 -12v-93q0 -11 -21 -11h-45q-20 0 -39 6t-36 15q-15 8 -31 21q-13 10 -25 26q-18 -21 -40 -34q-23 -13 -45 -21q-26 -8 -43 -11q-21 -3 -37 -3h-134z" />
    <glyph glyph-name="uniFE9D" unicode="&#x62c;" horiz-adv-x="695" arabic-form="isolated" 
d="M284 -66h128v-105h-128v105zM282 0l-7 -2q-31 0 -54 -9t-38 -24q-14 -14 -22 -35q-7 -18 -7 -40q0 -38 9 -65q9 -26 32 -62h-135q-20 25 -33 57q-13 30 -13 74q0 40 15 81q15 40 45 73q31 34 75 53q46 20 107 20h233q-4 14 -7 22q-3 9 -6 26q-4 19 -5 33q-4 38 -14 74
q-9 33 -24 57q-14 23 -38 37q-22 13 -56 13q-31 0 -54 -10q-24 -11 -42 -27q-19 -17 -29 -39q-10 -23 -15 -45h-128q3 50 24 92t57 72t84 48t104 18q72 0 123 -23q49 -23 81 -63t48 -96t24 -120l12 -85l8 -47q3 -15 6 -28l3.5 -14t4.5 -16h-368z" />
    <glyph glyph-name="uniFE9E" unicode="&#x62c;" horiz-adv-x="762" arabic-form="final" 
d="M284 -66h128v-105h-128v105zM160 -110l2 -4q0 -38 9 -65q9 -26 32 -62h-135q-20 25 -33 57q-13 30 -13 74q0 46 15 87t45 72q29 31 75 49q45 18 107 18h222v121q0 73 -39 107q-40 35 -105 35q-31 0 -54 -10q-24 -11 -42 -27q-17 -15 -28 -38q-10 -21 -15 -44h-128
q3 50 24 92q21 41 56 72q35 30 81 48t102 18q74 0 127 -22q55 -23 90 -61q36 -39 54 -91t18 -111q0 -25 9 -42t24 -27t35 -15q17 -4 37 -4h31q6 0 14 -2q6 -1 6 -12v-93q0 -11 -21 -11h-31q-12 0 -29 5q-15 4 -30 12q-14 7 -27 20q-12 12 -18 27h-4q-1 -7 -8 -30
q-6 -21 -16 -33h-318q-65 0 -93 -31t-28 -79z" />
    <glyph glyph-name="uniFE9F" unicode="&#x62c;" horiz-adv-x="739" arabic-form="initial" 
d="M261 -95h142v-117h-142v117zM-22 22l-4 77q0 9 6 15t15 6h538q-4 22 -7 34q-3 15 -6 33q-1 6 -2.5 18t-2.5 18q-9 73 -57 116q-47 42 -112 42q-31 0 -58 -10q-28 -11 -51 -27q-22 -16 -37 -39q-14 -21 -19 -45h-128q3 51 28 92q25 42 66 72q40 30 92 48q51 18 107 18
q74 0 129 -21q56 -21 94 -58q39 -37 61 -88q23 -52 29 -111l10 -88q5 -33 9 -54q2 -8 4 -21t3 -15q1 -5 8 -33h-694q-9 0 -15 6t-6 15z" />
    <glyph glyph-name="uniFEA0" unicode="&#x62c;" horiz-adv-x="787" arabic-form="medial" 
d="M272 -95h142v-117h-142v117zM0 0l3 -3q-21 0 -21 11v93q0 11 6 12q8 2 14 2h518v121q0 36 -15 63t-39 45t-54 27t-63 9q-32 0 -59 -10q-28 -10 -51 -27t-38 -38q-14 -20 -19 -44h-128q3 49 29 92q25 42 66 72q40 30 92 48q51 18 107 18q74 0 132 -24t99 -66
q41 -43 62 -96q21 -54 21 -114q0 -25 10 -39q10 -15 25 -22q14 -7 34 -10t37 -3h21q6 0 14 -2q6 -1 6 -12v-93q0 -11 -21 -11h-21q-12 0 -29 5q-15 4 -30 12q-14 7 -27 20q-12 12 -18 27h-4q-1 -7 -8 -30q-6 -21 -16 -33h-635z" />
    <glyph glyph-name="uniFEA1" unicode="&#x62d;" horiz-adv-x="695" arabic-form="isolated" 
d="M282 0l-7 -2q-31 0 -54 -9t-38 -24q-14 -14 -22 -35q-7 -18 -7 -40q0 -38 9 -65q9 -26 32 -62h-135q-20 25 -33 57q-13 30 -13 74q0 40 15 81q15 40 45 73q31 34 75 53q46 20 107 20h233q-4 14 -7 22q-3 9 -6 26q-4 19 -5 33q-4 38 -14 74q-9 33 -24 57q-14 23 -38 37
q-22 13 -56 13q-31 0 -54 -10q-24 -11 -42 -27q-19 -17 -29 -39q-10 -23 -15 -45h-128q3 50 24 92t57 72t84 48t104 18q72 0 123 -23q49 -23 81 -63t48 -96t24 -120l12 -85l8 -47q3 -15 6 -28l3.5 -14t4.5 -16h-368z" />
    <glyph glyph-name="uniFEA2" unicode="&#x62d;" horiz-adv-x="762" arabic-form="final" 
d="M160 -110l2 -4q0 -38 9 -65q9 -26 32 -62h-135q-20 25 -33 57q-13 30 -13 74q0 46 15 87t45 72q29 31 75 49q45 18 107 18h222v121q0 73 -39 107q-40 35 -105 35q-31 0 -54 -10q-24 -11 -42 -27q-17 -15 -28 -38q-10 -21 -15 -44h-128q3 50 24 92q21 41 56 72
q35 30 81 48t102 18q74 0 127 -22q55 -23 90 -61q36 -39 54 -91t18 -111q0 -25 9 -42t24 -27t35 -15q17 -4 37 -4h31q6 0 14 -2q6 -1 6 -12v-93q0 -11 -21 -11h-31q-12 0 -29 5q-15 4 -30 12q-14 7 -27 20q-12 12 -18 27h-4q-1 -7 -8 -30q-6 -21 -16 -33h-318q-65 0 -93 -31
t-28 -79z" />
    <glyph glyph-name="uniFEA3" unicode="&#x62d;" horiz-adv-x="739" arabic-form="initial" 
d="M-22 22l-4 77q0 9 6 15t15 6h538q-4 22 -7 34q-3 15 -6 33q-1 6 -2.5 18t-2.5 18q-9 73 -57 116q-47 42 -112 42q-31 0 -58 -10q-28 -11 -51 -27q-22 -16 -37 -39q-14 -21 -19 -45h-128q3 51 28 92q25 42 66 72q40 30 92 48q51 18 107 18q74 0 129 -21q56 -21 94 -58
q39 -37 61 -88q23 -52 29 -111l10 -88q5 -33 9 -54q2 -8 4 -21t3 -15q1 -5 8 -33h-694q-9 0 -15 6t-6 15z" />
    <glyph glyph-name="uniFEA4" unicode="&#x62d;" horiz-adv-x="787" arabic-form="medial" 
d="M0 0l3 -3q-21 0 -21 11v93q0 11 6 12q8 2 14 2h518v121q0 36 -15 63t-39 45t-54 27t-63 9q-32 0 -59 -10q-28 -10 -51 -27t-38 -38q-14 -20 -19 -44h-128q3 49 29 92q25 42 66 72q40 30 92 48q51 18 107 18q74 0 132 -24t99 -66q41 -43 62 -96q21 -54 21 -114
q0 -25 10 -39q10 -15 25 -22q14 -7 34 -10t37 -3h21q6 0 14 -2q6 -1 6 -12v-93q0 -11 -21 -11h-21q-12 0 -29 5q-15 4 -30 12q-14 7 -27 20q-12 12 -18 27h-4q-1 -7 -8 -30q-6 -21 -16 -33h-635z" />
    <glyph glyph-name="uniFEA5" unicode="&#x62e;" horiz-adv-x="695" arabic-form="isolated" 
d="M267 715h142v-117h-142v117zM282 0l-7 -2q-31 0 -54 -9t-38 -24q-14 -14 -22 -35q-7 -18 -7 -40q0 -38 9 -65q9 -26 32 -62h-135q-20 25 -33 57q-13 30 -13 74q0 40 15 81q15 40 45 73q31 34 75 53q46 20 107 20h233q-4 14 -7 22q-3 9 -6 26q-4 19 -5 33q-4 38 -14 74
q-9 33 -24 57q-14 23 -38 37q-22 13 -56 13q-31 0 -54 -10q-24 -11 -42 -27q-19 -17 -29 -39q-10 -23 -15 -45h-128q3 50 24 92t57 72t84 48t104 18q72 0 123 -23q49 -23 81 -63t48 -96t24 -120l12 -85l8 -47q3 -15 6 -28l3.5 -14t4.5 -16h-368z" />
    <glyph glyph-name="uniFEA6" unicode="&#x62e;" horiz-adv-x="762" arabic-form="final" 
d="M270 715h142v-117h-142v117zM160 -110l2 -4q0 -38 9 -65q9 -26 32 -62h-135q-20 25 -33 57q-13 30 -13 74q0 46 15 87t45 72q29 31 75 49q45 18 107 18h222v121q0 73 -39 107q-40 35 -105 35q-31 0 -54 -10q-24 -11 -42 -27q-17 -15 -28 -38q-10 -21 -15 -44h-128
q3 50 24 92q21 41 56 72q35 30 81 48t102 18q74 0 127 -22q55 -23 90 -61q36 -39 54 -91t18 -111q0 -25 9 -42t24 -27t35 -15q17 -4 37 -4h31q6 0 14 -2q6 -1 6 -12v-93q0 -11 -21 -11h-31q-12 0 -29 5q-15 4 -30 12q-14 7 -27 20q-12 12 -18 27h-4q-1 -7 -8 -30
q-6 -21 -16 -33h-318q-65 0 -93 -31t-28 -79z" />
    <glyph glyph-name="uniFEA7" unicode="&#x62e;" horiz-adv-x="739" arabic-form="initial" 
d="M288 715h142v-117h-142v117zM-22 22l-4 77q0 9 6 15t15 6h538q-4 22 -7 34q-3 15 -6 33q-1 6 -2.5 18t-2.5 18q-9 73 -57 116q-47 42 -112 42q-31 0 -58 -10q-28 -11 -51 -27q-22 -16 -37 -39q-14 -21 -19 -45h-128q3 51 28 92q25 42 66 72q40 30 92 48q51 18 107 18
q74 0 129 -21q56 -21 94 -58q39 -37 61 -88q23 -52 29 -111l10 -88q5 -33 9 -54q2 -8 4 -21t3 -15q1 -5 8 -33h-694q-9 0 -15 6t-6 15z" />
    <glyph glyph-name="uniFEA8" unicode="&#x62e;" horiz-adv-x="787" arabic-form="medial" 
d="M287 716h142v-117h-142v117zM0 0l3 -3q-21 0 -21 11v93q0 11 6 12q8 2 14 2h518v121q0 36 -15 63t-39 45t-54 27t-63 9q-32 0 -59 -10q-28 -10 -51 -27t-38 -38q-14 -20 -19 -44h-128q3 49 29 92q25 42 66 72q40 30 92 48q51 18 107 18q74 0 132 -24t99 -66
q41 -43 62 -96q21 -54 21 -114q0 -25 10 -39q10 -15 25 -22q14 -7 34 -10t37 -3h21q6 0 14 -2q6 -1 6 -12v-93q0 -11 -21 -11h-21q-12 0 -29 5q-15 4 -30 12q-14 7 -27 20q-12 12 -18 27h-4q-1 -7 -8 -30q-6 -21 -16 -33h-635z" />
    <glyph glyph-name="uniFEA9" unicode="&#x62f;" horiz-adv-x="485" arabic-form="isolated" 
d="M25 118l273 -1v80q0 36 -9 66q-10 32 -25 53q-16 22 -39 34t-51 12h-103v111h103q57 0 104 -16t84 -50q36 -33 57 -85q21 -53 21 -124v-198h-415v118z" />
    <glyph glyph-name="uniFEAA" unicode="&#x62f;" horiz-adv-x="567" arabic-form="final" 
d="M567 118l3 -1q6 0 14 -2q6 -1 6 -12v-93q0 -11 -21 -11h-21q-12 0 -29 5q-15 4 -30 12q-14 7 -27 20q-12 12 -18 27h-4q-1 -7 -8 -30q-6 -21 -16 -33h-390v118h272v80q0 36 -9 66q-10 32 -25 53q-16 22 -39 34t-51 12h-103v111h103q56 0 104 -15q47 -15 84 -47
q36 -31 57 -80q21 -48 21 -116v-20q0 -22 12 -39q11 -16 25 -24q15 -9 33 -12t36 -3h21z" />
    <glyph glyph-name="uniFEAB" unicode="&#x630;" horiz-adv-x="485" arabic-form="isolated" 
d="M77 716h142v-117h-142v117zM25 118l273 -1v80q0 36 -9 66q-10 32 -25 53q-16 22 -39 34t-51 12h-103v111h103q57 0 104 -16t84 -50q36 -33 57 -85q21 -53 21 -124v-198h-415v118z" />
    <glyph glyph-name="uniFEAC" unicode="&#x630;" horiz-adv-x="567" arabic-form="final" 
d="M84 715h142v-117h-142v117zM567 118l3 -1q6 0 14 -2q6 -1 6 -12v-93q0 -11 -21 -11h-21q-12 0 -29 5q-15 4 -30 12q-14 7 -27 20q-12 12 -18 27h-4q-1 -7 -8 -30q-6 -21 -16 -33h-390v118h272v80q0 36 -9 66q-10 32 -25 53q-16 22 -39 34t-51 12h-103v111h103
q56 0 104 -15q47 -15 84 -47q36 -31 57 -80q21 -48 21 -116v-20q0 -22 12 -39q11 -16 25 -24q15 -9 33 -12t36 -3h21z" />
    <glyph glyph-name="uniFEAD" unicode="&#x631;" horiz-adv-x="347" arabic-form="isolated" 
d="M287 426l-1 -411q0 -56 -9 -103t-30 -80t-57 -51t-90 -18q-25 0 -46 4q-23 4 -43 12v103q10 -7 26 -10q13 -3 30 -3q43 0 60 36q17 37 17 111v410h143z" />
    <glyph glyph-name="uniFEAE" unicode="&#x631;" horiz-adv-x="414" arabic-form="final" 
d="M414 118v-2q6 0 14 -2q6 -2 6 -12v-93q0 -11 -21 -11h-21q-12 0 -29 5q-15 5 -30 12q-13 7 -25 20q-11 13 -17 27h-4v-47q0 -56 -9 -103t-30 -80t-57 -51t-90 -18q-25 0 -46 4q-23 4 -43 12v103q10 -7 26 -10q14 -3 30 -3q44 0 60 36q17 37 17 111v410h143v-226
q0 -26 9 -42t24 -25t35 -12q19 -3 37 -3h21z" />
    <glyph glyph-name="uniFEAF" unicode="&#x632;" horiz-adv-x="356" arabic-form="isolated" 
d="M154 715h142v-117h-142v117zM287 426l-1 -411q0 -56 -9 -103t-30 -80t-57 -51t-90 -18q-25 0 -46 4q-23 4 -43 12v103q10 -7 26 -10q13 -3 30 -3q43 0 60 36q17 37 17 111v410h143z" />
    <glyph glyph-name="uniFEB0" unicode="&#x632;" horiz-adv-x="414" arabic-form="final" 
d="M154 715h142v-117h-142v117zM414 118v-2q6 0 14 -2q6 -2 6 -12v-93q0 -11 -21 -11h-21q-12 0 -29 5q-15 5 -30 12q-13 7 -25 20q-11 13 -17 27h-4v-47q0 -56 -9 -103t-30 -80t-57 -51t-90 -18q-25 0 -46 4q-23 4 -43 12v103q10 -7 26 -10q14 -3 30 -3q44 0 60 36
q17 37 17 111v410h143v-226q0 -26 9 -42t24 -25t35 -12q19 -3 37 -3h21z" />
    <glyph glyph-name="uniFEB1" unicode="&#x633;" horiz-adv-x="1466" arabic-form="isolated" 
d="M416 -238l-4 1q-118 0 -193 33t-117 90q-41 56 -58 135q-16 76 -16 166v72h135v-72q0 -83 15 -140q15 -56 45 -94q30 -37 77 -54q45 -16 111 -16q61 0 109 17q47 17 77 54t45 95q15 57 15 140v197h142v-200q0 -37 23 -54q22 -16 60 -16t55 16q18 16 18 54v221h142v-217
q0 -38 15 -54t41 -16h109v308h143v-426h-225q-12 0 -29 5q-15 5 -30 12q-14 7 -27 20q-12 12 -18 27h-4q-22 -34 -60 -51q-36 -16 -93 -16q-42 0 -76 14q-32 13 -49 33h-4q-14 -64 -39 -117t-69 -90q-44 -38 -109 -57q-68 -20 -157 -20z" />
    <glyph glyph-name="uniFEB2" unicode="&#x633;" horiz-adv-x="1524" arabic-form="final" 
d="M416 -238l-4 1q-118 0 -193 33t-117 90q-41 56 -58 135q-16 76 -16 166v72h135v-72q0 -83 15 -140q15 -56 45 -94q30 -37 77 -54q45 -16 111 -16q61 0 109 17q47 17 77 54t45 95q15 57 15 140v197h142v-201q0 -37 23 -54q22 -16 60 -16t55 16q18 17 18 54v222h142v-222
q0 -37 23 -54q22 -16 60 -16t55 16q18 17 18 54v243h142v-238q0 -38 15 -54t41 -16h73q6 0 14 -2q6 -2 6 -12v-93q0 -11 -21 -11h-46q-12 0 -29 5q-15 5 -30 12q-14 7 -27 20q-12 12 -18 27h-4q-23 -34 -60 -51q-36 -16 -93 -16q-54 0 -91 18t-48 47h-4q-23 -34 -60 -51
q-36 -16 -93 -16q-44 0 -77 14q-31 13 -48 35h-4q-10 -59 -36 -112q-25 -52 -70 -91t-111 -60t-158 -21z" />
    <glyph glyph-name="uniFEB3" unicode="&#x633;" horiz-adv-x="928" arabic-form="initial" 
d="M121 386h143v-202q0 -37 23 -54q22 -16 60 -16t55 16q18 16 18 54v221h142v-217q0 -38 15 -54t41 -16h109v308h143v-426h-225q-12 0 -29 5q-15 5 -30 12q-14 7 -27 20q-12 12 -18 27h-4q-23 -34 -60 -51q-36 -16 -93 -16q-54 0 -91 18t-48 47h-4q-2 -6 -10 -16
q-10 -12 -22 -21q-14 -11 -31 -18t-37 -7h-141q-21 0 -21 11v93q0 10 6 12q8 2 14 2h66q26 0 41 16t15 54v198z" />
    <glyph glyph-name="uniFEB4" unicode="&#x633;" horiz-adv-x="987" arabic-form="medial" 
d="M681 -3v2q-53 0 -91 18q-37 18 -48 47h-4q-22 -34 -60 -51q-36 -16 -93 -16q-53 0 -91 18q-37 18 -48 47h-4q-2 -6 -10 -16q-10 -12 -22 -21q-14 -11 -31 -18t-37 -7h-141q-21 0 -21 11v93q0 10 6 12q8 2 14 2h66q26 0 41 16t15 54v198h142v-203q0 -37 23 -54
q22 -16 60 -16t55 16q18 17 18 54v222h142v-222q0 -37 23 -54q22 -16 60 -16t55 16q18 17 18 54v243h142v-238q0 -38 15 -54t41 -16h73q6 0 14 -2q6 -2 6 -12v-93q0 -11 -21 -11h-46q-12 0 -29 5q-15 5 -30 12q-14 7 -27 20q-12 12 -18 27h-4q-22 -34 -60 -51
q-36 -16 -93 -16z" />
    <glyph glyph-name="uniFEB5" unicode="&#x634;" horiz-adv-x="1466" arabic-form="isolated" 
d="M978 870h115v-114h-115v114zM1063 716h115v-114h-115v114zM893 716h114v-114h-114v114zM416 -238l-4 1q-118 0 -193 33t-117 90q-41 56 -58 135q-16 76 -16 166v72h135v-72q0 -83 15 -140q15 -56 45 -94q30 -37 77 -54q45 -16 111 -16q61 0 109 17q47 17 77 54t45 95
q15 57 15 140v197h142v-200q0 -37 23 -54q22 -16 60 -16t55 16q18 16 18 54v221h142v-217q0 -38 15 -54t41 -16h109v308h143v-426h-225q-12 0 -29 5q-15 5 -30 12q-14 7 -27 20q-12 12 -18 27h-4q-22 -34 -60 -51q-36 -16 -93 -16q-42 0 -76 14q-32 13 -49 33h-4
q-14 -64 -39 -117t-69 -90q-44 -38 -109 -57q-68 -20 -157 -20z" />
    <glyph glyph-name="uniFEB6" unicode="&#x634;" horiz-adv-x="1524" arabic-form="final" 
d="M981 869h115v-114h-115v114zM1066 715h115v-114h-115v114zM896 715h114v-114h-114v114zM416 -238l-4 1q-118 0 -193 33t-117 90q-41 56 -58 135q-16 76 -16 166v72h135v-72q0 -83 15 -140q15 -56 45 -94q30 -37 77 -54q45 -16 111 -16q61 0 109 17q47 17 77 54t45 95
q15 57 15 140v197h142v-201q0 -37 23 -54q22 -16 60 -16t55 16q18 17 18 54v222h142v-222q0 -37 23 -54q22 -16 60 -16t55 16q18 17 18 54v243h142v-238q0 -38 15 -54t41 -16h73q6 0 14 -2q6 -2 6 -12v-93q0 -11 -21 -11h-46q-12 0 -29 5q-15 5 -30 12q-14 7 -27 20
q-12 12 -18 27h-4q-23 -34 -60 -51q-36 -16 -93 -16q-54 0 -91 18t-48 47h-4q-23 -34 -60 -51q-36 -16 -93 -16q-44 0 -77 14q-31 13 -48 35h-4q-10 -59 -36 -112q-25 -52 -70 -91t-111 -60t-158 -21z" />
    <glyph glyph-name="uniFEB7" unicode="&#x634;" horiz-adv-x="928" arabic-form="initial" 
d="M429 869h115v-114h-115v114zM514 715h115v-114h-115v114zM344 715h114v-114h-114v114zM121 386h143v-202q0 -37 23 -54q22 -16 60 -16t55 16q18 16 18 54v221h142v-217q0 -38 15 -54t41 -16h109v308h143v-426h-225q-12 0 -29 5q-15 5 -30 12q-14 7 -27 20q-12 12 -18 27
h-4q-23 -34 -60 -51q-36 -16 -93 -16q-54 0 -91 18t-48 47h-4q-2 -6 -10 -16q-10 -12 -22 -21q-14 -11 -31 -18t-37 -7h-141q-21 0 -21 11v93q0 10 6 12q8 2 14 2h66q26 0 41 16t15 54v198z" />
    <glyph glyph-name="uniFEB8" unicode="&#x634;" horiz-adv-x="987" arabic-form="medial" 
d="M427 869h115v-114h-115v114zM512 715h115v-114h-115v114zM342 715h114v-114h-114v114zM681 -3v2q-53 0 -91 18q-37 18 -48 47h-4q-22 -34 -60 -51q-36 -16 -93 -16q-53 0 -91 18q-37 18 -48 47h-4q-2 -6 -10 -16q-10 -12 -22 -21q-14 -11 -31 -18t-37 -7h-141
q-21 0 -21 11v93q0 10 6 12q8 2 14 2h66q26 0 41 16t15 54v198h142v-203q0 -37 23 -54q22 -16 60 -16t55 16q18 17 18 54v222h142v-222q0 -37 23 -54q22 -16 60 -16t55 16q18 17 18 54v243h142v-238q0 -38 15 -54t41 -16h73q6 0 14 -2q6 -2 6 -12v-93q0 -11 -21 -11h-46
q-12 0 -29 5q-15 5 -30 12q-14 7 -27 20q-12 12 -18 27h-4q-22 -34 -60 -51q-36 -16 -93 -16z" />
    <glyph glyph-name="uniFEB9" unicode="&#x635;" horiz-adv-x="1489" arabic-form="isolated" 
d="M1164 351l-1 -2q-45 0 -84 -16q-42 -17 -77 -42q-36 -25 -66 -54q-27 -26 -52 -54q-20 -23 -36 -44q-14 -18 -15 -22h470v124q0 56 -37 83q-38 27 -102 27zM415 -240l-2 -2q-118 0 -193 33t-117 90q-41 56 -58 135q-16 76 -16 166v72h135v-72q0 -83 15 -140
q15 -56 45 -94q30 -37 77 -54q45 -16 111 -16q61 0 109 17q47 17 77 54t45 95q15 57 15 140v211h136v-159h4q33 42 74 83q42 42 87 74q48 34 99 53q54 20 108 20q55 0 108 -14q50 -13 88 -42t60 -70t22 -98v-245h-663q-16 -53 -45 -97q-28 -44 -72 -75t-105 -48
q-63 -17 -144 -17z" />
    <glyph glyph-name="uniFEBA" unicode="&#x635;" horiz-adv-x="1571" arabic-form="final" 
d="M1164 351l-1 -2q-45 0 -84 -16q-42 -17 -77 -42q-36 -25 -66 -54q-27 -26 -52 -54q-20 -23 -36 -44q-14 -18 -15 -22h470v124q0 56 -37 83q-38 27 -102 27zM1166 467l1 -4q55 0 108 -14q50 -13 88 -42t60 -70t22 -98v-35q0 -25 9 -43q9 -17 24 -28q15 -10 35 -15
q22 -5 37 -5h21q6 0 14 -2q6 -1 6 -12v-93q0 -11 -21 -11h-21q-12 0 -29 5q-15 4 -30 12q-14 7 -27 20q-12 12 -18 27h-4q-1 -7 -8 -30q-6 -21 -16 -33h-638q-16 -53 -45 -97q-28 -43 -72 -75t-105 -48q-63 -17 -144 -17q-118 0 -193 33t-117 90q-41 56 -58 135
q-16 76 -16 166v72h135v-72q0 -83 15 -140q15 -56 45 -94q30 -37 77 -54q45 -16 111 -16q61 0 109 17q47 17 77 54t45 95q15 57 15 140v211h136v-159h4q33 42 74 83q42 42 87 74q48 34 99 53q54 20 108 20z" />
    <glyph glyph-name="uniFEBB" unicode="&#x635;" horiz-adv-x="932" arabic-form="initial" 
d="M607 351l-1 -1q-45 0 -84 -16q-42 -17 -77 -42q-36 -26 -66 -54q-27 -26 -52 -54q-20 -23 -36 -44q-14 -18 -15 -22h470v124q0 64 -37 86q-38 23 -102 23zM101 117v278h136v-159h4q33 42 74 83q42 42 87 74q48 34 99 53q54 20 108 20q57 0 108 -12q50 -12 88 -39
q37 -27 60 -69q22 -41 22 -102v-245h-887q-21 0 -21 11v93q0 11 6 12q8 2 14 2h102z" />
    <glyph glyph-name="uniFEBC" unicode="&#x635;" horiz-adv-x="1015" arabic-form="medial" 
d="M0 0l3 -4q-21 0 -21 11v93q0 10 6 12q8 2 14 2h103v280h136v-159h4q33 42 74 83q42 42 87 74q48 34 99 53q54 20 108 20q57 0 108 -12q50 -12 88 -39q37 -27 60 -69q22 -41 22 -102v-35q0 -25 9 -43q9 -17 24 -28q15 -10 35 -15q22 -5 37 -5h21q6 0 14 -2q6 -1 6 -12v-93
q0 -11 -21 -11h-21q-12 0 -29 5q-15 4 -30 12q-14 7 -27 20q-12 12 -18 27h-4q-1 -7 -8 -30q-6 -21 -16 -33h-863zM611 347l-1 -1q-45 0 -84 -16q-42 -17 -77 -42q-36 -26 -66 -54q-27 -26 -52 -54q-20 -23 -36 -44q-14 -18 -15 -22h470v124q0 64 -37 86q-38 23 -102 23z
" />
    <glyph glyph-name="uniFEBD" unicode="&#x636;" horiz-adv-x="1489" arabic-form="isolated" 
d="M796 715h142v-117h-142v117zM1164 351l-1 -2q-45 0 -84 -16q-42 -17 -77 -42q-36 -25 -66 -54q-27 -26 -52 -54q-20 -23 -36 -44q-14 -18 -15 -22h470v124q0 56 -37 83q-38 27 -102 27zM415 -240l-2 -2q-118 0 -193 33t-117 90q-41 56 -58 135q-16 76 -16 166v72h135v-72
q0 -83 15 -140q15 -56 45 -94q30 -37 77 -54q45 -16 111 -16q61 0 109 17q47 17 77 54t45 95q15 57 15 140v211h136v-159h4q33 42 74 83q42 42 87 74q48 34 99 53q54 20 108 20q55 0 108 -14q50 -13 88 -42t60 -70t22 -98v-245h-663q-16 -53 -45 -97q-28 -44 -72 -75
t-105 -48q-63 -17 -144 -17z" />
    <glyph glyph-name="uniFEBE" unicode="&#x636;" horiz-adv-x="1571" arabic-form="final" 
d="M797 715h142v-117h-142v117zM1164 351l-1 -2q-45 0 -84 -16q-42 -17 -77 -42q-36 -25 -66 -54q-27 -26 -52 -54q-20 -23 -36 -44q-14 -18 -15 -22h470v124q0 56 -37 83q-38 27 -102 27zM1166 467l1 -4q55 0 108 -14q50 -13 88 -42t60 -70t22 -98v-35q0 -25 9 -43
q9 -17 24 -28q15 -10 35 -15q22 -5 37 -5h21q6 0 14 -2q6 -1 6 -12v-93q0 -11 -21 -11h-21q-12 0 -29 5q-15 4 -30 12q-14 7 -27 20q-12 12 -18 27h-4q-1 -7 -8 -30q-6 -21 -16 -33h-638q-16 -53 -45 -97q-28 -43 -72 -75t-105 -48q-63 -17 -144 -17q-118 0 -193 33t-117 90
q-41 56 -58 135q-16 76 -16 166v72h135v-72q0 -83 15 -140q15 -56 45 -94q30 -37 77 -54q45 -16 111 -16q61 0 109 17q47 17 77 54t45 95q15 57 15 140v211h136v-159h4q33 42 74 83q42 42 87 74q48 34 99 53q54 20 108 20z" />
    <glyph glyph-name="uniFEBF" unicode="&#x636;" horiz-adv-x="933" arabic-form="initial" 
d="M238 687h142v-117h-142v117zM608 351l-1 -1q-45 0 -84 -16q-42 -17 -77 -42q-36 -26 -66 -54q-27 -26 -52 -54q-20 -23 -36 -44q-14 -18 -15 -22h470v124q0 64 -37 86q-38 23 -102 23zM102 117v278h136v-159h4q33 42 74 83q42 42 87 74q48 34 99 53q54 20 108 20
q57 0 108 -12q50 -12 88 -39t60 -69q22 -41 22 -102v-245h-887q-21 0 -21 11v93q0 11 6 12q8 2 14 2h102z" />
    <glyph glyph-name="uniFEC0" unicode="&#x636;" horiz-adv-x="1015" arabic-form="medial" 
d="M238 687h142v-117h-142v117zM0 0l3 -4q-21 0 -21 11v93q0 10 6 12q8 2 14 2h103v280h136v-159h4q33 42 74 83q42 42 87 74q48 34 99 53q54 20 108 20q57 0 108 -12q50 -12 88 -39q37 -27 60 -69q22 -41 22 -102v-35q0 -25 9 -43q9 -17 24 -28q15 -10 35 -15q22 -5 37 -5
h21q6 0 14 -2q6 -1 6 -12v-93q0 -11 -21 -11h-21q-12 0 -29 5q-15 4 -30 12q-14 7 -27 20q-12 12 -18 27h-4q-1 -7 -8 -30q-6 -21 -16 -33h-863zM611 347l-1 -1q-45 0 -84 -16q-42 -17 -77 -42q-36 -26 -66 -54q-27 -26 -52 -54q-20 -23 -36 -44q-14 -18 -15 -22h470v124
q0 64 -37 86q-38 23 -102 23z" />
    <glyph glyph-name="uniFEC1" unicode="&#x637;" horiz-adv-x="898" arabic-form="isolated" 
d="M20 118l74 3v597h126v-459h4q30 39 71 78q40 38 83 68q44 30 93 48t104 18q59 0 108 -16q50 -16 88 -48q37 -31 60 -78q22 -45 22 -106v-223h-833v118zM571 354q-45 0 -84 -16q-41 -17 -76 -40q-34 -23 -66 -53q-33 -31 -53 -54q-22 -25 -36 -45l-16 -24h470v103
q0 63 -37 96t-102 33z" />
    <glyph glyph-name="uniFEC2" unicode="&#x637;" horiz-adv-x="980" arabic-form="final" 
d="M980 118l2 1q6 0 14 -2q6 -1 6 -12v-93q0 -11 -21 -11h-21q-12 0 -29 5q-15 4 -30 12q-14 7 -27 20q-12 12 -18 27h-4q-1 -7 -8 -30q-6 -21 -16 -33h-808v118h75v597h126v-459h4q30 39 71 78q40 38 83 68t93 48q49 18 104 18q59 0 108 -16q50 -16 88 -48t60 -78
q22 -45 22 -106v-13q0 -25 9 -43q9 -17 24 -28q15 -10 35 -15q22 -5 37 -5h21zM574 352q-45 0 -84 -16q-41 -17 -76 -40q-34 -23 -66 -53q-33 -31 -53 -54q-23 -25 -36 -45l-16 -24h470v103q0 63 -37 96q-38 33 -102 33z" />
    <glyph glyph-name="uniFEC3" unicode="&#x637;" horiz-adv-x="877" arabic-form="initial" 
d="M551 351h-1q-45 0 -84 -16t-76 -42q-36 -25 -66 -54q-33 -31 -53 -54t-36 -44q-14 -18 -15 -22h470v103q0 63 -37 96t-102 33zM73 118v600h126v-459h4q30 39 71 78q40 38 83 68t93 48q49 18 104 18q59 0 108 -16q50 -16 88 -48q38 -31 60 -78q22 -45 22 -106v-223h-833
q-21 0 -21 11v93q0 10 6 12q8 2 14 2h75z" />
    <glyph glyph-name="uniFEC4" unicode="&#x637;" horiz-adv-x="960" arabic-form="medial" 
d="M552 351q-45 0 -84 -16q-42 -17 -77 -42q-36 -25 -66 -54q-33 -31 -53 -54t-36 -44q-14 -18 -15 -22h470v103q0 63 -37 96q-38 33 -102 33zM75 118v598h126v-459h4q30 39 71 78q40 38 83 68t93 48t104 18q59 0 108 -16q50 -16 88 -48q38 -31 60 -78q22 -45 22 -106v-13
q0 -25 9 -43q9 -17 24 -28q15 -10 35 -15q22 -5 37 -5h21q6 0 14 -2q6 -1 6 -12v-93q0 -11 -21 -11h-21q-12 0 -29 5q-15 4 -30 12q-13 7 -25 20q-11 13 -17 27h-4q-1 -7 -8 -30q-6 -21 -16 -33h-808q-21 0 -21 11v93q0 10 6 12q8 2 14 2h75z" />
    <glyph glyph-name="uniFEC5" unicode="&#x638;" horiz-adv-x="898" arabic-form="isolated" 
d="M371 687h142v-117h-142v117zM20 118l74 3v597h126v-459h4q30 39 71 78q40 38 83 68q44 30 93 48t104 18q59 0 108 -16q50 -16 88 -48q37 -31 60 -78q22 -45 22 -106v-223h-833v118zM571 354q-45 0 -84 -16q-41 -17 -76 -40q-34 -23 -66 -53q-33 -31 -53 -54
q-22 -25 -36 -45l-16 -24h470v103q0 63 -37 96t-102 33z" />
    <glyph glyph-name="uniFEC6" unicode="&#x638;" horiz-adv-x="980" arabic-form="final" 
d="M371 687h142v-117h-142v117zM980 118l2 1q6 0 14 -2q6 -1 6 -12v-93q0 -11 -21 -11h-21q-12 0 -29 5q-15 4 -30 12q-14 7 -27 20q-12 12 -18 27h-4q-1 -7 -8 -30q-6 -21 -16 -33h-808v118h75v597h126v-459h4q30 39 71 78q40 38 83 68t93 48q49 18 104 18q59 0 108 -16
q50 -16 88 -48t60 -78q22 -45 22 -106v-13q0 -25 9 -43q9 -17 24 -28q15 -10 35 -15q22 -5 37 -5h21zM574 352q-45 0 -84 -16q-41 -17 -76 -40q-34 -23 -66 -53q-33 -31 -53 -54q-23 -25 -36 -45l-16 -24h470v103q0 63 -37 96q-38 33 -102 33z" />
    <glyph glyph-name="uniFEC7" unicode="&#x638;" horiz-adv-x="877" arabic-form="initial" 
d="M350 687h142v-117h-142v117zM551 351h-1q-45 0 -84 -16t-76 -42q-36 -25 -66 -54q-33 -31 -53 -54t-36 -44q-14 -18 -15 -22h470v103q0 63 -37 96t-102 33zM73 118v600h126v-459h4q30 39 71 78q40 38 83 68t93 48q49 18 104 18q59 0 108 -16q50 -16 88 -48q38 -31 60 -78
q22 -45 22 -106v-223h-833q-21 0 -21 11v93q0 10 6 12q8 2 14 2h75z" />
    <glyph glyph-name="uniFEC8" unicode="&#x638;" horiz-adv-x="960" arabic-form="medial" 
d="M352 687h142v-117h-142v117zM552 351q-45 0 -84 -16q-42 -17 -77 -42q-36 -25 -66 -54q-33 -31 -53 -54t-36 -44q-14 -18 -15 -22h470v103q0 63 -37 96q-38 33 -102 33zM75 118v598h126v-459h4q30 39 71 78q40 38 83 68t93 48t104 18q59 0 108 -16q50 -16 88 -48
q38 -31 60 -78q22 -45 22 -106v-13q0 -25 9 -43q9 -17 24 -28q15 -10 35 -15q22 -5 37 -5h21q6 0 14 -2q6 -1 6 -12v-93q0 -11 -21 -11h-21q-12 0 -29 5q-15 4 -30 12q-13 7 -25 20q-11 13 -17 27h-4q-1 -7 -8 -30q-6 -21 -16 -33h-808q-21 0 -21 11v93q0 10 6 12q8 2 14 2
h75z" />
    <glyph glyph-name="uniFEC9" unicode="&#x639;" horiz-adv-x="607" arabic-form="isolated" 
d="M20 -110l-2 -3q0 31 8 65q8 32 24 59q17 28 42 50q26 23 60 36v4q-26 23 -42 63q-16 39 -16 93q0 50 12 92q12 44 40 74t74 49q45 18 113 18q54 0 90 -13q38 -14 65 -39q27 -26 42 -63q15 -38 21 -85h-126q-9 43 -31 66q-22 24 -61 24q-52 0 -76 -32t-24 -89
q0 -71 28 -106q29 -36 93 -36h212v-118h-286q-33 0 -54 -10q-22 -10 -37 -27q-14 -16 -22 -36q-7 -18 -7 -37q0 -38 9 -65q9 -26 32 -62h-135q-19 25 -33 56q-13 29 -13 72z" />
    <glyph glyph-name="uniFECA" unicode="&#x639;" horiz-adv-x="749" arabic-form="final" 
d="M282 0l-2 -3q-32 0 -54 -9q-23 -9 -38 -24q-14 -14 -22 -35q-7 -18 -7 -40q0 -38 9 -65q9 -26 32 -62h-135q-19 26 -33 57q-13 30 -13 74q0 38 14 78q13 38 42 70t71 53t99 24v4q-25 27 -44 69l-39 90q-23 54 -40 90q-21 43 -48 69v18h408q46 0 80 -10q38 -11 62 -31
t40 -56q15 -34 15 -82q0 -10 -2 -34q-1 -17 -9 -37q-8 -22 -22 -41q-16 -23 -39 -44v-5h35h47h42h19q6 0 14 -2q6 -2 6 -12v-93q0 -11 -21 -11h-467zM402 109l1 -1q29 0 54 17t41 42q17 27 26 56q9 30 9 56q0 32 -24 47t-57 15h-196q12 -12 20 -31t18 -47q6 -17 20 -53
q8 -22 23 -49q11 -21 29 -37q16 -15 36 -15z" />
    <glyph glyph-name="uniFECB" unicode="&#x639;" horiz-adv-x="616" arabic-form="initial" 
d="M157 118l1 3q-19 19 -36 56q-16 35 -16 80q0 52 13 92q14 43 42 74t75 49q46 18 114 18q104 0 156 -52q53 -53 66 -148h-126q-9 42 -33 66t-62 24q-52 0 -79 -32t-27 -89q0 -68 26 -105q25 -36 87 -36h219v-118h-577q-21 0 -21 11v93q0 10 6 12q8 2 14 2h158z" />
    <glyph glyph-name="uniFECC" unicode="&#x639;" horiz-adv-x="737" arabic-form="medial" 
d="M392 112l1 -1q29 0 54 17t41 42q17 27 26 56q9 30 9 56q0 32 -24 47t-57 15h-196q12 -12 20 -31t18 -47q6 -17 20 -53q8 -22 23 -49q11 -21 29 -37q16 -15 36 -15zM232 117v4q-26 25 -45 69q-23 52 -38 90q-18 46 -39 90t-48 69v18h408q46 0 80 -10q38 -11 62 -31t40 -56
q15 -34 15 -82q0 -39 -13 -75q-14 -37 -57 -81v-5h35h47h42h19q6 0 14 -2q6 -1 6 -12v-93q0 -11 -21 -11h-737q-21 0 -21 11v93q0 11 6 12q8 2 14 2h231z" />
    <glyph glyph-name="uniFECD" unicode="&#x63a;" horiz-adv-x="607" arabic-form="isolated" 
d="M250 727h142v-117h-142v117zM20 -110l-2 -3q0 31 8 65q8 32 24 59q17 28 42 50q26 23 60 36v4q-26 23 -42 63q-16 39 -16 93q0 50 12 92q12 44 40 74t74 49q45 18 113 18q54 0 90 -13q38 -14 65 -39q27 -26 42 -63q15 -38 21 -85h-126q-9 43 -31 66q-22 24 -61 24
q-52 0 -76 -32t-24 -89q0 -71 28 -106q29 -36 93 -36h212v-118h-286q-33 0 -54 -10q-22 -10 -37 -27q-14 -16 -22 -36q-7 -18 -7 -37q0 -38 9 -65q9 -26 32 -62h-135q-19 25 -33 56q-13 29 -13 72z" />
    <glyph glyph-name="uniFECE" unicode="&#x63a;" horiz-adv-x="749" arabic-form="final" 
d="M282 0l-2 -3q-32 0 -54 -9q-23 -9 -38 -24q-14 -14 -22 -35q-7 -18 -7 -40q0 -38 9 -65q9 -26 32 -62h-135q-19 26 -33 57q-13 30 -13 74q0 38 14 78q13 38 42 70t71 53t99 24v4q-25 27 -44 69l-39 90q-23 54 -40 90q-21 43 -48 69v18h408q46 0 80 -10q38 -11 62 -31
t40 -56q15 -34 15 -82q0 -10 -2 -34q-1 -17 -9 -37q-8 -22 -22 -41q-16 -23 -39 -44v-5h35h47h42h19q6 0 14 -2q6 -2 6 -12v-93q0 -11 -21 -11h-467zM402 109l1 -1q29 0 54 17t41 42q17 27 26 56q9 30 9 56q0 32 -24 47t-57 15h-196q12 -12 20 -31t18 -47q6 -17 20 -53
q8 -22 23 -49q11 -21 29 -37q16 -15 36 -15zM333 711h142v-117h-142v117z" />
    <glyph glyph-name="uniFECF" unicode="&#x63a;" horiz-adv-x="616" arabic-form="initial" 
d="M275 715h142v-117h-142v117zM157 118l1 3q-19 19 -36 56q-16 35 -16 80q0 52 13 92q14 43 42 74t75 49q46 18 114 18q104 0 156 -52q53 -53 66 -148h-126q-9 42 -33 66t-62 24q-52 0 -79 -32t-27 -89q0 -68 26 -105q25 -36 87 -36h219v-118h-577q-21 0 -21 11v93
q0 10 6 12q8 2 14 2h158z" />
    <glyph glyph-name="uniFED0" unicode="&#x63a;" horiz-adv-x="737" arabic-form="medial" 
d="M392 112l1 -1q29 0 54 17t41 42q17 27 26 56q9 30 9 56q0 32 -24 47t-57 15h-196q12 -12 20 -31t18 -47q6 -17 20 -53q8 -22 23 -49q11 -21 29 -37q16 -15 36 -15zM232 117v4q-26 25 -45 69q-23 52 -38 90q-18 46 -39 90t-48 69v18h408q46 0 80 -10q38 -11 62 -31t40 -56
q15 -34 15 -82q0 -39 -13 -75q-14 -37 -57 -81v-5h35h47h42h19q6 0 14 -2q6 -1 6 -12v-93q0 -11 -21 -11h-737q-21 0 -21 11v93q0 11 6 12q8 2 14 2h231zM319 714h142v-117h-142v117z" />
    <glyph glyph-name="uniFED1" unicode="&#x641;" horiz-adv-x="1118" arabic-form="isolated" 
d="M753 715h142v-117h-142v117zM554 245v3q0 59 20 105t54 77t83 48q47 16 104 16q56 0 104 -15q49 -15 84 -46q36 -31 57 -78t21 -108t-21 -108q-21 -46 -57 -76t-84 -45t-104 -15h-592q-42 0 -79 14q-36 13 -63 42t-42 72t-15 102v67h126v-53q0 -27 5 -54q5 -24 16 -40
q12 -16 31 -25q20 -9 48 -9h359v4q-23 21 -39 54q-16 32 -16 68zM698 248l-2 -3q0 -58 29 -96q28 -37 87 -37q28 0 50 11q20 10 36 29q14 17 22 42q8 26 8 52q0 31 -7 53q-8 25 -22 42q-16 19 -36 29q-22 11 -50 11q-30 0 -50 -10t-36 -29q-14 -17 -22 -42q-7 -22 -7 -52z
" />
    <glyph glyph-name="uniFED2" unicode="&#x641;" horiz-adv-x="1133" arabic-form="final" 
d="M752 715h142v-117h-142v117zM1133 118l-2 5q6 0 14 -2q6 -1 6 -12v-93q0 -11 -21 -11h-911q-42 0 -79 14q-36 13 -63 42t-42 72t-15 102v67h126v-53q0 -27 5 -54q5 -24 16 -40q12 -16 31 -25q20 -9 48 -9h359v4q-23 21 -39 54q-16 32 -16 68q0 59 20 105t54 77t83 48
q47 16 104 16q56 0 104 -15q49 -15 84 -46q36 -32 57 -78t21 -108q0 -33 -17 -69q-16 -34 -39 -55v-4h112zM812 117l-2 -2q59 0 87 37q29 38 29 96q0 31 -7 53q-8 25 -22 42q-16 19 -36 29q-22 11 -50 11q-30 0 -50 -10t-36 -29q-14 -17 -22 -42q-7 -22 -7 -52q0 -58 29 -96
q28 -37 87 -37z" />
    <glyph glyph-name="uniFED3" unicode="&#x641;" horiz-adv-x="634" arabic-form="initial" 
d="M259 715h142v-117h-142v117zM215 245l-2 -3q0 -58 29 -96q28 -37 87 -37q28 0 50 11q20 10 36 29q14 17 22 42q8 26 8 52q0 31 -7 53q-8 25 -22 42q-16 19 -36 29q-22 11 -50 11q-30 0 -50 -10t-36 -29q-14 -17 -22 -42q-7 -22 -7 -52zM125 115l-1 5q-22 21 -39 54
q-16 32 -16 68q0 59 20 105t54 77t83 48q47 16 104 16q56 0 104 -15q49 -15 84 -46q36 -31 57 -78t21 -108t-21 -108q-21 -46 -57 -76t-84 -45t-104 -15h-331q-21 0 -21 11v93q0 11 6 12q8 2 14 2h127z" />
    <glyph glyph-name="uniFED4" unicode="&#x641;" horiz-adv-x="644" arabic-form="medial" 
d="M233 715h142v-117h-142v117zM0 0l-3 3q-21 0 -21 11v93q0 11 6 12q8 2 14 2h114v4q-22 21 -39 54q-16 32 -16 68q0 59 20 105t54 77t83 48q47 16 104 16q56 0 104 -15q49 -15 84 -46q36 -32 57 -78t21 -108q0 -33 -17 -69q-16 -34 -39 -55v-4h119q6 0 14 -2q6 -2 6 -12
v-93q0 -11 -21 -11h-644zM315 115l-2 -2q59 0 87 37q29 38 29 96q0 31 -7 53q-8 25 -22 42q-16 19 -36 29q-22 11 -50 11q-30 0 -50 -10t-36 -29q-14 -17 -22 -42q-7 -22 -7 -52q0 -58 29 -96q28 -37 87 -37z" />
    <glyph glyph-name="uniFED5" unicode="&#x642;" horiz-adv-x="849" arabic-form="isolated" 
d="M412 -278l-1 -2q-108 0 -183 29q-74 29 -117 81q-44 53 -62 123q-17 68 -19 153h132q2 -75 16 -124q15 -52 45 -83q29 -31 77 -46q46 -15 111 -15q94 0 154 36q61 36 89 124h-124q-51 0 -90 16q-41 17 -69 46q-29 31 -44 72q-15 42 -15 95q0 51 13 96q14 47 43 84
q30 37 78 60q47 22 116 22q68 0 114 -21q47 -21 77 -60q29 -38 43 -95q13 -53 13 -126q0 -117 -21 -204t-67 -145q-47 -58 -123 -87q-78 -29 -186 -29zM667 190l-1 1q0 40 -5 78q-4 34 -17 59q-12 23 -33 37q-20 13 -52 13q-31 0 -50 -12q-20 -12 -32 -33t-18 -48t-6 -55
q0 -26 5 -49q4 -20 17 -36q11 -14 33 -22q20 -7 53 -7h105q1 12 1 36v38zM597 714h115v-114h-115v114zM427 714h114v-114h-114v114z" />
    <glyph glyph-name="uniFED6" unicode="&#x642;" horiz-adv-x="919" arabic-form="final" 
d="M668 192l-1 1q0 40 -5 78q-4 34 -17 59q-12 23 -33 37q-20 13 -52 13q-30 0 -50 -12t-32 -33t-18 -48t-6 -55q0 -26 5 -49q4 -20 17 -36q11 -14 33 -22q20 -7 53 -7h105q1 12 1 36v38zM413 -158l1 -2q94 0 154 36q61 36 89 124h-124q-51 0 -90 16q-41 17 -69 46
q-29 31 -44 72q-15 42 -15 95q0 51 13 96q14 47 43 84q30 37 78 60q47 22 116 22q67 0 114 -21t77 -60q29 -38 43 -95q13 -53 13 -126v-36q0 -22 1 -33h109q6 0 14 -2q6 -2 6 -12v-93q0 -11 -21 -11h-116q-15 -61 -44 -113q-28 -50 -75 -88q-46 -37 -114 -57
q-69 -20 -159 -20q-108 0 -183 29q-74 29 -117 81q-44 53 -62 123q-17 68 -19 153h132q2 -75 16 -124q15 -52 45 -83q29 -31 77 -46q46 -15 111 -15zM590 714h115v-114h-115v114zM420 714h114v-114h-114v114z" />
    <glyph glyph-name="uniFED7" unicode="&#x642;" horiz-adv-x="634" arabic-form="initial" 
d="M358 715h115v-114h-115v114zM188 715h114v-114h-114v114zM215 245l-2 -3q0 -58 29 -96q28 -37 87 -37q28 0 50 11q20 10 36 29q14 17 22 42q8 26 8 52q0 31 -7 53q-8 25 -22 42q-16 19 -36 29q-22 11 -50 11q-30 0 -50 -10t-36 -29q-14 -17 -22 -42q-7 -22 -7 -52z
M125 115l-1 5q-22 21 -39 54q-16 32 -16 68q0 59 20 105t54 77t83 48q47 16 104 16q56 0 104 -15q49 -15 84 -46q36 -31 57 -78t21 -108t-21 -108q-21 -46 -57 -76t-84 -45t-104 -15h-331q-21 0 -21 11v93q0 11 6 12q8 2 14 2h127z" />
    <glyph glyph-name="uniFED8" unicode="&#x642;" horiz-adv-x="644" arabic-form="medial" 
d="M332 715h115v-114h-115v114zM162 715h114v-114h-114v114zM0 0l-3 3q-21 0 -21 11v93q0 11 6 12q8 2 14 2h114v4q-22 21 -39 54q-16 32 -16 68q0 59 20 105t54 77t83 48q47 16 104 16q56 0 104 -15q49 -15 84 -46q36 -32 57 -78t21 -108q0 -33 -17 -69q-16 -34 -39 -55v-4
h119q6 0 14 -2q6 -2 6 -12v-93q0 -11 -21 -11h-644zM315 115l-2 -2q59 0 87 37q29 38 29 96q0 31 -7 53q-8 25 -22 42q-16 19 -36 29q-22 11 -50 11q-30 0 -50 -10t-36 -29q-14 -17 -22 -42q-7 -22 -7 -52q0 -58 29 -96q28 -37 87 -37z" />
    <glyph glyph-name="uniFED9" unicode="&#x643;" horiz-adv-x="753" arabic-form="isolated" 
d="M550 118v597h143v-715h-472q-42 0 -79 14t-62 42t-40 72t-15 102v68h125v-52q0 -27 5 -54q5 -24 16 -40q12 -16 31 -25q20 -9 48 -9h300zM252 340l27 1v3q-14 17 -14 39q0 35 24 54q23 19 62 19q17 0 30 -4q16 -5 27 -13q12 -9 19 -22t9 -33h-54q-2 14 -9 21t-20 7
q-11 0 -18 -9q-8 -10 -8 -26t8 -27q7 -10 26 -10h79v-46h-188v46z" />
    <glyph glyph-name="uniFEDA" unicode="&#x643;" horiz-adv-x="820" arabic-form="final" 
d="M820 118l2 -2q6 0 14 -2q6 -2 6 -12v-93q0 -11 -21 -11h-21q-12 0 -29 5q-15 5 -30 12q-14 7 -27 20q-12 12 -18 27h-4q-1 -7 -8 -30q-6 -21 -16 -33h-447q-42 0 -79 14t-62 42t-40 72q-15 43 -15 102v68h125v-52q0 -27 5 -54q5 -24 16 -40q12 -16 31 -25q20 -9 48 -9
h300v597h143v-510q0 -24 10 -40q11 -17 25 -27q15 -11 34 -15q17 -4 37 -4h21zM254 338l27 1v3q-14 17 -14 39q0 35 24 54q23 19 62 19q17 0 30 -4q16 -5 27 -13q12 -9 19 -22t9 -33h-54q-2 14 -9 21t-20 7q-11 0 -18 -9q-8 -10 -8 -26t8 -27q7 -10 26 -10h79v-46h-188v46z
" />
    <glyph glyph-name="uniFEDB" unicode="&#x643;" horiz-adv-x="665" arabic-form="initial" 
d="M478 118l2 93q1 79 -31 116q-31 36 -90 36h-314v111l240 241h151l-237 -241h159q139 0 201 -65t62 -188v-221h-621q-21 0 -21 11v93q0 10 6 12q8 2 14 2h479z" />
    <glyph glyph-name="uniFEDC" unicode="&#x643;" horiz-adv-x="748" arabic-form="medial" 
d="M479 118l4 91q3 77 -31 116q-32 36 -90 36h-314v111l240 241h151l-237 -241h159q139 0 201 -65t62 -188v-16q0 -21 12 -40q11 -17 25 -27q15 -10 33 -15q16 -4 36 -4h21q6 0 14 -2q6 -1 6 -12v-93q0 -11 -21 -11h-21q-12 0 -29 5q-15 4 -30 12q-14 7 -27 20
q-12 12 -18 27h-4q-1 -7 -8 -30q-6 -21 -16 -33h-596q-21 0 -21 11v93q0 10 6 12q8 2 14 2h479z" />
    <glyph glyph-name="uniFEDD" unicode="&#x644;" horiz-adv-x="759" arabic-form="isolated" 
d="M699 715l-3 -514q0 -110 -16 -190q-17 -83 -55 -138q-39 -55 -105 -84q-65 -28 -166 -28q-102 0 -164 31q-63 32 -99 87q-35 54 -49 134q-13 75 -13 173h128q0 -90 12 -149q12 -58 36 -94t62 -51q37 -15 90 -15t90 15q38 15 62 51t36 95q12 58 12 149v528h142z" />
    <glyph glyph-name="uniFEDE" unicode="&#x644;" horiz-adv-x="826" arabic-form="final" 
d="M355 -238l1 -3q-102 0 -164 31q-63 32 -99 87q-35 54 -49 134q-13 75 -13 173h128q0 -90 12 -149q12 -58 36 -94t62 -51q37 -15 90 -15t90 15q38 15 62 51t36 95t12 149v528h142v-505q0 -25 9 -43q9 -17 24 -28q15 -10 35 -15q22 -5 37 -5h21q6 0 14 -2q6 -1 6 -12v-93
q0 -11 -21 -11h-21q-14 0 -32 5q-17 5 -32 15q-15 11 -27 24t-15 30h-4q-7 -77 -30 -135q-22 -58 -63 -97q-41 -40 -102 -59q-63 -20 -145 -20z" />
    <glyph glyph-name="uniFEDF" unicode="&#x644;" horiz-adv-x="337" arabic-form="initial" 
d="M135 118l1 597h142v-715h-278q-21 0 -21 11v93q0 10 6 12q8 2 14 2h136z" />
    <glyph glyph-name="uniFEE0" unicode="&#x644;" horiz-adv-x="404" arabic-form="medial" 
d="M63 118l1 2q10 0 22 3q13 3 23 12q11 9 18 24q7 14 7 38v519h142v-499q0 -25 8 -44q7 -17 20 -30q12 -12 27 -18t30 -6h45q6 0 14 -2q6 -1 6 -12v-93q0 -11 -21 -11h-45q-20 0 -39 6t-36 15q-15 8 -31 21q-13 10 -25 26q-18 -21 -40 -34q-23 -13 -45 -21q-26 -8 -43 -11
q-21 -3 -37 -3h-63q-21 0 -21 11v93q0 10 6 12q8 2 14 2h63z" />
    <glyph glyph-name="uniFEE1" unicode="&#x645;" horiz-adv-x="692" arabic-form="isolated" 
d="M269 0l-2 -1q-30 0 -52 -8q-21 -7 -33 -21q-11 -13 -16 -32q-4 -16 -4 -37v-139h-143v145q0 80 40 136q41 58 126 71q-25 26 -42 62q-16 33 -16 69q0 59 20 105t54 77t83 48q47 16 104 16q56 0 104 -15q49 -15 84 -46q36 -32 57 -78t21 -108t-21 -108t-57 -76t-84 -45
t-104 -15h-119zM270 244l-2 -3q0 -58 29 -96q28 -37 87 -37q28 0 50 11q20 10 36 29q14 17 22 42q8 26 8 52q0 31 -7 53q-8 25 -22 42q-16 19 -36 29q-22 11 -50 11q-30 0 -50 -10t-36 -29q-14 -17 -22 -42q-7 -22 -7 -52z" />
    <glyph glyph-name="uniFEE2" unicode="&#x645;" horiz-adv-x="764" arabic-form="final" 
d="M764 118l-4 -4q6 0 14 -2q6 -2 6 -12v-93q0 -11 -21 -11h-26q-24 0 -45 9q-20 9 -37 24q-15 14 -28 33t-17 35q-34 -51 -93 -75q-58 -24 -130 -24h-119q-30 0 -52 -8q-21 -8 -33 -21q-11 -13 -16 -32q-4 -16 -4 -37v-139h-143v145q0 80 40 136q41 58 126 71
q-25 26 -42 62q-16 33 -16 69q0 59 20 105t54 77t83 48q47 16 104 16q56 0 104 -15t84 -45t57 -77t21 -108v-28q0 -45 29 -72t65 -27h19zM268 241l-2 -3q0 -58 29 -96q28 -37 87 -37q28 0 50 11q20 10 36 29q14 17 22 42q8 26 8 52q0 31 -7 53q-8 25 -22 42q-16 19 -36 29
q-22 11 -50 11q-30 0 -50 -10t-36 -29q-14 -17 -22 -42q-7 -22 -7 -52z" />
    <glyph glyph-name="uniFEE3" unicode="&#x645;" horiz-adv-x="608" arabic-form="initial" 
d="M-1 0l-1 1q-21 0 -21 11v93q0 11 6 12q8 2 14 2h101v4q-22 21 -39 54q-16 32 -16 68q0 59 20 105t54 77t83 48q47 16 104 16q56 0 104 -15q49 -15 84 -46q36 -32 57 -78t21 -108t-21 -108t-57 -76t-84 -45t-104 -15h-305zM187 246l-2 -3q0 -58 29 -96q28 -37 87 -37
q28 0 50 11q20 10 36 29q14 17 22 42q8 26 8 52q0 31 -7 53q-8 25 -22 42q-16 19 -36 29q-22 11 -50 11q-30 0 -50 -10t-36 -29q-14 -17 -22 -42q-7 -22 -7 -52z" />
    <glyph glyph-name="uniFEE4" unicode="&#x645;" horiz-adv-x="752" arabic-form="medial" 
d="M376 350l-2 -5q-30 0 -50 -10t-36 -29q-14 -17 -22 -42q-7 -22 -7 -52q0 -26 8 -52q8 -25 22 -42t36 -28q20 -10 50 -10q28 0 50 11q20 10 36 29q14 17 22 42q8 26 8 53q0 31 -7 53q-8 25 -22 42q-16 19 -36 29q-22 11 -50 11zM374 -35h-6q-72 0 -130 24t-93 75
q-17 -28 -51 -48q-35 -20 -75 -20h-26q-21 0 -21 11v93q0 10 6 12q8 2 14 2h19q17 0 33 3q15 3 30 11q13 7 22 21q9 13 9 33v28q0 62 21 108q21 47 57 77t84 45t104 15t104 -15t84 -45t57 -77q21 -46 21 -108v-28q0 -20 9 -33q9 -14 22 -21q15 -8 30 -11q16 -3 33 -3h19
q6 0 14 -2q6 -2 6 -12v-93q0 -11 -21 -11h-26q-40 0 -75 20q-34 20 -51 48q-35 -51 -93 -75q-59 -24 -130 -24z" />
    <glyph glyph-name="uniFEE5" unicode="&#x646;" horiz-adv-x="862" arabic-form="isolated" 
d="M351 505h142v-117h-142v117zM414 -118h-2q61 0 109 17q47 17 77 54t45 95q15 57 15 140v114h143v-99q0 -95 -16 -174q-17 -81 -60 -141q-44 -60 -118 -93q-75 -33 -192 -33q-118 0 -193 33t-117 90q-41 56 -58 135q-16 76 -16 166v93h135v-93q0 -83 15 -140
q15 -56 45 -94q30 -37 77 -54q45 -16 111 -16z" />
    <glyph glyph-name="uniFEE6" unicode="&#x646;" horiz-adv-x="928" arabic-form="final" 
d="M351 505h142v-117h-142v117zM416 -238l-2 -2q-118 0 -193 33t-117 90q-41 56 -58 135q-16 76 -16 166v93h135v-93q0 -83 15 -140q15 -56 45 -94q30 -37 77 -54q45 -16 111 -16q61 0 109 17q47 17 77 54t45 95q15 57 15 140v114h143v-85q0 -53 24 -75q25 -23 60 -23h41
q6 0 14 -2q6 -1 6 -12v-93q0 -11 -21 -11h-35q-32 0 -57 13q-26 14 -39 37h-4q-10 -63 -35 -117q-24 -52 -69 -90q-46 -38 -111 -59q-66 -21 -160 -21z" />
    <glyph glyph-name="uniFEE7" unicode="&#x646;" horiz-adv-x="375" arabic-form="initial" 
d="M173 715h142v-117h-142v117zM0 0h1q-21 0 -21 11v93q0 10 6 12q8 2 14 2h172v308h142v-426h-314z" />
    <glyph glyph-name="uniFEE8" unicode="&#x646;" horiz-adv-x="475" arabic-form="medial" 
d="M202 715h142v-117h-142v117zM0 0l1 2q-21 0 -21 11v93q0 10 6 12q8 2 14 2h134q10 0 22 3q13 3 23 12q11 9 18 24q7 14 7 38v230h142v-210q0 -25 8 -44q7 -17 20 -30q12 -12 27 -18t30 -6h45q6 0 14 -2q6 -1 6 -12v-93q0 -11 -21 -11h-45q-20 0 -39 6t-36 15
q-15 8 -31 21q-13 10 -25 26q-18 -21 -40 -34q-23 -13 -45 -21q-26 -8 -43 -11q-21 -3 -37 -3h-134z" />
    <glyph glyph-name="uniFEE9" unicode="&#x647;" horiz-adv-x="908" arabic-form="isolated" 
d="M238 198l-2 -2q0 40 13 69t35 51t51 35q30 13 63 18q31 53 83 87q51 33 123 33t120 -19q50 -20 80 -56q31 -37 44 -87q14 -53 14 -115v-212h-624q-42 0 -59 -15t-17 -54v-13h-143v19q0 93 54 137q55 44 141 44h40q-16 33 -16 80zM719 210h-3q0 92 -27 132q-27 41 -88 41
q-22 0 -45 -10t-40 -36q32 -21 51 -55t19 -85q0 -45 -17 -81h150v94zM482 196q0 44 -20 66q-20 21 -54 21t-54 -21q-20 -22 -20 -66t20 -67q19 -22 54 -22t54 22q20 23 20 67z" />
    <glyph glyph-name="uniFEEA" unicode="&#x647;" horiz-adv-x="611" arabic-form="final" 
d="M611 118l-2 -1q6 0 14 -2q6 -1 6 -12v-93q0 -11 -21 -11h-49q-51 0 -88 28q-38 29 -54 76q-23 -32 -62 -53t-87 -21q-46 0 -88 15q-41 15 -73 42q-31 26 -49 66q-18 39 -18 89t15 92q15 43 45 74q29 31 75 49q45 18 107 18h231v-252q0 -58 18 -81t62 -23h18zM274 141v-1
q20 0 38 6q20 6 32 19q15 15 23 34q9 21 9 50v109h-97q-52 0 -79 -31t-27 -85q0 -50 26 -76q25 -25 75 -25z" />
    <glyph glyph-name="uniFEEB" unicode="&#x647;" horiz-adv-x="718" arabic-form="initial" 
d="M-1 0v-2q-21 0 -21 11v93q0 10 6 12q8 2 14 2h65q-16 33 -16 80q0 40 13 69t35 51t51 35q30 13 63 18q31 53 83 87q51 33 123 33t120 -19q50 -20 80 -56q31 -37 44 -87q14 -53 14 -115v-212h-674zM415 383h-3q-22 0 -45 -10t-40 -36q32 -21 51 -55t19 -85q0 -45 -17 -81
h150v94q0 92 -27 132q-27 41 -88 41zM294 196q0 44 -20 66q-20 21 -54 21t-54 -21q-20 -22 -20 -66t20 -67q19 -22 54 -22t54 22q20 23 20 67z" />
    <glyph glyph-name="uniFEEC" unicode="&#x647;" horiz-adv-x="801" arabic-form="medial" 
d="M49 198l2 -4q0 40 13 69t35 51t51 35q30 13 63 18q31 53 83 87q51 33 123 33t120 -19q50 -20 80 -56q31 -37 44 -87q14 -53 14 -115v-7q0 -21 12 -40q11 -17 25 -27q15 -10 33 -15q16 -4 36 -4h21q6 0 14 -2q6 -1 6 -12v-93q0 -11 -21 -11h-21q-12 0 -29 5q-15 4 -30 12
q-14 7 -27 20q-12 12 -18 27h-4q-1 -7 -8 -30q-6 -21 -16 -33h-649q-21 0 -21 11v93q0 10 6 12q8 2 14 2h65q-16 33 -16 80zM418 381h-3q-22 0 -45 -10t-40 -36q32 -21 51 -55t19 -85q0 -45 -17 -81h150v94q0 92 -27 132q-27 41 -88 41zM297 194q0 44 -20 66q-19 21 -54 21
t-54 -21q-20 -22 -20 -66t20 -67q19 -22 54 -22t54 22q20 23 20 67z" />
    <glyph glyph-name="uniFEED" unicode="&#x648;" horiz-adv-x="575" arabic-form="isolated" 
d="M208 -132l-4 -1q79 0 122 32t53 99h-124q-51 0 -90 16q-41 17 -69 46q-29 31 -44 72q-15 42 -15 95q0 51 13 96q14 47 43 84q30 37 78 60q47 22 116 22q67 0 114 -21t77 -60q29 -38 43 -95q13 -53 13 -126q0 -114 -18 -195q-18 -82 -55 -132q-37 -51 -96 -75t-143 -24
q-16 0 -38 2q-14 1 -29 5q-13 4 -24 9v107q19 -7 38 -12q16 -4 39 -4zM178 230l-1 1q0 -26 5 -49q4 -20 17 -36q11 -14 33 -22q20 -7 53 -7h106v74q0 40 -5 78q-4 34 -17 59q-12 23 -33 37q-20 13 -52 13q-31 0 -50 -12q-20 -12 -32 -33t-18 -48t-6 -55z" />
    <glyph glyph-name="uniFEEE" unicode="&#x648;" horiz-adv-x="645" arabic-form="final" 
d="M208 -132l-4 -2q79 0 122 32t53 99h-124q-51 0 -90 16q-41 17 -69 46q-29 31 -44 72q-15 42 -15 95q0 51 13 96q14 47 43 84q30 38 78 60q47 22 116 22q67 0 114 -21t77 -60q29 -38 43 -95q13 -53 13 -126v-36q0 -22 -1 -33h112q6 0 14 -2q6 -1 6 -12v-93q0 -11 -21 -11
h-124q-21 -118 -94 -178q-74 -60 -204 -60q-16 0 -38 2q-14 1 -29 5q-13 4 -24 9v107q19 -7 38 -12q16 -4 39 -4zM178 229l-1 1q0 -26 5 -49q4 -20 17 -36q11 -14 33 -22q20 -7 53 -7h106v74q0 40 -5 78q-4 34 -17 59q-12 23 -33 37q-20 13 -52 13q-31 0 -50 -12
q-20 -12 -32 -33t-18 -48t-6 -55z" />
    <glyph glyph-name="uniFEEF" unicode="&#x649;" horiz-adv-x="818" arabic-form="isolated" 
d="M413 -159l-3 -3q42 0 87 5q41 5 71 18q31 14 48 37q18 24 18 60q0 18 -5 33q-5 14 -21 26q-15 11 -48 22q-32 11 -84 24q-41 11 -72 34q-32 24 -53 53q-21 28 -33 60t-12 59q0 44 15 85q15 40 45 70t73 48t101 18q94 0 153 -54t66 -154h-123q-9 49 -30 73t-65 24
q-37 0 -64 -27t-27 -82q0 -16 9 -34q9 -19 28 -36q19 -18 51 -33t76 -27q44 -10 75 -30q32 -20 51 -43q20 -25 29 -51q9 -27 9 -54q0 -55 -22 -98q-23 -44 -67 -75q-45 -31 -114 -48q-71 -17 -163 -17q-115 0 -187 31q-74 32 -117 85q-44 54 -60 126t-18 155h123
q2 -76 13 -126q12 -53 42 -87q30 -35 79 -51q48 -16 126 -16z" />
    <glyph glyph-name="uniFEF0" unicode="&#x649;" horiz-adv-x="769" arabic-form="final" 
d="M412 -278l-2 -4q-111 0 -183 28q-74 29 -117 79q-44 52 -62 123q-17 70 -19 159h123q2 -77 18 -128t49 -82t81 -45q46 -13 113 -13q47 0 88 6q39 6 69 20q28 13 45 33q16 19 16 47q0 6 -3 15t-9 18t-15 15t-19 6q-19 0 -51 8q-31 8 -59 27v114q11 -7 33 -13q14 -4 44 -10
q22 -5 45 -6q30 -2 37 -2h136q6 0 14 -2q6 -1 6 -12v-93q0 -11 -21 -11h-54q14 -16 23 -39q9 -24 9 -44q0 -34 -23 -69q-22 -35 -66 -63t-105 -45q-63 -17 -141 -17z" />
    <glyph glyph-name="uniFEF1" unicode="&#x64a;" horiz-adv-x="818" arabic-form="isolated" 
d="M457 -355h115v-114h-115v114zM287 -355h114v-114h-114v114zM413 -159l-3 -3q42 0 87 5q41 5 71 18q31 14 48 37q18 24 18 60q0 18 -5 33q-5 14 -21 26q-15 11 -48 22q-32 11 -84 24q-41 11 -72 34q-32 24 -53 53q-21 28 -33 60t-12 59q0 44 15 85q15 40 45 70t73 48
t101 18q94 0 153 -54t66 -154h-123q-9 49 -30 73t-65 24q-37 0 -64 -27t-27 -82q0 -16 9 -34q9 -19 28 -36q19 -18 51 -33t76 -27q44 -10 75 -30q32 -20 51 -43q20 -25 29 -51q9 -27 9 -54q0 -55 -22 -98q-23 -44 -67 -75q-45 -31 -114 -48q-71 -17 -163 -17q-115 0 -187 31
q-74 32 -117 85q-44 54 -60 126t-18 155h123q2 -76 13 -126q12 -53 42 -87q30 -35 79 -51q48 -16 126 -16z" />
    <glyph glyph-name="uniFEF2" unicode="&#x64a;" horiz-adv-x="769" arabic-form="final" 
d="M434 -418h115v-114h-115v114zM264 -418h114v-114h-114v114zM412 -278l-2 -4q-111 0 -183 28q-74 29 -117 79q-44 52 -62 123q-17 70 -19 159h123q2 -77 18 -128t49 -82t81 -45q46 -13 113 -13q47 0 88 6q39 6 69 20q28 13 45 33q16 19 16 47q0 6 -3 15t-9 18t-15 15
t-19 6q-19 0 -51 8q-31 8 -59 27v114q11 -7 33 -13q14 -4 44 -10q22 -5 45 -6q30 -2 37 -2h136q6 0 14 -2q6 -1 6 -12v-93q0 -11 -21 -11h-54q14 -16 23 -39q9 -24 9 -44q0 -34 -23 -69q-22 -35 -66 -63t-105 -45q-63 -17 -141 -17z" />
    <glyph glyph-name="uniFEF3" unicode="&#x64a;" horiz-adv-x="374" arabic-form="initial" 
d="M174 -98h115v-114h-115v114zM4 -98h114v-114h-114v114zM0 0h1q-21 0 -21 11v93q0 10 6 12q8 2 14 2h172v308h142v-426h-314z" />
    <glyph glyph-name="uniFEF4" unicode="&#x64a;" horiz-adv-x="475" arabic-form="medial" 
d="M304 -98h115v-114h-115v114zM134 -98h114v-114h-114v114zM0 0l1 2q-21 0 -21 11v93q0 10 6 12q8 2 14 2h134q10 0 22 3q13 3 23 12q11 9 18 24q7 14 7 38v230h142v-210q0 -25 8 -44q7 -17 20 -30q12 -12 27 -18t30 -6h45q6 0 14 -2q6 -1 6 -12v-93q0 -11 -21 -11h-45
q-20 0 -39 6t-36 15q-15 8 -31 21q-13 10 -25 26q-18 -21 -40 -34q-23 -13 -45 -21q-26 -8 -43 -11q-21 -3 -37 -3h-134z" />
    <glyph glyph-name="uniFEF5" unicode="&#xfef5;" horiz-adv-x="662" arabic-form="isolated" 
d="M20 118h110v413h142v-413h188v597h142v-715h-582v118zM132 707v2q18 0 35 -6l33 -12q18 -6 27 -8q13 -3 27 -3q22 0 30 7q9 7 9 21h38q0 -36 -21 -58t-50 -22q-17 0 -30 4q-20 6 -29 9q-11 3 -31 9q-17 5 -32 5q-22 0 -30 -7q-9 -8 -9 -21h-38q0 35 21 58q21 22 50 22z
" />
    <glyph glyph-name="uniFEF6" unicode="&#xfef6;" horiz-adv-x="729" arabic-form="final" 
d="M460 196v521h142v-499q0 -25 8 -44q7 -17 20 -30q12 -12 27 -18t30 -6h42q6 0 14 -2q6 -2 6 -12v-93q0 -11 -21 -11h-42q-20 0 -39 6t-36 15q-15 8 -31 21q-13 10 -25 26q-18 -21 -40 -34q-23 -14 -45 -21q-25 -9 -43 -11q-21 -3 -37 -3h-371v118h110v413h142v-413h119
q10 0 22 3q13 3 23 12q11 9 18 24q7 14 7 38zM129 715v2q19 0 35 -6l33 -12q18 -6 27 -8q14 -3 27 -3q22 0 30 7q9 7 9 21h38q0 -36 -21 -58t-50 -22q-17 0 -30 4q-20 6 -29 9q-11 3 -31 9q-17 5 -32 5q-22 0 -30 -7q-9 -8 -9 -21h-38q0 35 21 58q21 22 50 22z" />
    </font>
</defs>
</svg>
