<?xml version="1.0" standalone="no"?>
<!DOCTYPE svg PUBLIC "-//W3C//DTD SVG 1.1//EN" "http://www.w3.org/Graphics/SVG/1.1/DTD/svg11.dtd" >
<svg xmlns="http://www.w3.org/2000/svg" xmlns:xlink="http://www.w3.org/1999/xlink" version="1.1">
<metadata></metadata>
<defs>
<font id="brelaregular" horiz-adv-x="1003" >
<font-face units-per-em="2048" ascent="1536" descent="-512" />
<missing-glyph horiz-adv-x="409" />
<glyph horiz-adv-x="0" />
<glyph horiz-adv-x="682" />
<glyph horiz-adv-x="0" />
<glyph horiz-adv-x="0" />
<glyph unicode="&#xd;" horiz-adv-x="409" />
<glyph unicode=" "  horiz-adv-x="409" />
<glyph unicode="&#x09;" horiz-adv-x="409" />
<glyph unicode="&#xa0;" horiz-adv-x="409" />
<glyph unicode="!" horiz-adv-x="565" d="M164 121q0 49 35 84t84 35t83.5 -34.5t34.5 -84.5t-34.5 -84.5t-83.5 -34.5t-84 35t-35 84zM178 1368h182l-36 -969h-113z" />
<glyph unicode="&#x22;" horiz-adv-x="618" d="M82 1456h174l-39 -477h-100zM362 1456h175l-39 -477h-101z" />
<glyph unicode="#" horiz-adv-x="1159" d="M82 289v100h225l37 273h-223v100h235l37 268h115l-37 -268h264l37 268h115l-37 -268l227 2v-100l-239 -2l-37 -273l237 2v-100l-250 -2l-38 -289h-115l39 289h-264l-39 -289h-115l39 289h-213zM422 389h264l37 273h-264z" />
<glyph unicode="$" horiz-adv-x="964" d="M82 82l10 278h107l55 -202h6q8 -5 22.5 -13t66 -21t108.5 -13q46 0 89 10t81.5 31t62 59.5t23.5 89.5q0 41 -33.5 81t-87 74t-118 68.5t-129.5 71t-118.5 74.5t-87 87t-33.5 101q0 135 84 218.5t222 101.5v180h104v-176q82 -3 159.5 -15t114.5 -23l37 -11l-14 -277h-98 l-51 197l-2 1q-3 1 -8.5 3t-13.5 4t-18.5 4.5t-22.5 5t-26.5 4.5t-29.5 4t-33 3t-35 1q-82 0 -140.5 -43t-58.5 -120q0 -46 45 -91.5t112.5 -81.5t146 -79.5t146 -85t112.5 -99.5t45 -121q0 -104 -51 -181.5t-132 -117.5t-184 -49v-172h-104v170q-84 4 -166.5 21.5 t-123.5 32.5z" />
<glyph unicode="%" horiz-adv-x="1677" d="M94 829q0 78 19 146t57 123t101.5 87t144.5 32q80 0 139.5 -29t94 -82t51 -120.5t16.5 -151.5q0 -79 -19 -148t-57 -124.5t-101 -87.5t-145 -32q-81 0 -140 29t-93.5 82.5t-51 122t-16.5 153.5zM244 829q0 -69 7 -120.5t24 -94t49 -64.5t79 -22q164 0 164 303 q0 69 -6.5 119t-22.5 93t-47.5 65t-78.5 22t-81 -24.5t-52.5 -68t-26.5 -95t-8 -113.5zM395 -31l740 1243h118l-721 -1243h-137zM952 354q0 78 19 146t57 122.5t101.5 86.5t144.5 32q80 0 139.5 -29t94 -82t51 -120.5t16.5 -151.5q0 -107 -32.5 -193t-107 -142t-182.5 -56 q-81 0 -140 29t-93.5 82.5t-51 122t-16.5 153.5zM1102 354q0 -69 7 -120.5t24.5 -94t49.5 -64.5t79 -22q163 0 163 303q0 69 -6.5 119t-22.5 93t-47.5 65t-78.5 22t-81 -24.5t-52.5 -68t-26.5 -95t-8 -113.5z" />
<glyph unicode="&#x26;" horiz-adv-x="1437" d="M61 365q0 245 291 403v6q-135 169 -135 289q0 85 44 160t130.5 123.5t196.5 48.5q135 0 230 -78t95 -207q0 -108 -79 -197.5t-244 -171.5v-6q269 -310 336 -385q104 160 141 395l-149 27l-9 78h467l-14 -78l-137 -27h-4q-58 -336 -197 -501v-2q41 -39 81 -69.5t68 -46.5 t50.5 -26t33.5 -13l11 -3q0 -104 -2 -104q-75 0 -178.5 50t-169.5 113q-178 -166 -412 -166q-196 0 -320.5 114t-124.5 274zM274 391q0 -123 71 -206t192 -83q159 0 284 136q-233 256 -389 434q-67 -42 -112.5 -112t-45.5 -169zM401 1079q0 -68 27 -126.5t78 -121.5 q116 67 172.5 128t56.5 143q0 71 -40.5 124.5t-119.5 53.5q-82 0 -128 -58t-46 -143z" />
<glyph unicode="'" horiz-adv-x="337" d="M82 1456h174l-39 -477h-100z" />
<glyph unicode="(" horiz-adv-x="626" d="M86 522q0 130 35 274t84.5 257.5t99 205.5t84.5 145t35 50l100 -41q-10 -16 -26.5 -46.5t-58 -126.5t-73.5 -195t-58.5 -243t-26.5 -280t25 -280t60 -252.5t70.5 -197t60.5 -134.5l25 -47l-98 -41q-14 20 -36.5 55.5t-81 144.5t-103 217t-81 256.5t-36.5 278.5z" />
<glyph unicode=")" horiz-adv-x="628" d="M102 1413l101 41q0 3 35 -50t84.5 -145t99 -205.5t84.5 -257.5t35 -274t-35 -276t-84.5 -261.5t-99 -212t-84.5 -149.5l-35 -53l-99 41q10 17 26 48.5t58 131t74 201t58 248t26 282.5t-25 278t-61 247.5t-72 191t-61 129.5z" />
<glyph unicode="*" horiz-adv-x="681" d="M41 1057l61 108l187 -149l-29 225h125l-35 -225l189 143l61 -108l-217 -88l197 -82l-62 -109l-168 133l29 -217h-125l31 217l-168 -129l-62 109l203 80z" />
<glyph unicode="+" horiz-adv-x="1124" d="M82 430v131h399v420h152v-420h409v-131h-409v-432h-152v432h-399z" />
<glyph unicode="," horiz-adv-x="448" d="M72 -217q71 71 71 151q0 30 -28 80q-29 32 -29 78q0 50 35 84.5t84 34.5t84 -34.5t35 -84.5v-2q0 -54 -50 -147.5t-147 -200.5z" />
<glyph unicode="-" horiz-adv-x="638" d="M82 397v150h475v-150h-475z" />
<glyph unicode="." horiz-adv-x="583" d="M82 92q0 50 35 84.5t84 34.5t83.5 -34.5t34.5 -84.5t-34.5 -84.5t-83.5 -34.5t-84 34.5t-35 84.5z" />
<glyph unicode="/" horiz-adv-x="940" d="M82 -2l594 1374h182l-594 -1374h-182z" />
<glyph unicode="0" horiz-adv-x="1159" d="M94 592q0 85 14.5 167.5t51.5 166t92 146t142.5 101.5t197.5 39t195 -37t136.5 -96.5t84.5 -142t45 -164.5t12 -174q0 -85 -17.5 -170.5t-57 -168.5t-96.5 -146.5t-141.5 -102.5t-185.5 -39t-183 37t-135 97.5t-89 142.5t-51 167.5t-15 176.5zM287 623q0 -59 7.5 -124.5 t28 -143.5t52.5 -138.5t86.5 -101.5t124.5 -41q63 0 113.5 34.5t81.5 87.5t52 120.5t29 128.5t8 116q0 60 -6.5 124.5t-26.5 143t-51 139t-86.5 101.5t-126.5 41q-52 0 -94.5 -18.5t-71.5 -48t-51.5 -72t-35 -85.5t-20.5 -92.5t-10.5 -89.5t-2.5 -81z" />
<glyph unicode="1" horiz-adv-x="696" d="M61 1034v92l377 86v-1112l185 -28l12 -72h-572l9 72l186 28v947z" />
<glyph unicode="2" d="M82 0v156q92 92 194.5 188.5t159.5 149t115 110.5t85.5 97t44.5 82.5t17 90.5q0 104 -58.5 169t-164.5 65q-54 0 -103.5 -12t-72.5 -24l-23 -13l-57 -189h-98l-12 260q22 9 59 22.5t134 36.5t173 23q185 0 301.5 -83t116.5 -236q0 -47 -10.5 -87t-39.5 -84t-59.5 -79.5 t-93.5 -93t-116.5 -103.5t-153.5 -131.5t-182 -158.5h526l47 153h98l13 -309h-840z" />
<glyph unicode="3" horiz-adv-x="1009" d="M82 1126q22 9 59.5 22.5t134.5 36.5t173 23q188 0 290.5 -78t102.5 -215q0 -91 -58 -151t-157 -107q135 -26 213 -104t78 -213q0 -170 -123 -271.5t-310 -101.5q-95 0 -194.5 20.5t-152.5 40.5l-52 21l12 260h99l59 -166q3 -3 8.5 -7.5t25 -17t41 -22t55 -17t67.5 -7.5 q123 0 199.5 67t76.5 209q0 58 -19 100.5t-48.5 66t-74.5 37t-86 17.5t-95 4h-162q-1 6 -3 16.5t-6 33t-6.5 37t-1.5 14.5q73 0 122.5 2.5t102.5 10.5t85.5 24.5t60.5 42.5t40.5 66.5t12.5 94.5q0 75 -49.5 132t-152.5 57q-54 0 -103.5 -12t-72.5 -24l-23 -13l-57 -189h-99z " />
<glyph unicode="4" horiz-adv-x="1009" d="M41 483l586 729l180 -28v-697h119v-104h-119v-414l-139 25l-41 57v332h-527zM190 487h437v555z" />
<glyph unicode="5" horiz-adv-x="995" d="M82 53l12 260h99l59 -166q2 -3 5.5 -7.5t19 -17t34.5 -22t53.5 -17t75.5 -7.5q134 0 209.5 90t75.5 229q0 122 -80 193t-203 71q-43 0 -80 -10.5t-60 -25.5t-40 -30t-24 -25l-7 -11l-112 43l39 586h704l-14 -156h-559l-37 -319q114 73 227 73q191 0 312.5 -100.5 t121.5 -277.5q0 -181 -129.5 -308t-312.5 -127q-95 0 -192 20.5t-147 40.5z" />
<glyph unicode="6" horiz-adv-x="993" d="M82 532q0 202 89 358.5t245.5 241.5t353.5 85q8 -93 12 -99q-456 0 -501 -459q140 78 286 78q64 0 123 -18t109.5 -55t81 -100.5t30.5 -145.5q0 -120 -51 -224t-148 -168.5t-218 -64.5q-191 0 -301.5 138.5t-110.5 432.5zM276 522q0 -45 1 -80t6.5 -84t14.5 -86t26 -76 t40.5 -64t59 -41.5t80.5 -16.5q100 0 159.5 85.5t59.5 205.5q0 110 -51.5 184t-145.5 74q-62 0 -121.5 -23t-85.5 -42t-43 -36z" />
<glyph unicode="7" horiz-adv-x="884" d="M80 1182v2l2 -2h719l-17 -156q-22 -29 -61.5 -87t-115.5 -185.5t-137.5 -251.5t-109 -272t-47.5 -261l-139 25l-33 57q0 86 43.5 203.5t102 222.5t139 223.5t134 188.5t108.5 137h-432l-46 -147h-98z" />
<glyph unicode="8" horiz-adv-x="966" d="M82 285q0 160 231 313q-85 48 -150 126.5t-65 162.5q0 72 32.5 133.5t85.5 101t118.5 62t132.5 22.5q106 0 191 -33.5t137.5 -102.5t52.5 -163q0 -53 -22 -104.5t-56.5 -90t-65.5 -64t-59 -42.5q240 -137 240 -303q0 -66 -23 -123t-62 -96.5t-90 -67.5t-106.5 -41.5 t-111.5 -13.5q-71 0 -142 20.5t-131.5 59.5t-98.5 102.5t-38 141.5zM266 287q0 -101 59 -160t158 -59q102 0 159.5 51.5t57.5 154.5q0 32 -11 62t-26.5 52.5t-44 45.5t-50 37.5t-58.5 33t-56.5 27t-56.5 23.5q-24 -28 -39 -47.5t-40.5 -57.5t-38.5 -79.5t-13 -83.5zM272 918 q0 -48 24.5 -89.5t70 -75t91 -57t107.5 -49.5q0 -2 2 -2q36 41 73.5 115.5t37.5 152.5q0 97 -54 144t-149 47t-149 -45t-54 -141z" />
<glyph unicode="9" horiz-adv-x="993" d="M82 760q0 120 51.5 224t148.5 168.5t218 64.5q191 0 301 -139t110 -433q0 -151 -52 -279.5t-143 -217t-218 -138t-275 -49.5q-10 92 -14 98q457 0 502 457q-49 -27 -126 -51.5t-159 -24.5q-64 0 -123 18.5t-109.5 55t-81 100.5t-30.5 146zM270 813q0 -110 51.5 -184 t145.5 -74q62 0 120.5 22t85 41t44.5 37q-1 47 -2 80.5t-6.5 84t-14.5 86t-26 75.5t-40 65t-58.5 41.5t-80.5 16.5q-100 0 -159.5 -85.5t-59.5 -205.5z" />
<glyph unicode=":" horiz-adv-x="401" d="M82 92q0 50 35 84.5t84 34.5t83.5 -34.5t34.5 -84.5t-34.5 -84.5t-83.5 -34.5t-84 34.5t-35 84.5zM82 752q0 49 34.5 83.5t84.5 34.5q49 0 83.5 -34t34.5 -84t-34.5 -84.5t-83.5 -34.5t-84 34.5t-35 84.5z" />
<glyph unicode=";" horiz-adv-x="415" d="M82 -211q72 72 72 152q0 24 -31 79q-27 34 -27 78q0 50 35 84.5t84 34.5t84 -34.5t35 -84.5v-10q-3 -55 -53.5 -146t-143.5 -194zM96 752q0 49 34.5 83.5t84.5 34.5t84.5 -34.5t34.5 -83.5q0 -50 -35 -84.5t-84 -34.5t-84 34.5t-35 84.5z" />
<glyph unicode="&#x3c;" horiz-adv-x="1091" d="M82 430v129l919 422v-152l-776 -333l776 -346v-150z" />
<glyph unicode="=" horiz-adv-x="1011" d="M82 229v148h848v-148h-848zM82 565v148h848v-148h-848z" />
<glyph unicode="&#x3e;" horiz-adv-x="1091" d="M82 0v150l776 346l-776 333v152q919 -420 919 -422v-129z" />
<glyph unicode="?" horiz-adv-x="866" d="M82 918q5 3 13.5 8.5t39.5 19.5t65.5 24.5t91 19.5t116.5 9q166 0 271 -89.5t105 -245.5q0 -160 -115.5 -293.5t-271.5 -139.5l-14 -202h-92l-21 227l49 68h87q65 0 114 46.5t71.5 114t22.5 142.5q0 116 -52.5 192t-153.5 76q-43 0 -82.5 -12.5t-57.5 -24.5l-18 -12 l-57 -189h-99zM219 -244q0 50 34.5 84.5t84.5 34.5t84.5 -34.5t34.5 -84.5q0 -49 -34.5 -83.5t-84.5 -34.5t-84.5 34.5t-34.5 83.5z" />
<glyph unicode="@" horiz-adv-x="1427" d="M82 610q0 283 178 454t467 171q288 0 453.5 -167t165.5 -458q0 -171 -74.5 -280t-208.5 -109q-45 0 -83 10t-60 24.5t-38 29t-22 24.5l-6 10q-13 -10 -36 -24.5t-86.5 -39t-119.5 -24.5q-86 0 -136 54t-50 129q0 77 43.5 131t136.5 67l242 37v158q0 54 -32.5 73t-94.5 19 q-32 0 -63.5 -8.5t-47.5 -16.5l-16 -8l-43 -137h-70l-8 189q17 7 47 18t111.5 29t150.5 18q85 0 141 -51.5t56 -147.5l-2 -337v-1q0 -68 23.5 -93t62.5 -25q20 0 39 4.5t45.5 22t45.5 46t32.5 83t13.5 126.5q0 76 -17 149t-56 142.5t-96.5 121.5t-146 84t-196.5 32 q-123 0 -219.5 -33.5t-155 -87t-97 -125.5t-53 -141.5t-14.5 -143.5q0 -71 18 -144t60 -146.5t102.5 -129.5t154 -91.5t206.5 -35.5q73 1 152.5 19t124.5 36t55 27l29 -88q-6 -4 -17.5 -10t-49.5 -21.5t-77.5 -27.5t-98.5 -21.5t-116 -9.5q-157 0 -282 51.5t-204.5 140.5 t-121 204.5t-41.5 248.5zM567 428q0 -102 90 -102q46 0 93.5 15.5t72.5 30.5t25 17v189l-168 -31q-113 -16 -113 -119zM1061 143v2v-2z" />
<glyph unicode="A" horiz-adv-x="1347" d="M-51 0l8 72l113 28l442 1256l190 30l490 -1282l139 -24l6 -78h-510l17 78l141 24q-16 54 -158 424h-483l-145 -428l141 -28l10 -72h-401zM379 633h409l-215 567z" />
<glyph unicode="B" horiz-adv-x="1222" d="M78 1372h532q61 0 117 -7.5t119.5 -31t109 -60.5t75.5 -103t30 -152q0 -193 -211 -281q58 -18 106.5 -45.5t90 -68t65 -99.5t23.5 -131q0 -109 -39 -187.5t-109.5 -122.5t-155.5 -63.5t-190 -19.5h-543l8 78l130 26q0 24 -1.5 577.5t-1.5 588.5l-149 24zM424 784h149 q127 0 206 57t79 177q0 122 -81 187t-206 65q-12 0 -69.5 -1t-77.5 -1v-484zM426 104h178q167 0 247.5 77.5t80.5 211.5q0 132 -84 209.5t-244 77.5h-174v-21q1 3 1 -58q0 -122 -5 -497z" />
<glyph unicode="C" horiz-adv-x="1261" d="M90 686q0 207 81.5 371t228.5 256t333 92q39 0 83 -3.5t84 -9.5t79.5 -13t70.5 -13.5t55.5 -12.5t36.5 -9l13 -3l-2 -2h2l-14 -313h-88l-52 221q-112 51 -243 51q-222 0 -342.5 -157t-120.5 -455q0 -165 54 -303t153.5 -220.5t224.5 -82.5q68 0 136 13.5t116.5 32 t87 37.5t57.5 33l19 13l33 -94q-85 -70 -206.5 -109t-240.5 -39q-297 0 -468 194t-171 525z" />
<glyph unicode="D" horiz-adv-x="1351" d="M78 1372h532q154 0 278.5 -52.5t205.5 -145t124.5 -217.5t43.5 -271t-43.5 -271t-124.5 -217.5t-205.5 -145t-278.5 -52.5h-512l8 78l130 26q0 23 -1.5 575t-1.5 589l-149 26zM424 1268l2 -1164h147q80 1 149 19t131.5 61t107 107.5t70.5 163t26 223.5q0 145 -40 260.5 t-108 186t-153.5 107t-182.5 36.5h-149z" />
<glyph unicode="E" horiz-adv-x="1212" d="M86 4l8 78l150 27v276q-2 342 -2 881l-148 26l-8 80l1044 -2l-14 -309l-88 16l-43 189h-553v-508h412l41 139h78v-381h-78l-41 137h-412l2 -544h551l43 188l88 16l14 -309h-1044z" />
<glyph unicode="F" horiz-adv-x="1204" d="M86 1372l1040 -2l-14 -309l-88 16l-43 189h-549v-508h408l41 139h77v-381h-77l-41 137h-408l2 -549l230 -26l14 -78h-572l9 78l129 26q0 23 -1 572.5t-1 589.5l-148 26z" />
<glyph unicode="G" horiz-adv-x="1419" d="M90 686q0 151 44.5 282.5t125.5 228.5t203 152.5t270 55.5q42 0 88.5 -2t86.5 -5.5t78.5 -7.5t68.5 -8t53 -7.5t35 -4.5l12 -2l-2 -2h2l-14 -322h-88l-52 220q0 2 -27.5 9.5t-88 16t-127.5 8.5q-231 0 -347 -155t-116 -457q0 -109 28 -213.5t80 -192t136.5 -141 t187.5 -53.5q60 0 125.5 10t100 19.5t36.5 11.5v469l-149 27l-9 77h510l-14 -77l-147 -27v-483l2 -43l-66 -28q-196 -75 -383 -75q-299 0 -471 193.5t-172 525.5z" />
<glyph unicode="H" horiz-adv-x="1501" d="M78 4l8 78l129 27v1157l-129 26l-8 78h469l-15 -78l-126 -26v-518h686v518l-129 26l-9 78h469l-14 -78l-127 -26v-1157l127 -27l14 -78h-469l9 78l129 27v534h-686v-534l126 -27l15 -78h-469z" />
<glyph unicode="I" horiz-adv-x="665" d="M78 4l8 78l150 27v1157l-150 26l-8 78h510l-15 -78l-147 -26v-1157l147 -27l15 -78h-510z" />
<glyph unicode="J" horiz-adv-x="694" d="M92 1370h510l-14 -78l-146 -26l-6 -1215q0 -69 -24 -148t-59 -142.5t-69.5 -117.5t-58.5 -84l-24 -30q-1 -1 -18 13.5t-33 29.5l-17 14q5 6 13 17.5t28.5 50t36 80t28.5 104.5t13 127q-1 582 -1 907.5t1 393.5h-2l-150 26z" />
<glyph unicode="K" horiz-adv-x="1388" d="M92 4l8 78l150 27v1157l-150 26l-8 78h510l-14 -78l-148 -26v-541l498 541l-147 26l-9 78h471l-14 -78l-147 -26l-451 -488q90 -115 498 -672l153 -24l15 -84l-244 2h-78q-377 506 -473 639l-72 -78v-452l148 -27l14 -78h-510z" />
<glyph unicode="L" horiz-adv-x="1101" d="M78 4l8 78l150 27q0 29 -1.5 576t-1.5 581l-149 26l-6 78h510l-17 -78l-147 -26l2 -1157h498l55 229l88 16l14 -350h-1003z" />
<glyph unicode="M" horiz-adv-x="1724" d="M78 2l8 78l137 26v1158l-137 26l-8 78h403q-5 2 58 -179.5t184 -518.5t139 -387q61 168 157.5 446t159 458t64.5 181h404l-17 -78l-145 -26v-1158l145 -26l17 -78h-510l6 78l149 26q2 821 2 1086l-407 -1176l-127 -14q-406 1147 -418 1200v-1096l137 -26l15 -78h-416z " />
<glyph unicode="N" horiz-adv-x="1482" d="M78 4l8 78l139 27q0 29 -1 576t-1 581l-137 26l-8 78h387q57 -144 670 -1151q0 114 -0.5 362.5t-1 457t-0.5 223.5l-134 26l-8 78h414l-14 -78l-135 -26l-3 -1235h-2l5 -7q1 0 -51 -9t-102.5 -17t-47.5 -6q-566 946 -713 1198l2 -1077l135 -27l15 -78h-416z" />
<glyph unicode="O" horiz-adv-x="1452" d="M90 686q0 199 77 361t222.5 258t333.5 96q158 0 281.5 -55.5t200.5 -153.5t117 -226.5t40 -279.5q0 -112 -25.5 -216t-78.5 -194.5t-127.5 -157t-179.5 -105t-228 -38.5q-195 0 -340.5 96.5t-219 256t-73.5 358.5zM297 731q0 -65 9 -132.5t28.5 -142.5t54.5 -140t82 -118 t116.5 -83.5t153.5 -30.5q91 0 164 35.5t119 92.5t76.5 133t42.5 151t12 153q0 56 -5 112.5t-19 121t-35 121.5t-56 110.5t-80 91.5t-109 61t-140 23q-103 0 -185 -51.5t-130.5 -134.5t-73.5 -179t-25 -194z" />
<glyph unicode="P" horiz-adv-x="1161" d="M78 1372h532q105 0 190 -19.5t155.5 -62.5t109.5 -121.5t39 -187.5t-39 -188t-109 -123t-155.5 -64t-190.5 -20h-186l2 -482l229 -26l15 -78h-572l8 78l130 26q0 24 -1.5 577.5t-1.5 588.5l-149 24zM424 690h149q94 0 159.5 21t101.5 61.5t51.5 91t15.5 117.5 q0 132 -84 209.5t-244 77.5q-13 0 -71 -1t-78 -1v-576z" />
<glyph unicode="Q" horiz-adv-x="1556" d="M90 686q0 199 77 361t222.5 258t333.5 96q158 0 281.5 -55.5t200.5 -153.5t117 -226.5t40 -279.5q0 -232 -107.5 -416.5t-304.5 -257.5l586 -88v-123l-80 -30l-749 206q-190 4 -332 100.5t-213.5 254.5t-71.5 354zM297 731q0 -65 9 -132.5t28.5 -142.5t54.5 -140t82 -118 t116.5 -83.5t153.5 -30.5q91 0 164 35.5t119 92.5t76.5 133t42.5 151t12 153q0 56 -5 112.5t-19 121t-35 121.5t-56 110.5t-80 91.5t-109 61t-140 23q-103 0 -185 -51.5t-130.5 -134.5t-73.5 -179t-25 -194z" />
<glyph unicode="R" horiz-adv-x="1378" d="M78 1372h532q105 0 190 -19.5t155.5 -62.5t109.5 -121.5t39 -187.5q0 -311 -316 -379q205 -271 373 -500l121 -20l14 -84l-243 2h-49q-331 449 -435 586h-145l2 -482l229 -26l15 -78h-572l8 78l130 26q0 24 -1.5 577.5t-1.5 588.5l-149 24zM424 690h149q94 0 159.5 21 t101.5 61.5t51.5 91t15.5 117.5q0 132 -84 209.5t-244 77.5q-13 0 -71 -1t-78 -1v-576z" />
<glyph unicode="S" horiz-adv-x="1103" d="M98 29l2 2l17 340h102l55 -246q88 -43 238 -43q61 0 111 12.5t93.5 40t68 80t24.5 125.5q0 59 -38.5 112.5t-100 95t-136 81.5t-149 81t-136 85t-100 102t-38.5 123q0 97 33.5 170t92.5 116t133 64t162 21t193 -12t166 -24l61 -12l-16 -331h-102l-54 225q-85 45 -248 45 q-245 0 -245 -184q0 -47 39.5 -91.5t102.5 -83t139 -78.5t152 -85.5t139 -95.5t102.5 -116.5t39.5 -141.5q0 -141 -71 -242t-182 -148t-246 -47q-73 0 -174 15t-166 30z" />
<glyph unicode="T" horiz-adv-x="1212" d="M20 1370v2h1141l-2 -2h2l-14 -309l-88 16l-43 191h-330v-1159l148 -27l14 -78h-510l8 78l150 27v1159h-330l-43 -191l-88 -16z" />
<glyph unicode="U" horiz-adv-x="1540" d="M92 1370h510l-16 -78l-148 -26l-2 -691q0 -226 95 -355.5t282 -129.5q202 0 300.5 121.5t98.5 370.5q0 120 -1 336t-1 352l-153 30l-10 72h401l-8 -72l-107 -26q2 -152 2 -684q0 -119 -15.5 -210.5t-54.5 -170t-101.5 -129t-159.5 -79t-226 -28.5q-119 0 -211.5 32 t-152.5 86.5t-98 134t-54 167.5t-16 193l2 680l-150 26z" />
<glyph unicode="V" horiz-adv-x="1337" d="M-61 1370h510l-17 -78l-147 -26q9 -27 383 -1073l374 1079l-137 28l-10 72h401l-8 -72l-112 -28l-447 -1268l-190 -8l-457 1272l-137 24z" />
<glyph unicode="W" horiz-adv-x="2060" d="M-61 1370h510l-17 -78l-147 -26q10 -34 80 -251t155.5 -484t106.5 -332q41 130 125 412.5t148 500.5l63 217l149 14q0 -1 70.5 -240.5t155 -526t110.5 -375.5q40 128 118 395.5t136 471.5l59 204l-133 28l-10 72h401l-8 -72l-117 -28l-385 -1268l-190 -8l-315 1044 l-316 -1036l-190 -8l-416 1272l-137 24z" />
<glyph unicode="X" horiz-adv-x="1564" d="M72 0l6 78l147 26l463 596l-418 568l-125 24l-6 78h504l-16 -78l-123 -22l303 -414q168 216 315 410l-129 26l-16 78h457l-7 -78l-149 -26h-6l-391 -508q78 -107 200 -275t190 -261.5t91 -123.5l115 -20l16 -78h-518l6 78l147 24l-368 500l-383 -498l160 -26l16 -78h-481 z" />
<glyph unicode="Y" horiz-adv-x="1234" d="M-61 1372h456l-12 -72l-121 -28q0 -3 87 -149.5t174 -291.5l87 -145l324 586l-143 28l-11 72h414l-8 -72l-119 -28l-408 -719v-449l148 -26l14 -78h-510l8 78l150 26v451l-420 717l-102 28z" />
<glyph unicode="Z" horiz-adv-x="1228" d="M78 0v104l815 1162h-625l-53 -209h-90l-12 313h1003v-104q-136 -203 -397 -577.5t-410 -584.5h668l55 211h88l15 -307l2 -8h-1059z" />
<glyph unicode="[" horiz-adv-x="604" d="M92 -432v1986h428l-14 -77l-252 -47v-1737l252 -47l16 -78h-430z" />
<glyph unicode="\" horiz-adv-x="940" d="M82 1372h182l594 -1374h-182z" />
<glyph unicode="]" horiz-adv-x="604" d="M82 -432l16 78l252 47v1737l-252 47l-14 77h428v-1986h-430z" />
<glyph unicode="^" horiz-adv-x="1034" d="M82 223l369 756h129l360 -756h-152l-272 613l-285 -613h-149z" />
<glyph unicode="_" horiz-adv-x="1114" d="M82 -203h950v-129h-950v129z" />
<glyph unicode="`" horiz-adv-x="1705" d="M340 1450l170 111l225 -340l-57 -80z" />
<glyph unicode="a" horiz-adv-x="1040" d="M88 231q0 105 57 177.5t181 91.5l342 49v223q0 72 -46.5 99.5t-129.5 27.5q-44 0 -88 -12.5t-66 -24.5l-21 -12l-57 -186h-96l-12 256q24 10 65 24.5t154 39t209 24.5q115 0 187.5 -68.5t72.5 -204.5v-608l118 -43l11 -72l-260 -28l-31 118q-7 -5 -19.5 -13t-51 -29 t-77 -37.5t-92.5 -29.5t-102 -13q-118 0 -183 73t-65 178zM272 250q0 -47 13.5 -78.5t35.5 -45t40 -18t38 -4.5q62 0 129 21t103.5 41t36.5 24v265l-240 -39q-156 -22 -156 -166z" />
<glyph unicode="b" horiz-adv-x="1091" d="M41 1343v72l301 45v-551q84 47 168.5 72t124.5 25q176 0 272.5 -121.5t96.5 -327.5q0 -120 -30 -223t-90 -185t-159.5 -129t-228.5 -47q-102 0 -183.5 12.5t-112.5 24.5l-30 13v1296zM342 113q84 -35 184 -35q144 0 222.5 108t78.5 285q0 62 -5 113t-22 107t-44.5 93.5 t-76.5 62.5t-114 25q-46 0 -102 -13t-88.5 -24t-32.5 -10v-712z" />
<glyph unicode="c" horiz-adv-x="972" d="M78 494q0 132 57 249t161.5 190t231.5 73q37 0 84.5 -4t89.5 -10t78.5 -11.5t60 -9.5t25.5 -4l-10 -269h-96l-58 187q-5 3 -15 8t-54 13.5t-101 8.5q-86 0 -149.5 -60t-92 -147t-28.5 -184q0 -59 8 -114t29 -110.5t53.5 -96.5t85.5 -66.5t121 -25.5q57 0 110 6.5 t87.5 15.5t61 17.5t38.5 15.5l12 6q1 -2 2 -6t4 -13.5t5.5 -18.5t5.5 -17.5t5 -13.5l1 -5q-6 -5 -18 -13.5t-50.5 -30t-80 -38t-103.5 -30t-123 -13.5q-112 0 -198.5 43.5t-137.5 118t-76.5 165.5t-25.5 194z" />
<glyph unicode="d" horiz-adv-x="1122" d="M82 422q0 120 30 223t90 185t159.5 129t228.5 47q80 0 153 -13v326l-135 24v72l303 45q2 -711 2 -1347l117 -41l10 -72l-270 -29l-27 101v-2q-84 -47 -168.5 -72t-123.5 -25q-176 0 -272.5 121.5t-96.5 327.5zM258 508q0 -62 5 -113t22 -107t44.5 -94t76.5 -63t114 -25 q46 0 102 13t88.5 24.5t32.5 10.5v712q-84 35 -184 35q-144 0 -222.5 -108t-78.5 -285z" />
<glyph unicode="e" horiz-adv-x="1005" d="M88 481q0 106 26.5 194.5t71 148.5t103 102t121.5 61t129 19q77 0 138.5 -18t99.5 -44t66 -66t41 -71.5t20 -73.5t8 -60t1 -42v-2q0 -26 -1.5 -50.5t-3.5 -35.5l-1 -11q-428 -8 -635 -10q0 -84 16 -155.5t49.5 -130t92.5 -92t139 -33.5q60 0 113.5 6.5t88 15.5t60 17.5 t37.5 15.5l11 6q1 -2 2 -6t4 -13.5t5.5 -18.5t5 -17.5t4.5 -13.5l1 -5q-6 -5 -18 -13.5t-50.5 -30t-79.5 -38t-103 -30t-124 -13.5q-94 0 -169.5 29.5t-125 78.5t-82.5 115.5t-47 137t-14 147.5zM276 604l453 45v25q0 27 -2.5 52t-14 61.5t-31 63t-57.5 45.5t-89 19 q-65 0 -114 -25t-78.5 -69.5t-45 -98t-21.5 -118.5z" />
<glyph unicode="f" horiz-adv-x="765" d="M80 885v98h139v61q0 196 94.5 305t257.5 109q28 0 57.5 -1.5t54 -3.5t47 -5t40 -6t30 -5t20.5 -3l7 -2l-8 -258h-96l-59 194l-6 1q-5 1 -13 2t-18.5 2t-23.5 2t-25 1q-80 0 -134.5 -68t-54.5 -200v-125h293v-98h-291v-785l160 -28l12 -72h-463l9 72l110 28v785h-139z" />
<glyph unicode="g" horiz-adv-x="970" d="M80 662q0 138 109.5 243t263.5 105q144 0 241 -90q11 11 31.5 29t71 51t94.5 47l4 -148q-5 -2 -24.5 0.5t-57 -9.5t-61.5 -36q55 -86 55 -188q0 -141 -108.5 -249t-262.5 -108q-64 0 -131 23q-35 -39 -35 -78q0 -56 88 -66q26 -3 68.5 -7t73 -7t72.5 -9t72.5 -13 t66.5 -18.5t61.5 -26.5t51 -36.5t41 -48.5t25 -62.5t9.5 -78.5q0 -77 -32 -137.5t-86.5 -98.5t-123 -57.5t-145.5 -19.5q-82 0 -181.5 15t-158.5 31l-59 15l12 269h102l58 -191q108 -45 221 -45q120 0 177.5 48.5t57.5 125.5q0 66 -44.5 104t-159.5 52q-27 3 -71.5 6t-76 6 t-70 8.5t-65 16t-50.5 26.5t-36 42.5t-12 62.5q0 43 16 97.5t30 88.5l15 33q-65 47 -101 121.5t-36 161.5zM262 682q1 -49 9.5 -93.5t28 -89t58 -70.5t91.5 -26q88 0 132 70.5t44 167.5q0 37 -5.5 73.5t-19 73.5t-33.5 64.5t-53 45t-74 17.5q-81 0 -129.5 -70.5 t-48.5 -162.5z" />
<glyph unicode="h" horiz-adv-x="1208" d="M72 1335v72l305 47v-549q1 1 37 16.5t43.5 18.5t41 16t47 17t44 13t51 12.5t48 6.5t52.5 3q123 -3 197 -78t74 -207v-623l110 -28l15 -72h-410l6 72l107 28v582q0 99 -51.5 147t-159.5 48q-60 0 -123 -18.5t-96 -36.5l-33 -19v-703l108 -28l13 -72h-410l8 72l109 28v1211 z" />
<glyph unicode="i" horiz-adv-x="569" d="M72 0l8 72l117 28v762l-121 25v71l293 48v-906l116 -28l13 -72h-426zM166 1307q0 49 34.5 83.5t84.5 34.5q49 0 83.5 -34.5t34.5 -83.5q0 -50 -34.5 -84.5t-83.5 -34.5t-84 35t-35 84z" />
<glyph unicode="j" horiz-adv-x="503" d="M61 881v71l295 47v-999q0 -58 -24 -127t-58 -126.5t-67.5 -106.5t-57.5 -77l-24 -28l-55 47q-1 0 4.5 7.5t15.5 25t22 41t25 57.5t23.5 72t17 87.5t6.5 100.5v883zM154 1309q0 49 34 83.5t84 34.5t84.5 -34.5t34.5 -83.5t-34.5 -84t-84.5 -35q-49 0 -83.5 34.5 t-34.5 84.5z" />
<glyph unicode="k" horiz-adv-x="1159" d="M76 1331v72l307 51l-2 -911l340 344h-2l-127 26l-8 72h436l-12 -72l-140 -26h-4l-260 -275q51 -68 151 -196t175 -222l74 -94l122 -28l13 -74l-267 2l-383 492q-19 -20 -55.5 -59.5t-52.5 -55.5v-279l119 -26l12 -72h-422l8 72l111 26v1209zM328 322l4 -3q-2 3 -4 3z" />
<glyph unicode="l" horiz-adv-x="583" d="M74 1331v72l307 51l-2 -1356l119 -26l12 -72h-428l8 72l117 26v1209z" />
<glyph unicode="m" horiz-adv-x="1802" d="M82 889v72l274 43l19 -105q232 107 356 107q60 0 120.5 -29.5t102.5 -81.5q240 111 392 111q40 0 84.5 -17t85.5 -48.5t69 -85t31 -118.5v-637l110 -28l15 -72h-410l6 72l107 28v582q0 58 -18.5 99t-50 61t-66.5 28q-28 7 -61 7h-15q-28 -1 -62 -8.5t-63 -18t-53.5 -20 t-39.5 -16.5t-16 -7l2 -4v-703l111 -28l14 -72h-430l6 72l127 28v582q0 195 -211 195q-44 0 -102 -18t-94 -36l-35 -18v-705l109 -28l12 -72h-410l8 72l109 28v764z" />
<glyph unicode="n" horiz-adv-x="1208" d="M82 889v72l274 40l19 -102q85 38 123 53.5t113 34.5t141 19q115 0 192.5 -76t77.5 -207v-623l111 -28l14 -72h-410l6 72l107 28v582q0 99 -51.5 147t-159.5 48q-60 0 -123 -19t-96 -38l-33 -19v-701l109 -28l12 -72h-410l8 72l109 28v764z" />
<glyph unicode="o" horiz-adv-x="1093" d="M86 487q0 102 31 194t88.5 164.5t149 115.5t204.5 43t200 -39.5t141 -109t81 -161t27 -200.5q0 -104 -31 -197.5t-88.5 -166.5t-149 -116t-204.5 -43t-200 39.5t-141 110t-81 163t-27 203.5zM276 518q0 -59 6 -114t24 -118.5t47 -109.5t80.5 -77t119.5 -31q71 0 124.5 36 t82.5 95.5t43 124.5t14 133q0 59 -5.5 114t-24 118.5t-47.5 109.5t-80 77t-119 31q-71 0 -124.5 -36t-83 -95.5t-43.5 -124.5t-14 -133z" />
<glyph unicode="p" horiz-adv-x="1118" d="M68 893v72l274 43l27 -101v-2l2 4q84 47 168.5 72t124.5 25q176 0 272 -121.5t96 -327.5q0 -120 -30 -223t-90 -185t-159.5 -129t-228.5 -47q-58 0 -155 9v-312l168 -28l12 -72h-471l8 72l111 28v1198zM369 113q84 -35 186 -35q144 0 222.5 108t78.5 285q0 62 -5 113 t-22 107t-44.5 93.5t-76.5 62.5t-114 25q-46 0 -102 -13t-88.5 -24t-32.5 -10l-2 -2v-710z" />
<glyph unicode="q" horiz-adv-x="1083" d="M88 422q0 120 30 223t90 185t159.5 129t228.5 47q102 0 183.5 -12.5t112.5 -25.5l30 -12v-2h2v-1286l110 -28l8 -72h-471l13 72l168 28v404l-2 -2q-84 -47 -168.5 -72t-124.5 -25q-176 0 -272.5 121.5t-96.5 327.5zM264 508q0 -62 5 -113t22 -107t44.5 -94t76.5 -63 t114 -25q46 0 102 13t89 24.5t33 10.5h2v710q-80 37 -187 37q-144 0 -222.5 -108t-78.5 -285z" />
<glyph unicode="r" horiz-adv-x="843" d="M82 887v71l264 50l16 -97q23 13 131 48.5t162 35.5q12 0 24 -1t22 -2t18.5 -2.5t15.5 -3.5t12.5 -3.5t9.5 -3t6.5 -2.5t3.5 -1l1 -1l-14 -285h-97l-57 164q-123 0 -223 -43v-711l168 -28l12 -72h-471l8 72l111 28v762h-2z" />
<glyph unicode="s" horiz-adv-x="882" d="M76 45l12 268h102l58 -190q6 -5 19 -13t57 -21t94 -13q41 0 78 9t70 27.5t53 52.5t20 79q0 42 -30 78t-78 62.5t-106.5 52.5t-116.5 54t-106 59t-78 75.5t-30 97.5q0 134 99 214.5t243 80.5q81 0 162.5 -11t122.5 -21l41 -11l-12 -266h-97l-57 182l-2 1q-2 1 -6.5 3 t-11 5t-15.5 6t-19 5.5t-22.5 5.5t-26 5t-29 3t-30.5 1q-72 0 -121 -38.5t-49 -107.5q0 -35 30 -66t78 -56.5t105.5 -51t115.5 -55.5t106 -65t78 -84.5t30 -108.5q0 -76 -33 -136.5t-88.5 -97.5t-125 -56t-146.5 -19q-82 0 -166.5 15t-127.5 31z" />
<glyph unicode="t" horiz-adv-x="776" d="M70 879v102h135l71 225l99 17l6 -242h291v-102h-291v-609q0 -40 2 -65.5t9.5 -50.5t23.5 -36.5t41 -11.5q40 0 95.5 12.5t91.5 25.5l36 12q1 -2 1.5 -6t3 -14t4.5 -19l4 -18t3 -14l2 -5q3 -3 -45.5 -25t-120.5 -44.5t-122 -22.5q-201 0 -201 221v670h-139z" />
<glyph unicode="u" horiz-adv-x="1196" d="M59 887v71l301 50v-727q0 -160 199 -160q66 0 121.5 19.5t134.5 64.5v659l-127 23v71l295 48l4 2h2l-2 -2v-885l119 -43l10 -72l-260 -33l-27 131l-14 -8q-8 -5 -22.5 -13.5t-57.5 -29.5t-85 -37t-99 -29.5t-105 -13.5q-122 0 -190 77t-68 188v626z" />
<glyph unicode="v" horiz-adv-x="1071" d="M-23 983h433l-13 -72l-108 -28q2 -20 272 -693l256 693l-108 28l-11 72h373l-8 -72l-123 -28l-328 -877l-155 -12l-357 889l-114 28z" />
<glyph unicode="w" horiz-adv-x="1503" d="M-31 981h432l-12 -72l-119 -28q1 -9 40 -143t90.5 -308.5t70.5 -241.5q31 98 83 271.5t88 297.5l36 124l6 26l10 41l152 8q14 -89 207 -766l213 691l-109 28l-10 72h369l-9 -72l-123 -28l-282 -877l-158 -12l-207 690l-215 -678l-166 -12l-264 889l-115 28z" />
<glyph unicode="x" horiz-adv-x="1099" d="M41 0l10 72l115 26q82 102 297 381l-297 404l-86 28l-8 72h219h2h2h199l-13 -72l-110 -28l196 -269l209 269l-106 28l-11 72h363l-8 -72l-99 -26l-280 -363l309 -422l107 -28l8 -72h-434l12 72l104 28l-211 287l-221 -287h2l115 -28l8 -72h-393z" />
<glyph unicode="y" horiz-adv-x="1071" d="M-31 983h432l-12 -72l-108 -28q1 -9 52 -136.5t133 -329t93 -227.5l252 693l-109 28l-10 72h373l-8 -72l-115 -28l-330 -883l-139 -442l-166 22v68l160 317l-389 918l-101 28z" />
<glyph unicode="z" horiz-adv-x="925" d="M78 0v100l553 783h-363l-47 -156h-96l-12 256h721v-100q-185 -278 -558 -783h410l49 160h101l12 -260h-770z" />
<glyph unicode="{" horiz-adv-x="798" d="M82 494v143q108 0 151 55.5t43 157.5v412q0 130 50 211t148 100t243 -45l-27 -74q-123 39 -189.5 -13.5t-66.5 -178.5v-412q0 -112 -35 -182t-125 -103q90 -33 125 -103t35 -181v-412q0 -126 66.5 -179t189.5 -14l27 -73q-145 -64 -243 -45t-148 100t-50 211v412 q0 102 -43 157.5t-151 55.5z" />
<glyph unicode="|" horiz-adv-x="311" d="M82 -432v1890h147v-1890h-147z" />
<glyph unicode="}" horiz-adv-x="798" d="M82 -397l27 73q123 -39 189.5 14t66.5 179v412q0 112 34.5 181.5t124.5 102.5q-90 33 -124.5 103t-34.5 182v412q0 126 -66.5 178.5t-189.5 13.5l-27 74q145 64 242.5 45t147.5 -100t50 -211v-412q0 -102 43.5 -157.5t151.5 -55.5v-143q-108 0 -151.5 -55.5t-43.5 -157.5 v-412q0 -130 -50 -211t-147.5 -100t-242.5 45z" />
<glyph unicode="~" d="M158 518q54 88 99 119t93 31q28 0 165 -30t159 -30q37 0 59 10.5t47 43.5l58 -50q-93 -151 -191 -151q-25 0 -163.5 31.5t-164.5 31.5q-38 0 -58 -10.5t-46 -44.5z" />
<glyph unicode="&#xa1;" horiz-adv-x="565" d="M164 881q0 49 34.5 83.5t84.5 34.5q49 0 83.5 -34.5t34.5 -83.5q0 -50 -34.5 -84.5t-83.5 -34.5t-84 35t-35 84zM178 -365l33 969h113l36 -969h-182z" />
<glyph unicode="&#xa8;" horiz-adv-x="1705" d="M279 1307q0 37 25.5 62.5t62.5 25.5t62.5 -25.5t25.5 -62.5t-25.5 -62.5t-62.5 -25.5t-62.5 25.5t-25.5 62.5zM684 1307q0 37 25.5 62.5t62.5 25.5t62.5 -25.5t25.5 -62.5t-25.5 -62.5t-62.5 -25.5t-62.5 25.5t-25.5 62.5z" />
<glyph unicode="&#xad;" horiz-adv-x="638" d="M82 397v150h475v-150h-475z" />
<glyph unicode="&#xb4;" horiz-adv-x="1705" d="M352 1221l226 340l170 -111l-338 -309z" />
<glyph unicode="&#xb7;" horiz-adv-x="401" d="M82 557q0 49 35 84t84 35t83.5 -34.5t34.5 -84.5t-34.5 -84.5t-83.5 -34.5t-84 35t-35 84z" />
<glyph unicode="&#xbf;" horiz-adv-x="866" d="M82 -27q0 104 51 202t141 162.5t193 68.5l16 202h92l21 -227l-49 -68h-86q-65 0 -114 -46t-72 -114t-23 -143q0 -116 53 -192t154 -76q43 0 82 12t57 24l18 13l58 189h98l12 -261q-4 -3 -13 -8.5t-39.5 -19.5t-65 -24.5t-91 -19.5t-116.5 -9q-166 0 -271.5 89.5 t-105.5 245.5zM410 881q0 49 34 83.5t84 34.5t84.5 -34.5t34.5 -83.5t-34.5 -84t-84.5 -35q-49 0 -83.5 34.5t-34.5 84.5z" />
<glyph unicode="&#xc0;" horiz-adv-x="1531" d="M72 0l8 72l113 28l442 1256l190 30l490 -1282l139 -24l6 -78h-510l17 78l141 24q-16 54 -158 424h-483l-145 -428l141 -28l10 -72h-401zM502 633h409l-215 567zM506 1780l170 110l225 -340l-57 -80z" />
<glyph unicode="&#xc1;" horiz-adv-x="1531" d="M72 0l8 72l113 28l442 1256l190 30l490 -1282l139 -24l6 -78h-510l17 78l141 24q-16 54 -158 424h-483l-145 -428l141 -28l10 -72h-401zM502 633h409l-215 567zM608 1550l226 340l170 -110l-338 -310z" />
<glyph unicode="&#xc2;" horiz-adv-x="1368" d="M-61 0l8 72l112 28l443 1256l190 30l490 -1282l139 -24l6 -78h-510l17 78l141 24q-16 54 -158 424h-483l-146 -428l142 -28l10 -72h-401zM340 1587l190 158q-1 1 33.5 4.5t69.5 6.5l35 3l198 -172l-53 -74l-211 113l-209 -113zM369 633h409l-215 567z" />
<glyph unicode="&#xc3;" horiz-adv-x="1368" d="M-61 0l8 72l112 28l443 1256l190 30l490 -1282l139 -24l6 -78h-510l17 78l141 24q-16 54 -158 424h-483l-146 -428l142 -28l10 -72h-401zM248 1612q54 87 99 118t93 31q29 0 165.5 -29.5t158.5 -29.5q37 0 59 10.5t47 42.5l58 -49q-93 -152 -191 -152q-25 0 -163 32 t-164 32q-38 0 -58.5 -10.5t-46.5 -44.5zM369 633h409l-215 567z" />
<glyph unicode="&#xc4;" horiz-adv-x="1531" d="M72 0l8 72l113 28l442 1256l190 30l490 -1282l139 -24l6 -78h-510l17 78l141 24q-16 54 -158 424h-483l-145 -428l141 -28l10 -72h-401zM467 1642q0 37 25.5 63t62.5 26t62.5 -26t25.5 -63t-25.5 -62.5t-62.5 -25.5t-62.5 25.5t-25.5 62.5zM502 633h409l-215 567z M872 1642q0 37 26 63t63 26t62.5 -26t25.5 -63t-25.5 -62.5t-62.5 -25.5t-63 25.5t-26 62.5z" />
<glyph unicode="&#xc5;" horiz-adv-x="1560" d="M82 0l8 72l113 28l422 1200q-107 61 -107 185q0 98 67.5 160.5t155.5 62.5q89 0 156.5 -57.5t67.5 -155.5q0 -61 -29 -109.5t-76 -78.5h6l459 -1203l139 -24l6 -78h-509l16 78l141 24q-20 66 -157 424h-484l-145 -428l141 -28l10 -72h-401zM512 633h410l-215 567z M635 1489q0 -58 27.5 -89.5t78.5 -31.5q46 0 76.5 33t30.5 90q0 58 -28 89.5t-79 31.5q-46 0 -76 -33t-30 -90z" />
<glyph unicode="&#xc6;" horiz-adv-x="1961" d="M82 0l8 72l113 28l618 1172l-51 20l-8 80l1118 -2l-14 -309l-88 16l-43 189h-553v-508h411l41 139h78v-381h-78l-41 137h-411l2 -544h551l43 188l88 16l14 -309h-1044l8 78l149 27v276q0 22 -1 70t-1 73h-422l-227 -428l131 -28l10 -72h-401zM625 633h366v633h-24z" />
<glyph unicode="&#xc7;" horiz-adv-x="1249" d="M82 686q0 207 81.5 371t228.5 256t333 92q39 0 83 -3.5t84 -9.5t79.5 -13t70.5 -13.5t55.5 -12.5t36.5 -9l13 -3l-2 -2h2l-14 -313h-89l-51 221q-112 51 -243 51q-222 0 -342.5 -157t-120.5 -455q0 -165 54 -303t153.5 -220.5t224.5 -82.5q68 0 136 13.5t116.5 32 t87 37.5t57.5 33l19 13l32 -94q-81 -66 -192 -104.5t-223 -43.5l-4 -53q90 0 151.5 -40.5t61.5 -117.5q0 -38 -21 -67.5t-54 -46.5t-73.5 -29t-80.5 -16.5t-73 -6.5t-54 -1.5t-21 1.5q4 56 4 66q180 0 238 54q22 20 22 46q0 33 -17.5 53.5t-44.5 27t-60 9t-64 -1.5l10 125 q-276 17 -433 208.5t-157 508.5z" />
<glyph unicode="&#xc8;" horiz-adv-x="1228" d="M92 4l8 78l150 27v276q-2 342 -2 881l-148 26l-8 80l1045 -2l-15 -309l-88 16l-43 189h-553v-508h412l41 139h78v-381h-78l-41 137h-412l2 -544h551l43 188l88 16l15 -309h-1045zM424 1780l170 110l225 -340l-57 -80z" />
<glyph unicode="&#xc9;" horiz-adv-x="1228" d="M92 4l8 78l150 27v276q-2 342 -2 881l-148 26l-8 80l1045 -2l-15 -309l-88 16l-43 189h-553v-508h412l41 139h78v-381h-78l-41 137h-412l2 -544h551l43 188l88 16l15 -309h-1045zM471 1550l225 340l170 -110l-338 -310z" />
<glyph unicode="&#xca;" horiz-adv-x="1228" d="M92 4l8 78l150 27v276q-2 342 -2 881l-148 26l-8 80l1045 -2l-15 -309l-88 16l-43 189h-553v-508h412l41 139h78v-381h-78l-41 137h-412l2 -544h551l43 188l88 16l15 -309h-1045zM373 1587l190 158q-1 1 33.5 4.5t69.5 6.5l34 3l199 -172l-53 -74l-211 113l-209 -113z " />
<glyph unicode="&#xcb;" horiz-adv-x="1228" d="M92 4l8 78l150 27v276q-2 342 -2 881l-148 26l-8 80l1045 -2l-15 -309l-88 16l-43 189h-553v-508h412l41 139h78v-381h-78l-41 137h-412l2 -544h551l43 188l88 16l15 -309h-1045zM344 1642q0 37 25.5 63t62.5 26t62.5 -26t25.5 -63t-25.5 -62.5t-62.5 -25.5t-62.5 25.5 t-25.5 62.5zM750 1642q0 37 25.5 63t62.5 26t62.5 -26t25.5 -63t-25.5 -62.5t-62.5 -25.5t-62.5 25.5t-25.5 62.5z" />
<glyph unicode="&#xcc;" horiz-adv-x="694" d="M92 4l8 78l150 27v1157l-150 26l-8 78h510l-14 -78l-148 -26v-1157l148 -27l14 -78h-510zM121 1780l170 110l225 -340l-57 -80z" />
<glyph unicode="&#xcd;" horiz-adv-x="694" d="M92 4l8 78l150 27v1157l-150 26l-8 78h510l-14 -78l-148 -26v-1157l148 -27l14 -78h-510zM203 1550l225 340l170 -110l-338 -310z" />
<glyph unicode="&#xce;" horiz-adv-x="694" d="M80 1587l190 158q-1 1 33.5 4.5t69.5 6.5l35 3l198 -172l-53 -74l-211 113l-209 -113zM92 4l8 78l150 27v1157l-150 26l-8 78h510l-14 -78l-148 -26v-1157l148 -27l14 -78h-510z" />
<glyph unicode="&#xcf;" horiz-adv-x="694" d="M76 1642q0 37 25.5 63t62.5 26t62.5 -26t25.5 -63t-25.5 -62.5t-62.5 -25.5t-62.5 25.5t-25.5 62.5zM92 4l8 78l150 27v1157l-150 26l-8 78h510l-14 -78l-148 -26v-1157l148 -27l14 -78h-510zM481 1642q0 37 25.5 63t62.5 26t62.5 -26t25.5 -63t-25.5 -62.5t-62.5 -25.5 t-62.5 25.5t-25.5 62.5z" />
<glyph unicode="&#xd1;" horiz-adv-x="1511" d="M92 4l8 78l140 27q0 29 -1 576t-1 581l-138 26l-8 78h387q57 -144 670 -1151q0 114 -0.5 362.5t-1 457t-0.5 223.5l-133 26l-8 78h413l-14 -78l-135 -26l-2 -1235h-2l4 -7q1 0 -51 -9t-102.5 -17t-47.5 -6q-566 946 -713 1198l2 -1077l136 -27l14 -78h-416zM391 1612 q54 87 99.5 118t93.5 31q28 0 164 -29.5t159 -29.5q37 0 59.5 10.5t47.5 42.5l57 -49q-93 -152 -190 -152q-25 0 -164 32t-164 32q-38 0 -58 -10.5t-46 -44.5z" />
<glyph unicode="&#xd2;" horiz-adv-x="1476" d="M104 686q0 199 77 361t222.5 258t333.5 96q158 0 281.5 -55.5t200.5 -153.5t117 -226.5t40 -279.5q0 -112 -25.5 -216t-78.5 -194.5t-127.5 -157t-179.5 -105t-228 -38.5q-195 0 -340.5 96.5t-219 256t-73.5 358.5zM311 731q0 -65 9 -132.5t28.5 -142.5t55 -140 t82.5 -118t116.5 -83.5t153.5 -30.5q91 0 164 35.5t118.5 92.5t76 133t42.5 151t12 153q0 56 -5 112.5t-19 121t-35 121.5t-56 110.5t-80 91.5t-109 61t-140 23q-103 0 -185 -51.5t-130.5 -134.5t-73.5 -179t-25 -194zM528 1780l170 110l226 -340l-58 -80z" />
<glyph unicode="&#xd3;" horiz-adv-x="1476" d="M104 686q0 199 77 361t222.5 258t333.5 96q158 0 281.5 -55.5t200.5 -153.5t117 -226.5t40 -279.5q0 -112 -25.5 -216t-78.5 -194.5t-127.5 -157t-179.5 -105t-228 -38.5q-195 0 -340.5 96.5t-219 256t-73.5 358.5zM311 731q0 -65 9 -132.5t28.5 -142.5t55 -140 t82.5 -118t116.5 -83.5t153.5 -30.5q91 0 164 35.5t118.5 92.5t76 133t42.5 151t12 153q0 56 -5 112.5t-19 121t-35 121.5t-56 110.5t-80 91.5t-109 61t-140 23q-103 0 -185 -51.5t-130.5 -134.5t-73.5 -179t-25 -194zM608 1550l226 340l170 -110l-338 -310z" />
<glyph unicode="&#xd4;" horiz-adv-x="1476" d="M104 686q0 199 77 361t222.5 258t333.5 96q158 0 281.5 -55.5t200.5 -153.5t117 -226.5t40 -279.5q0 -112 -25.5 -216t-78.5 -194.5t-127.5 -157t-179.5 -105t-228 -38.5q-195 0 -340.5 96.5t-219 256t-73.5 358.5zM311 731q0 -65 9 -132.5t28.5 -142.5t55 -140 t82.5 -118t116.5 -83.5t153.5 -30.5q91 0 164 35.5t118.5 92.5t76 133t42.5 151t12 153q0 56 -5 112.5t-19 121t-35 121.5t-56 110.5t-80 91.5t-109 61t-140 23q-103 0 -185 -51.5t-130.5 -134.5t-73.5 -179t-25 -194zM479 1587l191 158q-1 1 33.5 4.5t68.5 6.5l35 3 l199 -172l-54 -74l-211 113l-209 -113z" />
<glyph unicode="&#xd5;" horiz-adv-x="1476" d="M104 686q0 199 77 361t222.5 258t333.5 96q158 0 281.5 -55.5t200.5 -153.5t117 -226.5t40 -279.5q0 -112 -25.5 -216t-78.5 -194.5t-127.5 -157t-179.5 -105t-228 -38.5q-195 0 -340.5 96.5t-219 256t-73.5 358.5zM311 731q0 -65 9 -132.5t28.5 -142.5t55 -140 t82.5 -118t116.5 -83.5t153.5 -30.5q91 0 164 35.5t118.5 92.5t76 133t42.5 151t12 153q0 56 -5 112.5t-19 121t-35 121.5t-56 110.5t-80 91.5t-109 61t-140 23q-103 0 -185 -51.5t-130.5 -134.5t-73.5 -179t-25 -194zM391 1632q54 87 99.5 118.5t93.5 31.5q28 0 164 -30 t159 -30q37 0 59.5 10.5t47.5 43.5l57 -50q-54 -87 -99.5 -119t-90.5 -32q-25 0 -164 31.5t-164 31.5q-38 0 -58 -10.5t-46 -44.5z" />
<glyph unicode="&#xd6;" horiz-adv-x="1476" d="M104 686q0 199 77 361t222.5 258t333.5 96q158 0 281.5 -55.5t200.5 -153.5t117 -226.5t40 -279.5q0 -112 -25.5 -216t-78.5 -194.5t-127.5 -157t-179.5 -105t-228 -38.5q-195 0 -340.5 96.5t-219 256t-73.5 358.5zM311 731q0 -65 9 -132.5t28.5 -142.5t55 -140 t82.5 -118t116.5 -83.5t153.5 -30.5q91 0 164 35.5t118.5 92.5t76 133t42.5 151t12 153q0 56 -5 112.5t-19 121t-35 121.5t-56 110.5t-80 91.5t-109 61t-140 23q-103 0 -185 -51.5t-130.5 -134.5t-73.5 -179t-25 -194zM440 1642q0 37 25.5 63t62.5 26t62.5 -26t25.5 -63 t-25.5 -62.5t-62.5 -25.5t-62.5 25.5t-25.5 62.5zM846 1642q0 37 25.5 63t62.5 26t62.5 -26t25.5 -63t-25.5 -62.5t-62.5 -25.5t-62.5 25.5t-25.5 62.5z" />
<glyph unicode="&#xd7;" horiz-adv-x="1107" d="M82 96l377 377l-350 350l94 92l348 -350l354 357l94 -93l-356 -356l383 -381l-92 -94l-383 383l-377 -377z" />
<glyph unicode="&#xd8;" horiz-adv-x="1480" d="M104 686q0 199 77 361t222.5 258t333.5 96q158 0 281.5 -55.5t200.5 -153.5t117 -226.5t40 -279.5q0 -112 -25.5 -216t-78.5 -194.5t-127.5 -157t-179.5 -105t-228 -38.5q-195 0 -340.5 96.5t-219 256t-73.5 358.5zM154 47l1083 1354l78 -86l-1086 -1356zM311 731 q0 -65 9 -132.5t28.5 -142.5t55 -140t82.5 -118t116.5 -83.5t153.5 -30.5q91 0 164 35.5t118.5 92.5t76 133t42.5 151t12 153q0 56 -5 112.5t-19 121t-35 121.5t-56 110.5t-80 91.5t-109 61t-140 23q-103 0 -185 -51.5t-130.5 -134.5t-73.5 -179t-25 -194z" />
<glyph unicode="&#xd9;" horiz-adv-x="1628" d="M82 1370h510l-17 -78l-147 -26l-2 -691q0 -226 95 -355.5t282 -129.5q202 0 300.5 121.5t98.5 370.5q0 120 -1 336t-1 352l-153 30l-11 72h402l-8 -72l-107 -26q2 -152 2 -684q0 -119 -15.5 -210.5t-54.5 -170t-101.5 -129t-159.5 -79t-226 -28.5q-119 0 -211.5 32 t-152.5 86.5t-98 134t-54 167.5t-16 193l2 680l-150 26zM567 1780l170 110l226 -340l-58 -80z" />
<glyph unicode="&#xda;" horiz-adv-x="1628" d="M82 1370h510l-17 -78l-147 -26l-2 -691q0 -226 95 -355.5t282 -129.5q202 0 300.5 121.5t98.5 370.5q0 120 -1 336t-1 352l-153 30l-11 72h402l-8 -72l-107 -26q2 -152 2 -684q0 -119 -15.5 -210.5t-54.5 -170t-101.5 -129t-159.5 -79t-226 -28.5q-119 0 -211.5 32 t-152.5 86.5t-98 134t-54 167.5t-16 193l2 680l-150 26zM690 1550l225 340l170 -110l-337 -310z" />
<glyph unicode="&#xdb;" horiz-adv-x="1531" d="M82 1370h510l-17 -78l-147 -26l-2 -691q0 -226 95 -355.5t282 -129.5q202 0 300.5 121.5t98.5 370.5q0 120 -1 336t-1 352l-153 30l-11 72h402l-8 -72l-107 -26q2 -152 2 -684q0 -119 -15.5 -210.5t-54.5 -170t-101.5 -129t-159.5 -79t-226 -28.5q-119 0 -211.5 32 t-152.5 86.5t-98 134t-54 167.5t-16 193l2 680l-150 26zM537 1587l190 158q-1 1 33.5 4.5t69.5 6.5l34 3l199 -172l-53 -74l-211 113l-209 -113z" />
<glyph unicode="&#xdc;" horiz-adv-x="1628" d="M82 1370h510l-17 -78l-147 -26l-2 -691q0 -226 95 -355.5t282 -129.5q202 0 300.5 121.5t98.5 370.5q0 120 -1 336t-1 352l-153 30l-11 72h402l-8 -72l-107 -26q2 -152 2 -684q0 -119 -15.5 -210.5t-54.5 -170t-101.5 -129t-159.5 -79t-226 -28.5q-119 0 -211.5 32 t-152.5 86.5t-98 134t-54 167.5t-16 193l2 680l-150 26zM502 1642q0 37 25.5 63t62.5 26t62.5 -26t25.5 -63t-25.5 -62.5t-62.5 -25.5t-62.5 25.5t-25.5 62.5zM907 1642q0 37 25.5 63t62.5 26t62.5 -26t25.5 -63t-25.5 -62.5t-62.5 -25.5t-62.5 25.5t-25.5 62.5z" />
<glyph unicode="&#xdd;" horiz-adv-x="1234" d="M-61 1372h456l-12 -72l-121 -28q0 -3 87 -149.5t174 -291.5l87 -145l324 586l-143 28l-11 72h414l-8 -72l-119 -28l-408 -719v-449l148 -26l14 -78h-510l8 78l150 26v451l-420 717l-102 28zM420 1610l225 340l170 -111l-338 -309z" />
<glyph unicode="&#xdf;" horiz-adv-x="1705" d="M266 1300q54 87 99.5 118.5t93.5 31.5q29 0 165 -29.5t158 -29.5q37 0 59.5 10.5t47.5 42.5l57 -49q-93 -152 -190 -152q-26 0 -164 32t-164 32q-38 0 -57.5 -11t-46.5 -45z" />
<glyph unicode="&#xe0;" horiz-adv-x="1052" d="M92 231q0 105 57 177.5t181 91.5l342 49v223q0 72 -46.5 99.5t-129.5 27.5q-44 0 -87.5 -12.5t-64.5 -24.5l-22 -12l-58 -186h-96l-12 256q24 10 65 24.5t154 39t209 24.5q115 0 187.5 -68.5t72.5 -204.5v-608l119 -43l10 -72l-260 -28l-31 118q-7 -5 -19.5 -13t-51 -29 t-77 -37.5t-92.5 -29.5t-102 -13q-118 0 -183 73t-65 178zM276 250q0 -47 13.5 -78.5t35.5 -45t40 -18t38 -4.5q62 0 129 21t103.5 41t36.5 24v265l-240 -39q-156 -22 -156 -166zM283 1450l170 111l225 -340l-57 -80z" />
<glyph unicode="&#xe1;" horiz-adv-x="1052" d="M92 231q0 105 57 177.5t181 91.5l342 49v223q0 72 -46.5 99.5t-129.5 27.5q-44 0 -87.5 -12.5t-64.5 -24.5l-22 -12l-58 -186h-96l-12 256q24 10 65 24.5t154 39t209 24.5q115 0 187.5 -68.5t72.5 -204.5v-608l119 -43l10 -72l-260 -28l-31 118q-7 -5 -19.5 -13t-51 -29 t-77 -37.5t-92.5 -29.5t-102 -13q-118 0 -183 73t-65 178zM276 250q0 -47 13.5 -78.5t35.5 -45t40 -18t38 -4.5q62 0 129 21t103.5 41t36.5 24v265l-240 -39q-156 -22 -156 -166zM340 1221l225 340l170 -111l-338 -309z" />
<glyph unicode="&#xe2;" horiz-adv-x="1052" d="M92 231q0 105 57 177.5t181 91.5l342 49v223q0 72 -46.5 99.5t-129.5 27.5q-44 0 -87.5 -12.5t-64.5 -24.5l-22 -12l-58 -186h-96l-12 256q24 10 65 24.5t154 39t209 24.5q115 0 187.5 -68.5t72.5 -204.5v-608l119 -43l10 -72l-260 -28l-31 118q-7 -5 -19.5 -13t-51 -29 t-77 -37.5t-92.5 -29.5t-102 -13q-118 0 -183 73t-65 178zM229 1282l191 158q-1 1 33.5 4.5t68.5 6.5l35 3l199 -172l-54 -74l-210 113l-209 -113zM276 250q0 -47 13.5 -78.5t35.5 -45t40 -18t38 -4.5q62 0 129 21t103.5 41t36.5 24v265l-240 -39q-156 -22 -156 -166z" />
<glyph unicode="&#xe3;" horiz-adv-x="1052" d="M92 231q0 105 57 177.5t181 91.5l342 49v223q0 72 -46.5 99.5t-129.5 27.5q-44 0 -87.5 -12.5t-64.5 -24.5l-22 -12l-58 -186h-96l-12 256q24 10 65 24.5t154 39t209 24.5q115 0 187.5 -68.5t72.5 -204.5v-608l119 -43l10 -72l-260 -28l-31 118q-7 -5 -19.5 -13t-51 -29 t-77 -37.5t-92.5 -29.5t-102 -13q-118 0 -183 73t-65 178zM154 1303q54 87 99 118t93 31q28 0 165 -29.5t159 -29.5q37 0 59 10.5t47 42.5l58 -49q-93 -152 -191 -152q-25 0 -163.5 32t-164.5 32q-38 0 -57.5 -11t-46.5 -45zM276 250q0 -47 13.5 -78.5t35.5 -45t40 -18 t38 -4.5q62 0 129 21t103.5 41t36.5 24v265l-240 -39q-156 -22 -156 -166z" />
<glyph unicode="&#xe4;" horiz-adv-x="1052" d="M92 231q0 105 57 177.5t181 91.5l342 49v223q0 72 -46.5 99.5t-129.5 27.5q-44 0 -87.5 -12.5t-64.5 -24.5l-22 -12l-58 -186h-96l-12 256q24 10 65 24.5t154 39t209 24.5q115 0 187.5 -68.5t72.5 -204.5v-608l119 -43l10 -72l-260 -28l-31 118q-7 -5 -19.5 -13t-51 -29 t-77 -37.5t-92.5 -29.5t-102 -13q-118 0 -183 73t-65 178zM199 1346q0 37 25.5 62.5t62.5 25.5t62.5 -25.5t25.5 -62.5t-25.5 -63t-62.5 -26t-62.5 26t-25.5 63zM276 250q0 -47 13.5 -78.5t35.5 -45t40 -18t38 -4.5q62 0 129 21t103.5 41t36.5 24v265l-240 -39 q-156 -22 -156 -166zM604 1346q0 37 25.5 62.5t62.5 25.5t62.5 -25.5t25.5 -62.5t-25.5 -63t-62.5 -26t-62.5 26t-25.5 63z" />
<glyph unicode="&#xe5;" horiz-adv-x="1044" d="M88 231q0 105 57 177.5t181 91.5l342 49v223q0 72 -46.5 99.5t-129.5 27.5q-44 0 -88 -12.5t-66 -24.5l-21 -12l-57 -186h-96l-12 256q24 10 65 24.5t154 39t209 24.5q115 0 187.5 -68.5t72.5 -204.5v-608l118 -43l11 -72l-260 -28l-31 118q-7 -5 -19.5 -13t-51 -29 t-77 -37.5t-92.5 -29.5t-102 -13q-118 0 -183 73t-65 178zM272 250q0 -47 13.5 -78.5t35.5 -45t40 -18t38 -4.5q62 0 129 21t103.5 41t36.5 24v265l-240 -39q-156 -22 -156 -166zM285 1327q0 88 49.5 146.5t144.5 58.5t145 -58.5t50 -146.5q0 -87 -51.5 -146t-143.5 -59 t-143 59t-51 146zM369 1327q0 -52 26.5 -86.5t83.5 -34.5t84 35t27 86t-27 86t-84 35t-83.5 -34.5t-26.5 -86.5z" />
<glyph unicode="&#xe6;" horiz-adv-x="1572" d="M82 231q0 105 56.5 177.5t180.5 91.5l343 49v223q0 72 -47 99.5t-130 27.5q-44 0 -87.5 -12.5t-65.5 -24.5l-21 -12l-57 -186h-96l-13 256q24 10 65 24.5t154 39t209 24.5q71 0 132 -33.5t94 -93.5q59 61 136 93t159 32q77 0 138.5 -18t99.5 -44t66 -66t41 -71.5 t20 -73.5t8 -60t1 -42v-2q0 -26 -1.5 -50.5t-2.5 -35.5l-2 -11q-407 -8 -614 -10q0 -84 16 -155.5t49.5 -130t92.5 -92t139 -33.5q60 0 113.5 6.5t87.5 15.5t60 17.5t37 15.5l11 6q1 -2 2 -6t4 -13.5t5.5 -18.5t5.5 -17.5t5 -13.5l1 -5q-6 -5 -18 -13.5t-50.5 -30t-79.5 -38 t-103 -30t-124 -13.5q-225 0 -340 162v-2q-70 -59 -186.5 -106t-245.5 -47q-118 0 -183 73t-65 178zM266 250q0 -47 13.5 -78.5t35.5 -45t40 -18t38 -4.5q62 0 129 21t103.5 41t36.5 24v265l-240 -39q-156 -22 -156 -166zM852 604l432 45v25q0 26 -2.5 50.5t-14 61t-30 62.5 t-55.5 46t-86 21q-218 -10 -244 -311z" />
<glyph unicode="&#xe7;" horiz-adv-x="976" d="M82 494q0 132 57 249t161.5 190t231.5 73q37 0 84.5 -4t89.5 -10t78.5 -11.5t60 -9.5t25.5 -4l-10 -269h-96l-57 187q-5 3 -15 8t-54 13.5t-101 8.5q-66 0 -119 -34.5t-85.5 -91.5t-49.5 -125t-17 -140q0 -59 8 -114t29 -110.5t53.5 -96.5t85.5 -66.5t121 -25.5 q57 0 110 6.5t87.5 15.5t61 17.5t38.5 15.5l12 6q1 -2 2 -6t4 -13.5t5.5 -18.5t5.5 -17.5t5 -13.5l1 -5q-6 -5 -18 -13.5t-50.5 -30t-80 -38t-103.5 -30t-123 -13.5q-112 0 -198.5 43.5t-137.5 118t-76.5 165.5t-25.5 194zM369 -410q4 56 4 66q180 0 238 54q22 20 22 46 q0 33 -17.5 53.5t-45 27t-60.5 9t-64 -1.5l15 154h78l-7 -84q90 0 151.5 -40.5t61.5 -117.5q0 -38 -20.5 -67.5t-54 -46.5t-73.5 -29t-80 -16.5t-73.5 -6.5t-54 -1.5t-20.5 1.5z" />
<glyph unicode="&#xe8;" d="M88 481q0 106 26.5 194.5t71 148.5t103 102t121.5 61t129 19q77 0 138.5 -18t99.5 -44t66 -66t41 -71.5t20 -73.5t8 -60t1 -42v-2q0 -26 -1.5 -50.5t-3.5 -35.5l-1 -11q-428 -8 -635 -10q0 -84 16 -155.5t49.5 -130t92.5 -92t139 -33.5q60 0 113.5 6.5t88 15.5t60 17.5 t37.5 15.5l11 6q1 -2 2 -6t4 -13.5t5.5 -18.5t5 -17.5t4.5 -13.5l1 -5q-6 -5 -18 -13.5t-50.5 -30t-79.5 -38t-103 -30t-124 -13.5q-94 0 -169.5 29.5t-125 78.5t-82.5 115.5t-47 137t-14 147.5zM276 604l453 45v25q0 27 -2.5 52t-14 61.5t-31 63t-57.5 45.5t-89 19 q-65 0 -114 -25t-78.5 -69.5t-45 -98t-21.5 -118.5zM340 1450l170 111l225 -340l-57 -80z" />
<glyph unicode="&#xe9;" d="M88 481q0 106 26.5 194.5t71 148.5t103 102t121.5 61t129 19q77 0 138.5 -18t99.5 -44t66 -66t41 -71.5t20 -73.5t8 -60t1 -42v-2q0 -26 -1.5 -50.5t-3.5 -35.5l-1 -11q-428 -8 -635 -10q0 -84 16 -155.5t49.5 -130t92.5 -92t139 -33.5q60 0 113.5 6.5t88 15.5t60 17.5 t37.5 15.5l11 6q1 -2 2 -6t4 -13.5t5.5 -18.5t5 -17.5t4.5 -13.5l1 -5q-6 -5 -18 -13.5t-50.5 -30t-79.5 -38t-103 -30t-124 -13.5q-94 0 -169.5 29.5t-125 78.5t-82.5 115.5t-47 137t-14 147.5zM276 604l453 45v25q0 27 -2.5 52t-14 61.5t-31 63t-57.5 45.5t-89 19 q-65 0 -114 -25t-78.5 -69.5t-45 -98t-21.5 -118.5zM352 1221l226 340l170 -111l-338 -309z" />
<glyph unicode="&#xea;" d="M88 481q0 106 26.5 194.5t71 148.5t103 102t121.5 61t129 19q77 0 138.5 -18t99.5 -44t66 -66t41 -71.5t20 -73.5t8 -60t1 -42v-2q0 -26 -1.5 -50.5t-3.5 -35.5l-1 -11q-428 -8 -635 -10q0 -84 16 -155.5t49.5 -130t92.5 -92t139 -33.5q60 0 113.5 6.5t88 15.5t60 17.5 t37.5 15.5l11 6q1 -2 2 -6t4 -13.5t5.5 -18.5t5 -17.5t4.5 -13.5l1 -5q-6 -5 -18 -13.5t-50.5 -30t-79.5 -38t-103 -30t-124 -13.5q-94 0 -169.5 29.5t-125 78.5t-82.5 115.5t-47 137t-14 147.5zM252 1282l190 158q-1 1 33.5 4.5t69.5 6.5l35 3l198 -172l-53 -74l-211 113 l-209 -113zM276 604l453 45v25q0 27 -2.5 52t-14 61.5t-31 63t-57.5 45.5t-89 19q-65 0 -114 -25t-78.5 -69.5t-45 -98t-21.5 -118.5z" />
<glyph unicode="&#xeb;" d="M88 481q0 106 26.5 194.5t71 148.5t103 102t121.5 61t129 19q77 0 138.5 -18t99.5 -44t66 -66t41 -71.5t20 -73.5t8 -60t1 -42v-2q0 -26 -1.5 -50.5t-3.5 -35.5l-1 -11q-428 -8 -635 -10q0 -84 16 -155.5t49.5 -130t92.5 -92t139 -33.5q60 0 113.5 6.5t88 15.5t60 17.5 t37.5 15.5l11 6q1 -2 2 -6t4 -13.5t5.5 -18.5t5 -17.5t4.5 -13.5l1 -5q-6 -5 -18 -13.5t-50.5 -30t-79.5 -38t-103 -30t-124 -13.5q-94 0 -169.5 29.5t-125 78.5t-82.5 115.5t-47 137t-14 147.5zM197 1348q0 37 25.5 62.5t62.5 25.5t62.5 -25.5t25.5 -62.5t-25.5 -62.5 t-62.5 -25.5t-62.5 25.5t-25.5 62.5zM276 604l453 45v25q0 27 -2.5 52t-14 61.5t-31 63t-57.5 45.5t-89 19q-65 0 -114 -25t-78.5 -69.5t-45 -98t-21.5 -118.5zM602 1348q0 37 25.5 62.5t62.5 25.5t62.5 -25.5t25.5 -62.5t-25.5 -62.5t-62.5 -25.5t-62.5 25.5t-25.5 62.5z " />
<glyph unicode="&#xec;" horiz-adv-x="591" d="M35 1450l170 111l225 -340l-57 -80zM94 0l8 72l117 28v762l-121 25v71l293 48v-906l117 -28l12 -72h-426z" />
<glyph unicode="&#xed;" horiz-adv-x="569" d="M72 0l8 72l117 28v762l-121 25v71l293 48v-906l116 -28l13 -72h-426zM96 1221l226 340l170 -111l-338 -309z" />
<glyph unicode="&#xee;" horiz-adv-x="608" d="M35 1282l190 158q-1 1 33.5 4.5t69.5 6.5l34 3l199 -172l-53 -74l-211 113l-209 -113zM104 0l9 72l116 28v762l-120 25v71l292 48v-906l117 -28l12 -72h-426z" />
<glyph unicode="&#xef;" horiz-adv-x="724" d="M72 1346q0 37 25.5 62.5t62.5 25.5t62.5 -25.5t25.5 -62.5t-25.5 -63t-62.5 -26t-62.5 26t-25.5 63zM178 0l8 72l117 28v762l-121 25v71l293 48v-906l117 -28l12 -72h-426zM477 1346q0 37 25.5 62.5t62.5 25.5t62.5 -25.5t25.5 -62.5t-25.5 -63t-62.5 -26t-62.5 26 t-25.5 63z" />
<glyph unicode="&#xf1;" horiz-adv-x="1208" d="M82 889v72l274 40l19 -102q85 38 123 53.5t113 34.5t141 19q115 0 192.5 -76t77.5 -207v-623l111 -28l14 -72h-410l6 72l107 28v582q0 99 -51.5 147t-159.5 48q-60 0 -123 -19t-96 -38l-33 -19v-701l109 -28l12 -72h-410l8 72l109 28v764zM264 1300q54 87 99.5 118.5 t93.5 31.5q29 0 165 -29.5t158 -29.5q37 0 59.5 10.5t47.5 42.5l57 -49q-93 -152 -190 -152q-26 0 -164 32t-164 32q-38 0 -57.5 -11t-46.5 -45z" />
<glyph unicode="&#xf2;" horiz-adv-x="1110" d="M94 487q0 102 31 194t88.5 164.5t149 115.5t204.5 43t200 -39.5t141 -109t81 -161t27 -200.5q0 -104 -31 -197.5t-88.5 -166.5t-149 -116t-204.5 -43t-200 39.5t-141 110t-81 163t-27 203.5zM285 518q0 -59 5.5 -114t24 -118.5t47.5 -109.5t80 -77t119 -31q71 0 124.5 36 t82.5 95.5t43 124.5t14 133q0 59 -5.5 114t-24 118.5t-47.5 109.5t-80 77t-119 31q-71 0 -124.5 -36t-82.5 -95.5t-43 -124.5t-14 -133zM360 1450l170 111l226 -340l-58 -80z" />
<glyph unicode="&#xf3;" horiz-adv-x="1110" d="M94 487q0 102 31 194t88.5 164.5t149 115.5t204.5 43t200 -39.5t141 -109t81 -161t27 -200.5q0 -104 -31 -197.5t-88.5 -166.5t-149 -116t-204.5 -43t-200 39.5t-141 110t-81 163t-27 203.5zM285 518q0 -59 5.5 -114t24 -118.5t47.5 -109.5t80 -77t119 -31q71 0 124.5 36 t82.5 95.5t43 124.5t14 133q0 59 -5.5 114t-24 118.5t-47.5 109.5t-80 77t-119 31q-71 0 -124.5 -36t-82.5 -95.5t-43 -124.5t-14 -133zM397 1221l226 340l170 -111l-338 -309z" />
<glyph unicode="&#xf4;" horiz-adv-x="1110" d="M94 487q0 102 31 194t88.5 164.5t149 115.5t204.5 43t200 -39.5t141 -109t81 -161t27 -200.5q0 -104 -31 -197.5t-88.5 -166.5t-149 -116t-204.5 -43t-200 39.5t-141 110t-81 163t-27 203.5zM285 518q0 -59 5.5 -114t24 -118.5t47.5 -109.5t80 -77t119 -31q71 0 124.5 36 t82.5 95.5t43 124.5t14 133q0 59 -5.5 114t-24 118.5t-47.5 109.5t-80 77t-119 31q-71 0 -124.5 -36t-82.5 -95.5t-43 -124.5t-14 -133zM293 1282l190 158q-1 1 33.5 4.5t69.5 6.5l35 3l198 -172l-53 -74l-211 113l-209 -113z" />
<glyph unicode="&#xf5;" horiz-adv-x="1110" d="M94 487q0 102 31 194t88.5 164.5t149 115.5t204.5 43t200 -39.5t141 -109t81 -161t27 -200.5q0 -104 -31 -197.5t-88.5 -166.5t-149 -116t-204.5 -43t-200 39.5t-141 110t-81 163t-27 203.5zM213 1307q54 87 99.5 118t93.5 31q28 0 164 -29.5t159 -29.5q37 0 59.5 10.5 t47.5 42.5l57 -49q-93 -152 -191 -152q-26 0 -164 32t-163 32q-38 0 -58.5 -11t-46.5 -45zM285 518q0 -59 5.5 -114t24 -118.5t47.5 -109.5t80 -77t119 -31q71 0 124.5 36t82.5 95.5t43 124.5t14 133q0 59 -5.5 114t-24 118.5t-47.5 109.5t-80 77t-119 31q-71 0 -124.5 -36 t-82.5 -95.5t-43 -124.5t-14 -133z" />
<glyph unicode="&#xf6;" horiz-adv-x="1110" d="M94 487q0 102 31 194t88.5 164.5t149 115.5t204.5 43t200 -39.5t141 -109t81 -161t27 -200.5q0 -104 -31 -197.5t-88.5 -166.5t-149 -116t-204.5 -43t-200 39.5t-141 110t-81 163t-27 203.5zM270 1343q0 37 25.5 63t62.5 26t62.5 -26t25.5 -63t-25.5 -62.5t-62.5 -25.5 t-62.5 25.5t-25.5 62.5zM285 518q0 -59 5.5 -114t24 -118.5t47.5 -109.5t80 -77t119 -31q71 0 124.5 36t82.5 95.5t43 124.5t14 133q0 59 -5.5 114t-24 118.5t-47.5 109.5t-80 77t-119 31q-71 0 -124.5 -36t-82.5 -95.5t-43 -124.5t-14 -133zM676 1343q0 37 25.5 63t62.5 26 t62.5 -26t25.5 -63t-25.5 -62.5t-62.5 -25.5t-62.5 25.5t-25.5 62.5z" />
<glyph unicode="&#xf7;" horiz-adv-x="1124" d="M82 430v131h960v-131h-960zM434 82q0 50 35 84.5t84 34.5t84 -34.5t35 -84.5t-35 -84.5t-84 -34.5t-84 34.5t-35 84.5zM434 893q0 49 35 84t84 35t84 -35t35 -84t-35 -84t-84 -35t-84 35t-35 84z" />
<glyph unicode="&#xf8;" horiz-adv-x="1114" d="M98 487q0 102 31 194t88.5 164.5t149 115.5t204.5 43t200 -39.5t141 -109t81 -161t27 -200.5q0 -104 -31 -197.5t-88.5 -166.5t-149 -116t-204.5 -43t-200 39.5t-141 110t-81 163t-27 203.5zM115 29l823 989l57 -76l-823 -989zM289 518q0 -59 5.5 -114t24 -118.5 t47.5 -109.5t80 -77t119 -31q71 0 124.5 36t82.5 95.5t43 124.5t14 133q0 59 -5.5 114t-24 118.5t-47.5 109.5t-80 77t-119 31q-71 0 -124.5 -36t-82.5 -95.5t-43 -124.5t-14 -133z" />
<glyph unicode="&#xf9;" horiz-adv-x="1212" d="M76 887v71l301 50v-727q0 -160 198 -160q66 0 121.5 19.5t134.5 64.5v659l-126 23v71l294 48l5 2h2l-2 -2v-885l118 -43l11 -72l-261 -33l-26 131l-15 -8q-8 -5 -22 -13.5t-57.5 -29.5t-85.5 -37t-98.5 -29.5t-104.5 -13.5q-122 0 -190 77t-68 188v626zM340 1450l170 111 l225 -340l-57 -80z" />
<glyph unicode="&#xfa;" horiz-adv-x="1212" d="M76 887v71l301 50v-727q0 -160 198 -160q66 0 121.5 19.5t134.5 64.5v659l-126 23v71l294 48l5 2h2l-2 -2v-885l118 -43l11 -72l-261 -33l-26 131l-15 -8q-8 -5 -22 -13.5t-57.5 -29.5t-85.5 -37t-98.5 -29.5t-104.5 -13.5q-122 0 -190 77t-68 188v626zM434 1221l225 340 l170 -111l-337 -309z" />
<glyph unicode="&#xfb;" horiz-adv-x="1212" d="M76 887v71l301 50v-727q0 -160 198 -160q66 0 121.5 19.5t134.5 64.5v659l-126 23v71l294 48l5 2h2l-2 -2v-885l118 -43l11 -72l-261 -33l-26 131l-15 -8q-8 -5 -22 -13.5t-57.5 -29.5t-85.5 -37t-98.5 -29.5t-104.5 -13.5q-122 0 -190 77t-68 188v626zM334 1282l190 158 q-1 1 33.5 4.5t69.5 6.5l35 3l198 -172l-53 -74l-211 113l-209 -113z" />
<glyph unicode="&#xfc;" horiz-adv-x="1212" d="M76 887v71l301 50v-727q0 -160 198 -160q66 0 121.5 19.5t134.5 64.5v659l-126 23v71l294 48l5 2h2l-2 -2v-885l118 -43l11 -72l-261 -33l-26 131l-15 -8q-8 -5 -22 -13.5t-57.5 -29.5t-85.5 -37t-98.5 -29.5t-104.5 -13.5q-122 0 -190 77t-68 188v626zM279 1346 q0 37 25.5 62.5t62.5 25.5t62.5 -25.5t25.5 -62.5t-25.5 -63t-62.5 -26t-62.5 26t-25.5 63zM684 1346q0 37 25.5 62.5t62.5 25.5t62.5 -25.5t25.5 -62.5t-25.5 -63t-62.5 -26t-62.5 26t-25.5 63z" />
<glyph unicode="&#xfd;" horiz-adv-x="1071" d="M-31 983h432l-12 -72l-108 -28q1 -9 52 -136.5t133 -329t93 -227.5l252 693l-109 28l-10 72h373l-8 -72l-115 -28l-330 -883l-139 -442l-166 22v68l160 317l-389 918l-101 28zM338 1221l225 340l170 -111l-338 -309z" />
<glyph unicode="&#xff;" horiz-adv-x="1071" d="M-31 983h432l-12 -72l-108 -28q1 -9 52 -136.5t133 -329t93 -227.5l252 693l-109 28l-10 72h373l-8 -72l-115 -28l-330 -883l-139 -442l-166 22v68l160 317l-389 918l-101 28zM227 1343q0 37 25.5 63t62.5 26t62.5 -26t25.5 -63t-25.5 -62.5t-62.5 -25.5t-62.5 25.5 t-25.5 62.5zM633 1343q0 37 25.5 63t62.5 26t62.5 -26t25.5 -63t-25.5 -62.5t-62.5 -25.5t-62.5 25.5t-25.5 62.5z" />
<glyph unicode="&#x152;" horiz-adv-x="1888" d="M82 686q0 148 45 276t126.5 220t200.5 145t261 53q38 -1 72.5 -2.5t57 -3t39.5 -2.5t26 -2h8h888l-14 -309l-88 16l-43 189h-553v-508h412l41 139h77v-381h-77l-41 137h-410v-544h551l43 188l88 16l14 -309h-886h-8q-9 -1 -26.5 -1.5t-40.5 -1.5l-57.5 -2.5t-72.5 -2.5 q-196 0 -341 91t-218.5 246t-73.5 353zM289 731q0 -64 9 -131t28.5 -140t54.5 -136.5t82 -115t116.5 -81t153.5 -29.5q49 0 185 4v1170q-160 4 -216 4q-83 0 -153 -32.5t-117 -86.5t-80 -125.5t-48 -147t-15 -153.5z" />
<glyph unicode="&#x153;" horiz-adv-x="1732" d="M88 487q0 102 31 194t88.5 164.5t149 115.5t204.5 43q229 0 354 -179q65 89 159 135t194 46q77 0 138.5 -18t99.5 -44t66 -66t41 -71.5t20 -73.5t8 -60t1 -42v-2q0 -26 -1.5 -50.5t-2.5 -35.5l-2 -11q-417 -8 -626 -10q0 -26 -4 -84q15 -148 85.5 -237.5t206.5 -89.5 q60 0 113.5 6.5t88 15.5t60 17.5t36.5 15.5l12 6q1 -2 2 -6t4 -13.5t5.5 -18.5t5 -17.5t3.5 -13.5l2 -5q-6 -5 -18 -13.5t-50.5 -30t-79.5 -38t-103 -30t-124 -13.5q-241 0 -356 185q-135 -187 -362 -187q-113 0 -200 39.5t-141 110t-81 163t-27 203.5zM279 518 q0 -59 5.5 -114t24 -118.5t47.5 -109.5t80 -77t119 -31q67 0 118.5 32.5t81.5 87t45.5 114.5t18.5 126q-2 18 -2 53v35q-3 56 -11.5 107t-28.5 104.5t-49.5 92t-77 63t-107.5 24.5q-71 0 -124.5 -36t-82.5 -95.5t-43 -124.5t-14 -133zM1006 604l452 45v25q0 27 -2.5 52 t-14 61.5t-31 63t-57.5 45.5t-89 19q-231 0 -258 -311z" />
<glyph unicode="&#x178;" horiz-adv-x="1234" d="M-61 1372h456l-12 -72l-121 -28q0 -3 87 -149.5t174 -291.5l87 -145l324 586l-143 28l-11 72h414l-8 -72l-119 -28l-408 -719v-449l148 -26l14 -78h-510l8 78l150 26v451l-420 717l-102 28zM281 1696q0 37 25.5 62.5t62.5 25.5t62.5 -25.5t25.5 -62.5t-25.5 -62.5 t-62.5 -25.5t-62.5 25.5t-25.5 62.5zM686 1696q0 37 25.5 62.5t62.5 25.5t62.5 -25.5t25.5 -62.5t-25.5 -62.5t-62.5 -25.5t-62.5 25.5t-25.5 62.5z" />
<glyph unicode="&#x2c6;" horiz-adv-x="690" d="M82 1505l190 158q-1 1 33.5 4.5t69.5 6.5l35 3l198 -172l-53 -73l-211 112l-209 -112z" />
<glyph unicode="&#x2dc;" horiz-adv-x="1705" d="M266 1300q54 87 99.5 118.5t93.5 31.5q29 0 165 -29.5t158 -29.5q37 0 59.5 10.5t47.5 42.5l57 -49q-93 -152 -190 -152q-26 0 -164 32t-164 32q-38 0 -57.5 -11t-46.5 -45z" />
<glyph unicode="&#x2000;" horiz-adv-x="975" />
<glyph unicode="&#x2001;" horiz-adv-x="1950" />
<glyph unicode="&#x2002;" horiz-adv-x="975" />
<glyph unicode="&#x2003;" horiz-adv-x="1950" />
<glyph unicode="&#x2004;" horiz-adv-x="650" />
<glyph unicode="&#x2005;" horiz-adv-x="487" />
<glyph unicode="&#x2006;" horiz-adv-x="325" />
<glyph unicode="&#x2007;" horiz-adv-x="325" />
<glyph unicode="&#x2008;" horiz-adv-x="243" />
<glyph unicode="&#x2009;" horiz-adv-x="390" />
<glyph unicode="&#x200a;" horiz-adv-x="108" />
<glyph unicode="&#x2010;" horiz-adv-x="638" d="M82 397v150h475v-150h-475z" />
<glyph unicode="&#x2011;" horiz-adv-x="638" d="M82 397v150h475v-150h-475z" />
<glyph unicode="&#x2012;" horiz-adv-x="638" d="M82 397v150h475v-150h-475z" />
<glyph unicode="&#x2013;" horiz-adv-x="1187" d="M82 397v150h1024v-150h-1024z" />
<glyph unicode="&#x2014;" horiz-adv-x="2211" d="M82 397v150h2048v-150h-2048z" />
<glyph unicode="&#x2018;" horiz-adv-x="415" d="M82 1102v2q0 54 50 147.5t147 200.5l53 -41l-8 -9q-8 -9 -18 -22.5t-20 -31.5t-17 -41.5t-7 -46.5q0 -26 29 -82q25 -28 28 -68v-10q-1 -49 -35.5 -83t-82.5 -34q-49 0 -84 34.5t-35 84.5z" />
<glyph unicode="&#x2019;" horiz-adv-x="415" d="M82 1024q5 2 20.5 21t33.5 56.5t18 74.5q0 8 -1.5 16t-5.5 17.5t-5.5 13.5t-8.5 17t-8 15q-29 32 -29 78q0 49 35 84t84 35t84 -35t35 -84v-2q0 -54 -50 -147.5t-147 -200.5z" />
<glyph unicode="&#x201a;" horiz-adv-x="425" d="M92 -217q72 72 72 151q0 28 -29 80q-29 32 -29 78q0 50 35 84.5t84 34.5t84 -34.5t35 -84.5v-2q0 -54 -50 -147.5t-147 -200.5z" />
<glyph unicode="&#x201c;" horiz-adv-x="794" d="M82 1102v2q0 54 50 147.5t147 200.5l53 -41l-8 -9q-8 -9 -18 -22.5t-20 -31.5t-17 -41.5t-7 -46.5q0 -26 31 -86q21 -24 24 -60q2 -4 2 -10v-2v-4q-2 -47 -36.5 -81t-81.5 -34q-49 0 -84 34.5t-35 84.5zM461 1102v10q3 56 53 147t143 193l54 -41l-8 -9q-8 -9 -18 -22.5 t-20 -31.5t-17 -41.5t-7 -46.5q0 -32 27 -80q27 -34 30 -70v-8q0 -50 -34.5 -84.5t-83.5 -34.5q-50 0 -84.5 34.5t-34.5 84.5z" />
<glyph unicode="&#x201d;" horiz-adv-x="794" d="M82 1024q5 2 20.5 21t33.5 56.5t18 74.5q0 8 -1.5 16t-5.5 17.5t-5.5 13.5t-8.5 17t-8 15q-29 32 -29 78q0 49 35 84t84 35t84 -35t35 -84v-2q0 -54 -50 -147.5t-147 -200.5zM461 1024q5 2 20.5 21t33 56.5t17.5 74.5q0 25 -28 79q-29 32 -29 76v4q0 48 35 82.5t84 34.5 q50 0 84.5 -35t34.5 -84v-2q0 -54 -50 -147.5t-147 -200.5z" />
<glyph unicode="&#x201e;" horiz-adv-x="794" d="M82 -209q5 2 20.5 21t33.5 56.5t18 74.5q0 24 -29 80q-29 32 -29 77q0 50 35 84.5t84 34.5t84 -34.5t35 -84.5v-2q0 -54 -50 -147.5t-147 -200.5zM461 -209q5 2 20.5 21t33 56.5t17.5 74.5q0 26 -28 80q-29 32 -29 75v4q0 48 35 82.5t84 34.5q50 0 84.5 -34.5t34.5 -84.5 v-2q0 -54 -50 -147.5t-147 -200.5z" />
<glyph unicode="&#x2026;" horiz-adv-x="1269" d="M92 90q0 50 35 84.5t84 34.5t84 -34.5t35 -84.5t-35 -84.5t-84 -34.5t-84 34.5t-35 84.5zM518 90q0 50 35 84.5t84 34.5t84 -34.5t35 -84.5t-35 -84.5t-84 -34.5t-84 34.5t-35 84.5zM950 90q0 50 35 84.5t84 34.5t84 -34.5t35 -84.5t-35 -84.5t-84 -34.5t-84 34.5 t-35 84.5z" />
<glyph unicode="&#x202f;" horiz-adv-x="390" />
<glyph unicode="&#x205f;" horiz-adv-x="487" />
<glyph unicode="&#x20ac;" horiz-adv-x="1046" d="M82 451v92h115v49v39h-115v92h123q11 76 33 143.5t62 132t92.5 111t130 74.5t169.5 28q73 0 140 -8t98 -16l31 -8l-11 -244h-96q-37 164 -43 164q-43 10 -135 10q-60 0 -107.5 -24.5t-77.5 -62.5t-51.5 -91t-31.5 -103t-15 -106h361v-92h-365v-8q0 -51 2 -80h363v-92 h-351q12 -72 32.5 -134t53.5 -119.5t84 -90.5t115 -33q48 0 111 20.5t102 41.5l39 20l25 -86q-6 -4 -17 -10.5t-44.5 -24t-66.5 -30.5t-79.5 -23.5t-87.5 -10.5q-106 0 -190.5 39.5t-138.5 108.5t-87 152t-47 180h-125z" />
<glyph unicode="&#x25fc;" horiz-adv-x="983" d="M0 0v983h983v-983h-983z" />
<glyph unicode="&#xfb01;" horiz-adv-x="1214" d="M72 885v98h139v61q0 196 94.5 308t255.5 112q190 0 416 -32l-8 -258h-142l-55 182l-8 2q-8 1 -22.5 2.5t-33.5 4t-46 4.5t-56 3q-111 5 -168 -60.5t-57 -203.5v-125h244v-98h-242v-785l160 -28l12 -72h-463l8 72l111 28v785h-139zM702 0l9 72l116 28v762l-120 25v71 l292 48v-906l117 -28l12 -72h-426z" />
<glyph unicode="&#xfb02;" horiz-adv-x="1103" d="M72 885v98h139v61q0 193 113.5 309.5t279.5 116.5q28 0 60 -1t60 -2.5t55.5 -3t49 -3t38.5 -3t27 -2.5l9 -1v-2l2 2l-4 -1356l119 -26l12 -72h-407l8 72l96 26l4 1270q-82 8 -121 8q-109 0 -170 -66.5t-61 -201.5v-125h252v-98h-250v-785l129 -28l12 -72h-432l8 72 l111 28v785h-139z" />
</font>
</defs>
</svg>
