<?xml version="1.0" standalone="no"?>
<!DOCTYPE svg PUBLIC "-//W3C//DTD SVG 1.1//EN" "http://www.w3.org/Graphics/SVG/1.1/DTD/svg11.dtd" >
<svg>
<metadata>
Created by FontForge 20090622 at Thu Aug 23 10:02:37 2018
 By deploy user
&#194;&#169; 2009 Adobe Systems Incorporated. All rights reserved.
</metadata>
<defs>
<font id="HypatiaSansPro-Light" horiz-adv-x="479" >
  <font-face 
    font-family="Hypatia Sans Pro Light"
    font-weight="300"
    font-stretch="normal"
    units-per-em="1000"
    panose-1="2 11 3 2 2 2 4 2 3 3"
    ascent="734"
    descent="-266"
    x-height="442"
    cap-height="685"
    bbox="-187 -267 1857 994"
    underline-thickness="46"
    underline-position="-47"
    unicode-range="U+0020-U+FB06"
  />
<missing-glyph horiz-adv-x="462" 
d="M0 0v647h462v-647h-462zM74 46h314l-157 236zM259 324l157 -236v472zM46 560v-472l157 236zM74 601l157 -236l157 236h-314z" />
    <glyph glyph-name="f_f" unicode="ff" horiz-adv-x="494" 
d="M145 0h-54q2 48 2 104v299h-73v39h73v74q0 96 48.5 151t124.5 55q61 0 104 -32q38 52 105 52q18 0 42.5 -4t31.5 -4v-57q-23 23 -67 23t-71.5 -35t-27.5 -107v-116h96v-39h-96v-299q0 -56 2 -104h-54q2 48 2 104v299h-190v-299q0 -56 2 -104zM143 442h190v112q0 60 15 97
q-30 28 -79 28q-58 0 -92 -43.5t-34 -118.5v-75z" />
    <glyph glyph-name="f_f_i" unicode="ffi" horiz-adv-x="692" 
d="M145 0h-54q2 48 2 104v299h-75v39h75v66q0 111 51.5 162.5t121.5 51.5t114 -39q45 59 126 59q27 0 46 -4.5t36.5 -12.5t22.5 -10v-61q-40 47 -103 47q-55 0 -90 -43t-35 -125v-91h240q-3 -34 -3 -99v-239q0 -74 3 -104h-55q2 22 2 104v299h-187v-299q0 -56 2 -104h-54
q2 48 2 104v299h-190v-299q0 -56 2 -104zM143 442h190v92q0 63 23 111q-34 36 -90 36q-52 0 -87.5 -42t-35.5 -125v-72z" />
    <glyph glyph-name="f_f_l" unicode="ffl" horiz-adv-x="693" 
d="M145 0h-54q2 48 2 104v299h-73v39h73v73q0 100 50.5 153.5t125.5 53.5q70 0 112 -38q46 56 131 56q34 0 67.5 -10.5t42.5 -10.5h3q-3 -35 -3 -111v-504q0 -74 3 -104h-55q2 22 2 104v578q-23 17 -63 17q-56 0 -91 -41t-35 -124v-92h97v-39h-97v-299q0 -56 2 -104h-54
q2 48 2 104v299h-190v-299q0 -56 2 -104zM143 442h190v90q0 60 23 114q-33 35 -86 35q-56 0 -91.5 -42t-35.5 -122v-75z" />
    <glyph glyph-name="longs_t" unicode="&#x17f;t" horiz-adv-x="528" 
d="M145 0h-54q2 48 2 105v298h-73v39h73v87q0 211 150 211q71 0 106 -55.5t35 -155.5v-87h125v-39h-125v-268q0 -51 20 -75.5t52 -24.5q27 0 39 12v-51q-6 0 -23 -2t-25 -2q-57 0 -85 38.5t-28 100.5v272h-73v39h73v86q0 169 -92 169q-99 0 -99 -169v-423q0 -81 2 -105z" />
    <glyph glyph-name="T_h" unicode="Th" horiz-adv-x="962" 
d="M899 0h-56q3 34 3 104v155q0 68 -31.5 108t-88.5 40q-58 0 -87.5 -40.5t-29.5 -106.5v-156q0 -58 2 -104h-55q3 34 3 104v538h-229q-1 -37 -1 -129v-334q0 -127 5 -179h-63q5 78 5 179v334q0 74 -3 129h-81q-92 0 -169 -5v52q62 -4 169 -4h367h4h48q-2 -48 -2 -104v-210
q16 37 50.5 57.5t76.5 20.5q80 0 120.5 -52t40.5 -139v-154q0 -81 2 -104z" />
    <glyph glyph-name="f_b" unicode="fb" horiz-adv-x="817" 
d="M382 395v-58q23 53 72 82.5t104 29.5q92 0 155.5 -66t63.5 -161q0 -96 -64.5 -162.5t-156.5 -66.5q-54 0 -102 29t-72 81q0 -63 4 -103h-54v395v152v135q-26 17 -60 17q-68 0 -98.5 -46t-30.5 -121v-90h98v-39h-98v-299q0 -56 2 -104h-54q2 48 2 104v299h-73v39h73v86
q0 106 50 159t128 53q36 0 68 -10.5t46 -10.5q-3 -35 -3 -104v-68v-152zM552 36q71 0 121.5 54t50.5 131q0 76 -51.5 130.5t-122.5 54.5q-72 0 -121.5 -54t-49.5 -131q0 -76 51 -130.5t122 -54.5z" />
    <glyph glyph-name="f_f_b" unicode="ffb" horiz-adv-x="1057" 
d="M622 558v-221q23 53 72 82.5t104 29.5q93 0 156 -66t63 -161q0 -96 -64 -162.5t-157 -66.5q-54 0 -102 29.5t-72 81.5q0 -64 2 -104h-54q2 32 2 104v578q-23 17 -63 17q-55 0 -90.5 -40.5t-35.5 -122.5v-94h97v-39h-97v-299q0 -56 2 -104h-54q2 48 2 104v299h-190v-299
q0 -56 2 -104h-54q2 48 2 104v299h-73v39h73v76q0 96 49.5 150t124.5 54q72 0 114 -38q45 56 131 56q33 0 67.5 -10.5t42.5 -10.5h3q-3 -35 -3 -107v-54zM333 442v93q0 57 23 111q-33 35 -86 35q-55 0 -91 -41t-36 -118v-80h190zM791 36q73 0 123.5 54t50.5 131
q0 76 -51.5 130.5t-122.5 54.5q-72 0 -121.5 -54t-49.5 -131q0 -76 50 -130.5t121 -54.5z" />
    <glyph glyph-name="f_f_h" unicode="ffh" horiz-adv-x="975" 
d="M912 0h-55q0 10 1 48t1 56v155q0 68 -31.5 108t-88.5 40q-55 0 -86 -41t-31 -106v-83v-73q0 -74 3 -104h-55q2 22 2 104v73v352v153q-23 17 -63 17q-56 0 -91 -41t-35 -124v-92h97v-39h-97v-299q0 -56 2 -104h-54q2 48 2 104v299h-190v-299q0 -56 2 -104h-54q2 48 2 104
v299h-73v39h73v73q0 100 50.5 153.5t125.5 53.5q70 0 112 -38q46 56 131 56q34 0 67.5 -10.5t42.5 -10.5h3q-3 -35 -3 -111v-79v-158q18 35 52.5 56.5t74.5 21.5q80 0 120 -51.5t40 -139.5v-154q0 -70 3 -104zM333 442v90q0 60 23 114q-33 35 -86 35q-56 0 -91.5 -42
t-35.5 -122v-75h190z" />
    <glyph glyph-name="f_f_j" unicode="ffj" horiz-adv-x="692" 
d="M608 442h15q-3 -38 -3 -104v-420q0 -84 -33.5 -131.5t-100.5 -47.5q-18 0 -38 3.5t-21 3.5v50q16 -14 49 -14q43 0 68.5 36t25.5 103v482h-187v-299q0 -56 2 -104h-54q2 48 2 104v299h-190v-299q0 -56 2 -104h-54q2 48 2 104v299h-75v39h75v66q0 111 51.5 162.5
t121.5 51.5t114 -39q45 59 126 59q27 0 46 -4.5t36.5 -12.5t22.5 -10v-61q-40 47 -103 47q-55 0 -90 -43t-35 -125v-91h167h58zM333 442v92q0 63 23 111q-34 36 -90 36q-52 0 -87.5 -42t-35.5 -125v-72h190z" />
    <glyph glyph-name="f_f_k" unicode="ffk" horiz-adv-x="901" 
d="M901 0h-74q-21 27 -205 219v-115q0 -74 3 -104h-55q2 22 2 104v578q-23 17 -63 17q-56 0 -91 -41t-35 -124v-92h97v-39h-97v-299q0 -56 2 -104h-54q2 48 2 104v299h-190v-299q0 -56 2 -104h-54q2 48 2 104v299h-73v39h73v73q0 100 50.5 153.5t125.5 53.5q70 0 112 -38
q46 56 131 56q34 0 67.5 -10.5t42.5 -10.5h3q-3 -35 -3 -111v-380q156 176 182 214h64q-32 -30 -192 -212q162 -175 225 -230zM333 442v90q0 60 23 114q-33 35 -86 35q-56 0 -91.5 -42t-35.5 -122v-75h190z" />
    <glyph glyph-name="f_f_t" unicode="fft" horiz-adv-x="753" 
d="M735 403h-125v-257q0 -107 73 -107q27 0 37 12v-51q-6 0 -22.5 -2t-24.5 -2q-113 0 -113 141v266h-49h-23h-105v-299q0 -80 2 -104h-54q2 48 2 104v299h-74h-116v-299q0 -68 3 -104h-55q2 48 2 104v299h-73v39h73v82q0 88 48 143t120 55q65 0 108 -31q37 50 104 50
q15 0 29 -1.5t27 -4t19 -3.5v-55q-21 22 -69 22q-46 0 -71 -37t-25 -103v-117h105h23h49v19q0 20 -3 92h55q-2 -48 -2 -92v-19h125v-39zM259 442h74v115q0 57 15 94q-28 28 -85 28q-52 0 -86 -44t-34 -110v-83h116z" />
    <glyph glyph-name="f_h" unicode="fh" horiz-adv-x="736" 
d="M673 0h-55q2 46 2 104v155q0 68 -31.5 108t-88.5 40q-58 0 -87.5 -40.5t-29.5 -106.5v-109v-47q0 -44 3 -104h-56q3 33 3 104v47v414v117q-26 17 -60 17q-68 0 -98.5 -46t-30.5 -121v-90h97v-39h-97v-299q0 -56 2 -104h-54q2 48 2 104v299h-74v39h74v86q0 106 50 159
t128 53q36 0 68 -10.5t46 -10.5q-3 -35 -3 -104v-50v-194q16 37 50.5 57.5t76.5 20.5q79 0 119.5 -52t40.5 -139v-154q0 -70 3 -104z" />
    <glyph glyph-name="f_i" unicode="fi" horiz-adv-x="453" 
d="M145 0h-54q2 48 2 104v299h-73v39h73v91q0 103 50 156t125 53q26 0 46.5 -5.5t35.5 -12.5t21 -8v-61q-42 46 -102 46q-54 0 -90 -41t-36 -122v-96h240q-3 -69 -3 -103v-235q0 -44 3 -104h-56q3 33 3 104v299h-187v-299q0 -56 2 -104z" />
    <glyph glyph-name="f_j" unicode="fj" horiz-adv-x="453" 
d="M372 442h12q-3 -38 -3 -104v-420q0 -84 -33.5 -131.5t-100.5 -47.5q-19 0 -39 3l-20 4v50q18 -14 49 -14q44 0 69 35.5t25 103.5v483l-1 -1h-187v-299q0 -56 2 -104h-54q2 48 2 104v299h-73v39h73v91q0 103 50 156t125 53q26 0 46.5 -5.5t35.5 -12.5t21 -8v-61
q-42 46 -102 46q-54 0 -90 -41t-36 -122v-96h168h61z" />
    <glyph glyph-name="f_k" unicode="fk" horiz-adv-x="662" 
d="M662 0h-73q-44 51 -206 219v-115q0 -44 3 -104h-56q3 33 3 104v578q-26 17 -60 17q-68 0 -98.5 -46t-30.5 -121v-90h97v-39h-97v-299q0 -56 2 -104h-54q2 48 2 104v299h-74v39h74v86q0 106 50 159t128 53q36 0 68 -10.5t46 -10.5q-3 -35 -3 -104v-387l48 54l50.5 56.5
t42.5 50l42 53.5h64q-42 -40 -191 -213q153 -168 223 -229z" />
    <glyph glyph-name="f_l" unicode="fl" horiz-adv-x="454" 
d="M145 0h-54q2 48 2 104v299h-73v39h73v86q0 106 50 159t128 53q36 0 68 -10.5t46 -10.5q-3 -35 -3 -104v-511q0 -44 3 -104h-56q3 33 3 104v578q-26 17 -60 17q-68 0 -98.5 -46t-30.5 -121v-90h98v-39h-98v-299q0 -56 2 -104z" />
    <glyph glyph-name="f_t" unicode="ft" horiz-adv-x="533" 
d="M513 403h-125v-257q0 -107 74 -107q25 0 37 12v-51q-6 0 -23 -2t-25 -2q-51 0 -82 33.5t-31 107.5v266h-66h-5h-124v-299q0 -80 2 -104h-54q2 48 2 104v299h-73v39h73v115q0 90 38 136.5t102 46.5q14 0 27.5 -1.5t26.5 -4l18 -3.5v-55q-19 22 -65 22t-71.5 -36.5
t-25.5 -102.5v-117h124h5h66v19q0 44 -2 92h54q-2 -48 -2 -92v-19h125v-39z" />
    <glyph glyph-name="longs_b" unicode="&#x17f;b" horiz-adv-x="818" 
d="M382 404v-67q23 53 72 82.5t104 29.5q92 0 155.5 -66t63.5 -161q0 -96 -64.5 -162.5t-156.5 -66.5q-54 0 -102 29t-72 81q0 -63 4 -103h-54v404v143v135q-26 17 -60 17q-68 0 -98.5 -46t-30.5 -121v-428q0 -56 2 -104h-54q2 48 2 104v299h-73v39h73v86q0 106 50 159
t128 53q36 0 68 -10.5t46 -10.5q-3 -35 -3 -104v-68v-143zM552 36q71 0 121.5 54t50.5 131q0 76 -51.5 130.5t-122.5 54.5q-72 0 -121.5 -54t-49.5 -131q0 -76 51 -130.5t122 -54.5z" />
    <glyph glyph-name="longs_h" unicode="&#x17f;h" horiz-adv-x="737" 
d="M672 0h-55q2 46 2 104v155q0 68 -31.5 108t-88.5 40q-58 0 -87.5 -40.5t-29.5 -106.5v-109v-47q0 -64 2 -104h-54q2 44 2 104v47v414v117q-26 17 -60 17q-68 0 -98.5 -46t-30.5 -121v-428q0 -56 2 -104h-54q2 48 2 104v299h-73v39h73v86q0 106 50 159t128 53
q36 0 68 -10.5t46 -10.5q-3 -35 -3 -104v-50v-194q16 37 50.5 57.5t76.5 20.5q79 0 119.5 -52t40.5 -139v-154q0 -70 3 -104z" />
    <glyph glyph-name="longs_i" unicode="&#x17f;i" horiz-adv-x="451" 
d="M145 0h-54q2 48 2 104v299h-73v39h73v91q0 103 50 156t123 53q26 0 47 -5.5t36 -12.5t22 -8v-61q-40 46 -103 46q-53 0 -89 -43t-36 -128v-426q0 -56 2 -104zM385 0h-56q3 33 3 105v303h-44q5 4 9 9.5l9 13t8 11.5h71q-3 -34 -3 -104v-233q0 -75 3 -105z" />
    <glyph glyph-name="longs_k" unicode="&#x17f;k" horiz-adv-x="660" 
d="M660 0h-73q-52 59 -205 218v-114q0 -64 2 -104h-54q2 44 2 104v578q-26 17 -60 17q-68 0 -98.5 -46t-30.5 -121v-428q0 -56 2 -104h-54q2 48 2 104v299h-73v39h73v86q0 106 50 159t128 53q36 0 68 -10.5t46 -10.5q-3 -35 -3 -104v-386l60.5 68.5l70.5 80.5t51 64h64
q-42 -40 -191 -213q153 -168 223 -229z" />
    <glyph glyph-name="longs_l" unicode="&#x17f;l" horiz-adv-x="455" 
d="M145 0h-54q2 48 2 104v299h-73v39h73v86q0 106 50 159t128 53q36 0 68 -10.5t46 -10.5q-3 -35 -3 -104v-511q0 -64 2 -104h-54q2 44 2 104v578q-26 17 -60 17q-68 0 -98.5 -46t-30.5 -121v-428q0 -56 2 -104z" />
    <glyph glyph-name="longs_longs_i" unicode="&#x17f;&#x17f;i" horiz-adv-x="693" 
d="M144 0h-53q2 48 2 104v299h-73v39h73v58q0 117 50 169.5t123 52.5q70 0 114 -39q45 59 128 59q27 0 46.5 -5t34.5 -12.5t22 -9.5v-60q-42 46 -101 46q-58 0 -92.5 -44.5t-34.5 -126.5v-426q0 -56 2 -104h-53q0 11 0.5 48.5t0.5 55.5v299h-74v39h74v93q0 67 23 111
q-30 34 -89 34q-56 0 -90 -43.5t-34 -135.5v-397q0 -18 0.5 -55.5t0.5 -48.5zM623 0h-56q3 33 3 105v303h-44q5 4 9 9.5l9 13t8 11.5h71q-3 -34 -3 -104v-233q0 -75 3 -105z" />
    <glyph glyph-name="longs_longs_l" unicode="&#x17f;&#x17f;l" horiz-adv-x="693" 
d="M145 0h-54q2 48 2 104v299h-73v39h73v73q0 100 50.5 153.5t125.5 53.5q70 0 112 -38q46 56 131 56q34 0 67.5 -10.5t42.5 -10.5h3q-3 -35 -3 -111v-504q0 -74 3 -104h-55q2 22 2 104v578q-23 17 -63 17q-56 0 -91 -41t-35 -124v-430q0 -56 2 -104h-54q2 48 2 104v299h-74
v39h74v90q0 60 23 114q-33 35 -86 35q-56 0 -91.5 -42t-35.5 -122v-413q0 -56 2 -104z" />
    <glyph glyph-name="t_f" unicode="tf" horiz-adv-x="466" 
d="M304 442v115q0 87 37 135t103 48q18 0 44 -4.5t30 -4.5v-56q-20 23 -67 23q-46 0 -71.5 -36.5t-25.5 -102.5v-117h95v-39h-95v-299q0 -68 3 -104h-56q3 72 3 104v299h-40h-33h-92v-262q0 -106 74 -106q25 0 37 12v-51q-6 0 -23 -2t-25 -2q-51 0 -82 33.5t-31 107.5v270
h-73v39h73v23q0 52 -3 88h56q-3 -36 -3 -88v-23h92h33h40z" />
    <glyph glyph-name="t_t" unicode="tt" horiz-adv-x="531" 
d="M512 403h-124v-262q0 -106 73 -106q27 0 37 12v-51q-6 0 -23 -2t-25 -2q-50 0 -81 33.5t-31 107.5v270h-74h-9h-116v-262q0 -106 74 -106q25 0 37 12v-51q-6 0 -23 -2t-25 -2q-51 0 -82 33.5t-31 107.5v270h-73v39h73v23q0 52 -3 88h56q-3 -36 -3 -88v-23h116h9h74v23
q0 52 -3 88h56q-3 -36 -3 -88v-23h124v-39z" />
    <glyph glyph-name="uni021A_h" unicode="&#x21a;h" horiz-adv-x="962" 
d="M899 0h-56q3 34 3 104v155q0 68 -31.5 108t-88.5 40q-58 0 -87.5 -40.5t-29.5 -106.5v-156q0 -58 2 -104h-55q3 34 3 104v538h-229q-1 -37 -1 -129v-334q0 -127 5 -179h-63q5 78 5 179v334q0 74 -3 129h-81q-92 0 -169 -5v52q62 -4 169 -4h367h4h48q-2 -48 -2 -104v-210
q16 37 50.5 57.5t76.5 20.5q80 0 120.5 -52t40.5 -139v-154q0 -81 2 -104zM274 -79v33q43 -1 71.5 -27t28.5 -66q0 -37 -26 -61t-65 -24q-23 0 -47 10v36q22 -13 43 -13q22 0 37.5 15t15.5 37q0 25 -17 42.5t-41 17.5z" />
    <glyph glyph-name="Tcaron_h" unicode="&#x164;h" horiz-adv-x="962" 
d="M308 721h-9l-140 125h57l88 -84l90 84h53zM899 0h-56q3 34 3 104v155q0 68 -31.5 108t-88.5 40q-58 0 -87.5 -40.5t-29.5 -106.5v-156q0 -58 2 -104h-55q3 34 3 104v538h-229q-1 -37 -1 -129v-334q0 -127 5 -179h-63q5 78 5 179v334q0 74 -3 129h-81q-92 0 -169 -5v52
q62 -4 169 -4h367h4h48q-2 -48 -2 -104v-210q16 37 50.5 57.5t76.5 20.5q80 0 120.5 -52t40.5 -139v-154q0 -81 2 -104z" />
    <glyph glyph-name="longs_longs_b" unicode="&#x17f;&#x17f;b" horiz-adv-x="1057" 
d="M622 608v-271q23 53 72 82.5t104 29.5q92 0 155.5 -66.5t63.5 -160.5q0 -96 -64 -162.5t-157 -66.5q-55 0 -102.5 29t-71.5 81q0 -77 3 -103h-55q2 22 2 104v578q-23 17 -63 17q-56 0 -91 -41t-35 -124v-430q0 -56 2 -104h-54q2 48 2 104v296h-74v42h74v90q0 60 23 114
q-33 35 -86 35q-56 0 -91.5 -42t-35.5 -122v-413q0 -56 2 -104h-54q2 48 2 104v296h-73v42h73v73q0 100 50.5 153.5t125.5 53.5q70 0 112 -38q46 56 131 56q34 0 67.5 -10.5t42.5 -10.5h3q-3 -35 -3 -111zM791 37q72 0 123.5 53.5t51.5 130.5q0 76 -51.5 130.5t-123.5 54.5
q-71 0 -121.5 -54t-50.5 -131t50.5 -130.5t121.5 -53.5z" />
    <glyph glyph-name=".notdef" horiz-adv-x="462" 
d="M0 0v647h462v-647h-462zM74 46h314l-157 236zM259 324l157 -236v472zM46 560v-472l157 236zM74 601l157 -236l157 236h-314z" />
    <glyph glyph-name=".null" horiz-adv-x="0" 
 />
    <glyph glyph-name="nonmarkingreturn" horiz-adv-x="333" 
 />
    <glyph glyph-name="space" unicode=" " horiz-adv-x="223" 
 />
    <glyph glyph-name="exclam" unicode="!" horiz-adv-x="286" 
d="M164 276v279q0 75 -3 107h56q-3 -34 -3 -107v-279q0 -72 3 -106h-56q3 34 3 106zM151 27q0 16 10 26.5t25 10.5q16 0 26.5 -10.5t10.5 -26.5q0 -15 -10.5 -25.5t-26.5 -10.5q-15 0 -25 10.5t-10 25.5z" />
    <glyph glyph-name="quotedbl" unicode="&#x22;" horiz-adv-x="281" 
d="M53 717h52l-7 -243h-37zM175 717h53l-8 -243h-37z" />
    <glyph glyph-name="numbersign" unicode="#" horiz-adv-x="504" 
d="M138 21h-40l35 205h-94v38h100l25 151h-103v38h109l31 196h41l-32 -196h125l32 196h41l-33 -196h93v-38h-99l-26 -151h105v-38h-110l-35 -205h-39l32 205h-124zM178 264h125l25 151h-125z" />
    <glyph glyph-name="dollar" unicode="$" horiz-adv-x="504" 
d="M396 633v-79q-22 57 -110 57q-47 0 -80 -29t-33 -81q0 -29 13 -53.5t34.5 -42t46.5 -34l50.5 -35t47 -39.5t34.5 -51.5t13 -68.5q0 -62 -38 -106.5t-101 -54.5v-45h-40v43q-27 1 -71 10.5t-59 11.5v83q15 -29 56.5 -47t86.5 -18q47 0 78 35t31 85q0 40 -24.5 71t-59 53.5
l-69 47t-59 63t-24.5 88.5q0 60 34 99t90 50v44h40v-40h1q28 0 65 -8t47 -9z" />
    <glyph glyph-name="percent" unicode="%" horiz-adv-x="692" 
d="M187 681q61 0 103.5 -45t42.5 -108q0 -66 -42.5 -112.5t-103.5 -46.5t-103.5 45t-42.5 108q0 66 42.5 112.5t103.5 46.5zM187 641q-43 0 -73 -34t-30 -82t30.5 -82t73.5 -34q42 0 71.5 35t29.5 83q0 47 -29.5 80.5t-72.5 33.5zM505 309q61 0 103.5 -44.5t42.5 -107.5
q0 -66 -43 -112t-103 -46q-61 0 -103.5 44.5t-42.5 108.5q0 65 42.5 111t103.5 46zM506 269q-43 0 -73 -33.5t-30 -82.5q0 -48 30 -81.5t73 -33.5q42 0 72 34.5t30 83.5q0 47 -29.5 80t-72.5 33zM111 0h-48l516 679h50z" />
    <glyph glyph-name="ampersand" unicode="&#x26;" horiz-adv-x="683" 
d="M620 385h62q-21 -18 -40.5 -38t-41 -47l-32 -41l-35.5 -49l-30 -42q67 -90 130 -122l1 -55q-82 34 -165 135q-50 -65 -99 -100t-114 -35q-89 0 -146 57t-57 141q0 34 11.5 64t36 56t45 43t54.5 41q-73 54 -73 133q0 53 38.5 90.5t93.5 37.5q51 0 87 -35.5t36 -88.5
q0 -41 -25.5 -71.5t-76.5 -65.5q100 -69 195 -192l33.5 48.5l38.5 55t32.5 40.5t40.5 40zM262 37q52 0 93 31.5t87 91.5q-100 132 -209 208q-62 -44 -95.5 -84.5t-33.5 -92.5q0 -64 46.5 -109t111.5 -45zM173 527q0 -58 74 -109q51 34 71 57t20 55q0 35 -24 60t-57 25
q-36 0 -60 -26t-24 -62z" />
    <glyph glyph-name="quotesingle" unicode="'" horiz-adv-x="159" 
d="M53 717h52l-7 -243h-37z" />
    <glyph glyph-name="parenleft" unicode="(" horiz-adv-x="261" 
d="M234 -129v-58q-95 81 -145.5 206t-50.5 256q0 132 51 258t145 206v-56q-71 -73 -109 -184.5t-38 -222.5q0 -112 38 -221.5t109 -183.5z" />
    <glyph glyph-name="parenright" unicode=")" horiz-adv-x="261" 
d="M27 680v59q95 -81 145.5 -206t50.5 -256q0 -132 -51.5 -258t-144.5 -206v55q71 74 109.5 185.5t38.5 222.5t-38 220.5t-110 183.5z" />
    <glyph glyph-name="asterisk" unicode="*" horiz-adv-x="407" 
d="M46 525v44q15 -1 79 -4l49 -1l-29 48q-21 34 -43 64l39 23q3 -8 9.5 -20.5l14.5 -27t11 -21.5l28 -49l27 50q28 49 34 68l39 -22q-6 -7 -43 -64l-29 -49l50 1q70 3 79 5v-45l-79 4l-49 2l29 -47q20 -32 45 -63l-42 -23l-10 21.5l-13.5 27t-10.5 19.5l-26 50l-30 -51
q-2 -5 -17.5 -33t-17.5 -34l-40 24l45 62l29 47l-49 -2q-59 -2 -79 -4z" />
    <glyph glyph-name="plus" unicode="+" horiz-adv-x="504" 
d="M276 448v-178h168v-42h-168v-179h-47v179h-168v42h168v178h47z" />
    <glyph glyph-name="comma" unicode="," horiz-adv-x="174" 
d="M75 87h51q0 -172 -52 -253h-41q42 86 42 253z" />
    <glyph glyph-name="hyphen" unicode="-" horiz-adv-x="291" 
d="M32 255h226v-45h-226v45z" />
    <glyph glyph-name="period" unicode="." horiz-adv-x="172" 
d="M47 30q0 16 11.5 27.5t27.5 11.5t27.5 -11.5t11.5 -27.5t-11.5 -28t-27.5 -12t-27.5 12t-11.5 28z" />
    <glyph glyph-name="slash" unicode="/" horiz-adv-x="262" 
d="M52 -37h-48l205 736h48z" />
    <glyph glyph-name="zero" unicode="0" horiz-adv-x="504" 
d="M48 337q0 153 53.5 248t147.5 95q96 0 151.5 -95.5t55.5 -247.5q0 -153 -55.5 -249t-151.5 -96q-95 0 -148 95.5t-53 249.5zM102 337q0 -136 39 -217.5t108 -81.5q72 0 112.5 81.5t40.5 217.5q0 134 -40.5 215.5t-112.5 81.5q-69 0 -108 -81.5t-39 -215.5z" />
    <glyph glyph-name="one" unicode="1" horiz-adv-x="504" 
d="M311 0h-59q3 33 3 105v510q-105 -45 -127 -57v47q19 6 76 32t90 44h18q-4 -32 -4 -108v-468q0 -75 3 -105z" />
    <glyph glyph-name="two" unicode="2" horiz-adv-x="504" 
d="M446 51v-54q-34 3 -155 3h-236v22q148 153 229 258q51 66 68.5 107.5t17.5 90.5q0 67 -41 111t-103 44q-52 0 -95.5 -23.5t-63.5 -57.5v76q9 3 35.5 17t59.5 24.5t73 10.5q84 0 137 -55.5t53 -142.5q0 -53 -23 -103t-76 -117q-63 -79 -192 -216h162q98 0 150 5z" />
    <glyph glyph-name="three" unicode="3" horiz-adv-x="504" 
d="M78 28v68q35 -59 137 -59q64 0 104.5 41t40.5 107q0 60 -44.5 102t-107.5 42q-11 0 -23 -2v47q7 -2 22 -2q59 0 97.5 37t38.5 95q0 56 -37 93t-91 37q-43 0 -77.5 -17t-51.5 -42v68q2 1 30 12.5t52.5 17.5t54.5 6q76 0 125 -47t49 -122q0 -57 -34.5 -99.5t-85.5 -58.5
q57 -13 97 -61t40 -111q0 -83 -54 -135.5t-139 -52.5q-26 0 -50.5 4.5t-37.5 9t-31 12.5t-24 10z" />
    <glyph glyph-name="four" unicode="4" horiz-adv-x="504" 
d="M370 0h-59q3 25 3 115v115h-197q-72 0 -100 -1v21l329 432h21q0 -11 -0.5 -52.5t-0.5 -65.5v-293q84 0 120 3v-47q-39 3 -120 3v-115q0 -69 4 -115zM314 580l-231 -309h231v309z" />
    <glyph glyph-name="five" unicode="5" horiz-adv-x="504" 
d="M67 23v68q41 -56 135 -56q73 0 123 47t50 117q0 69 -48 117t-120 48q-78 0 -116 -35l53 247q15 67 18 98q27 -3 76 -3h75q49 0 90 3v-51q-38 3 -88 3h-114l-53 -232q24 13 76 13q90 0 148.5 -58t58.5 -149q0 -89 -64.5 -150t-157.5 -61q-24 0 -47.5 4t-36.5 8.5l-33 12
t-25 9.5z" />
    <glyph glyph-name="six" unicode="6" horiz-adv-x="504" 
d="M344 671h69q-45 -45 -107 -118l-142 -173q34 29 95 29q85 0 143.5 -60t58.5 -147q0 -88 -61.5 -149t-148.5 -61q-86 0 -146.5 61t-60.5 149q0 74 40 140t176 223q71 83 84 106zM96 202q0 -68 46 -116.5t111 -48.5t110.5 47.5t45.5 114.5q0 69 -46.5 117.5t-111.5 48.5
q-66 0 -110.5 -47t-44.5 -116z" />
    <glyph glyph-name="seven" unicode="7" horiz-adv-x="504" 
d="M133 0h-64q23 32 62 104l268 520h-235q-82 0 -102 -2v51q22 -2 102 -2h217q76 0 100 2q-15 -23 -50 -87l-253 -495q-40 -78 -45 -91z" />
    <glyph glyph-name="eight" unicode="8" horiz-adv-x="504" 
d="M106 186q0 -61 41 -103.5t100 -42.5q60 0 102.5 42t42.5 101q0 60 -42.5 103.5t-102.5 43.5q-58 0 -99.5 -42.5t-41.5 -101.5zM123 507q0 -54 36.5 -92.5t88.5 -38.5q53 0 89.5 38t36.5 92t-36.5 90t-90.5 36q-52 0 -88 -36t-36 -89zM71 509q0 71 51 120.5t125 49.5
q75 0 127 -49t52 -118q0 -57 -31 -98.5t-76 -59.5q54 -17 89.5 -63t35.5 -107q0 -80 -56 -135.5t-141 -55.5q-84 0 -139 54.5t-55 134.5q0 60 35.5 107t86.5 65q-44 17 -74 58.5t-30 96.5z" />
    <glyph glyph-name="nine" unicode="9" horiz-adv-x="504" 
d="M165 0h-70q40 37 95 104l153 186q-42 -29 -93 -29q-86 0 -147 61.5t-61 148.5t63.5 147.5t151.5 60.5q85 0 146 -62t61 -149q0 -37 -8 -67.5t-37 -74.5t-56 -79l-92 -114l-32 -39q-65 -79 -74 -94zM409 466q0 69 -44.5 118t-107.5 49q-67 0 -114 -48t-47 -116
q0 -67 47 -115t113 -48q63 0 108 46.5t45 113.5z" />
    <glyph glyph-name="colon" unicode=":" horiz-adv-x="173" 
d="M49 369q0 16 11 27t26 11q16 0 27 -11t11 -27t-11 -27t-27 -11q-15 0 -26 11t-11 27zM49 28q0 16 11 27t26 11q16 0 27 -11t11 -27q0 -15 -11 -26.5t-27 -11.5q-15 0 -26 11.5t-11 26.5z" />
    <glyph glyph-name="semicolon" unicode=";" horiz-adv-x="191" 
d="M65 370q0 16 11 27t27 11q15 0 26 -11t11 -27t-11 -27t-26 -11q-16 0 -27 11t-11 27zM79 84h50q0 -168 -51 -250h-41q42 86 42 250z" />
    <glyph glyph-name="less" unicode="&#x3c;" horiz-adv-x="504" 
d="M451 8l-409 234v14l409 235v-53l-339 -189l339 -188v-53z" />
    <glyph glyph-name="equal" unicode="=" horiz-adv-x="504" 
d="M444 296h-383v42h383v-42zM444 161h-383v41h383v-41z" />
    <glyph glyph-name="greater" unicode="&#x3e;" horiz-adv-x="504" 
d="M61 492l400 -234v-14l-400 -235v53l331 189l-331 189v52z" />
    <glyph glyph-name="question" unicode="?" horiz-adv-x="451" 
d="M184 612q-52 0 -110 -31v53q9 2 29.5 8.5t43.5 11t46 4.5q77 0 124.5 -49.5t47.5 -124.5q0 -67 -34.5 -117t-130.5 -118q8 -63 15 -90h-52q0 3 -16 105q101 71 132 114t31 101q0 57 -35.5 95t-90.5 38zM167 27q0 16 10.5 26.5t24.5 10.5q16 0 26.5 -10.5t10.5 -26.5
q0 -15 -10.5 -25.5t-26.5 -10.5q-14 0 -24.5 10.5t-10.5 25.5z" />
    <glyph glyph-name="at" unicode="@" horiz-adv-x="802" 
d="M87 200q0 -136 92.5 -230t224.5 -94q125 0 185 39l-1 -52q-2 0 -67.5 -11.5t-116.5 -11.5q-151 0 -255.5 104t-104.5 256q0 154 105.5 263t254.5 109q155 0 254.5 -88t99.5 -236q0 -98 -56 -162.5t-134 -64.5q-43 0 -61 17t-13 56q-45 -71 -127 -71q-60 0 -102 48.5
t-42 118.5q0 84 52.5 143.5t126.5 59.5q47 0 79.5 -31t39.5 -66q12 74 11 87h45l-42 -263q-10 -61 38 -61q57 0 99 52.5t42 132.5q0 133 -87 212.5t-223 79.5q-131 0 -224 -99t-93 -237zM508 222q0 56 -31 93.5t-74 37.5q-55 0 -94.5 -47t-39.5 -112q0 -55 32.5 -93.5
t78.5 -38.5q53 0 90.5 47t37.5 113z" />
    <glyph glyph-name="A" unicode="A" horiz-adv-x="619" 
d="M619 0h-69q-14 42 -50 126l-59 140h-272l-57 -139q-39 -94 -48 -127h-64q29 55 70 152l230 546h16l231 -546q42 -95 72 -152zM423 309l-118 289l-118 -289h236z" />
    <glyph glyph-name="B" unicode="B" 
d="M210 0h-138q5 52 5 179v319q0 147 -4 187h122q82 0 131.5 -45.5t49.5 -114.5q0 -49 -26 -86.5t-59 -49.5q67 -19 104.5 -70t37.5 -119q0 -86 -62 -143t-161 -57zM129 361v-317h78q74 0 123 44t49 112q0 72 -45 116.5t-115 44.5h-90zM129 643v-242h88q45 0 75.5 35
t30.5 85q0 53 -37.5 87.5t-94.5 34.5h-62z" />
    <glyph glyph-name="C" unicode="C" horiz-adv-x="628" 
d="M601 91v-64q-102 -38 -191 -38q-152 0 -258.5 103.5t-106.5 250.5t106.5 250.5t258.5 103.5q14 0 28.5 -1t25.5 -2t25.5 -4l22 -4.5t23 -5.5t19.5 -5.5t21 -6.5t19 -6v-65q-67 53 -181 53q-130 0 -222 -89.5t-92 -217.5t92 -218t222 -90q122 0 188 56z" />
    <glyph glyph-name="D" unicode="D" horiz-adv-x="634" 
d="M245 0h-173q5 52 5 179v327q0 129 -5 179h173q141 0 242 -100.5t101 -241.5q0 -142 -101 -242.5t-242 -100.5zM130 642v-599h112q121 0 206.5 88.5t85.5 211.5t-85.5 211t-207.5 88h-111z" />
    <glyph glyph-name="E" unicode="E" horiz-adv-x="435" 
d="M129 348v-304h94q123 0 168 3v-50q-45 3 -168 3h-151q4 110 4 179v328q0 118 -4 178h143q121 0 168 3v-50q-41 4 -168 4h-86v-250h88q105 0 152 3v-50q-46 3 -152 3h-88z" />
    <glyph glyph-name="F" unicode="F" horiz-adv-x="424" 
d="M132 0h-60q4 62 4 179v327q0 119 -4 179h151q98 0 160 4v-51q-41 4 -160 4h-94v-268h99q66 0 126 4v-51q-60 4 -126 4h-99v-152q0 -86 3 -179z" />
    <glyph glyph-name="G" unicode="G" horiz-adv-x="663" 
d="M595 195v-172q-90 -34 -185 -34q-158 0 -261.5 103t-103.5 251t103.5 251t260.5 103q93 0 176 -36v-64q-66 53 -175 53q-134 0 -222.5 -89t-88.5 -218t89 -218.5t223 -89.5q94 0 133 25v134q0 63 -4 123h59q-4 -60 -4 -122z" />
    <glyph glyph-name="H" unicode="H" horiz-adv-x="669" 
d="M132 0h-58q3 42 3 145v361q0 138 -3 179h58q-3 -41 -3 -179v-113h411v113q0 137 -3 179h59q-3 -66 -3 -179v-362q0 -102 3 -144h-59q3 42 3 145v204h-411v-205q0 -102 3 -144z" />
    <glyph glyph-name="I" unicode="I" horiz-adv-x="215" 
d="M133 506v-327q0 -117 4 -179h-60q4 62 4 179v327q0 119 -4 179h60q-4 -60 -4 -179z" />
    <glyph glyph-name="J" unicode="J" horiz-adv-x="212" 
d="M134 506v-505q0 -84 -44.5 -130.5t-112.5 -46.5q-13 0 -26 2t-27.5 6t-21.5 5v64q25 -32 73 -32q45 0 76 36t31 94v507q0 119 -4 179h59q-3 -45 -3 -179z" />
    <glyph glyph-name="K" unicode="K" horiz-adv-x="533" 
d="M181 353l246 -252q39 -41 106 -101h-85q-32 41 -69 79l-250 258v-158q0 -86 3 -179h-59q3 46 3 179v327q0 134 -3 179h59q-3 -90 -3 -179v-148l199 217q64 69 96 110h71q-40 -37 -115 -118z" />
    <glyph glyph-name="L" unicode="L" horiz-adv-x="437" 
d="M129 506v-462h128q96 0 156 4v-52q-60 4 -156 4h-184q3 82 3 179v327q0 134 -3 179h59q-3 -90 -3 -179z" />
    <glyph glyph-name="M" unicode="M" horiz-adv-x="802" 
d="M95 0h-59q16 97 26 181l65 518h14l263 -612l265 612h17l51 -544q9 -92 21 -155h-64q0 46 -8 143l-36 420l-243 -574h-12l-240 573l-47 -405q-12 -111 -13 -157z" />
    <glyph glyph-name="N" unicode="N" horiz-adv-x="686" 
d="M130 0h-57q3 42 3 145v364q0 111 -3 192h13q23 -32 73 -92l400 -496v393q0 116 -3 179h57q-3 -66 -3 -179v-377q0 -83 3 -141h-13q-24 33 -68 87l-404 502l-2 -433q0 -88 4 -144z" />
    <glyph glyph-name="O" unicode="O" horiz-adv-x="787" 
d="M45 343q0 146 101.5 250t246.5 104t247.5 -104t102.5 -250t-102.5 -250t-247.5 -104t-246.5 104t-101.5 250zM99 343q0 -128 86 -218.5t208 -90.5t209 90.5t87 218.5q0 127 -87 217.5t-209 90.5t-208 -90.5t-86 -217.5z" />
    <glyph glyph-name="P" unicode="P" horiz-adv-x="449" 
d="M129 280v-101q0 -133 3 -179h-59q4 41 4 179v352q0 114 -4 154h126q99 0 158 -57t59 -145q0 -86 -62.5 -144.5t-157.5 -58.5h-67zM129 644v-323h66q71 0 119 49.5t48 113.5q0 68 -45.5 114t-122.5 46h-65z" />
    <glyph glyph-name="Q" unicode="Q" horiz-adv-x="787" 
d="M45 343q0 146 102 250t246 104q145 0 247.5 -104t102.5 -250q0 -101 -46.5 -177t-111.5 -119q39 -32 97 -69q115 -67 214 -67q47 0 78 8v-43q-38 -10 -88 -10q-118 0 -242 78q-50 30 -110 78q-59 -33 -141 -33q-144 0 -246 104t-102 250zM99 343q0 -127 86 -217.5
t208 -90.5t209 90.5t87 217.5t-87 217.5t-209 90.5q-121 0 -207.5 -90.5t-86.5 -217.5z" />
    <glyph glyph-name="R" unicode="R" horiz-adv-x="517" 
d="M130 294v-123q0 -140 3 -171h-59q4 62 4 171v335q0 119 -4 179h115q107 0 166 -53.5t59 -140.5q0 -74 -38.5 -120t-96.5 -64q6 -7 98.5 -135t137.5 -172h-75q-133 177 -208 297q-19 -3 -38 -3h-64zM130 643v-308h69q70 0 115.5 42.5t45.5 112.5q0 64 -45 108.5t-128 44.5
h-57z" />
    <glyph glyph-name="S" unicode="S" horiz-adv-x="444" 
d="M122 529q0 -44 28 -79t67.5 -60l79 -52t67.5 -69t28 -97q0 -82 -53 -134.5t-139 -52.5q-28 0 -53 4.5t-53 12t-45 10.5v89q17 -31 59.5 -52t93.5 -21q62 0 98 38.5t36 100.5q0 33 -14.5 60.5t-38.5 47.5t-52.5 38.5l-56.5 38.5t-52 42.5t-38.5 56t-14.5 73.5
q0 82 51.5 128.5t131.5 46.5q31 0 74.5 -10t49.5 -11v-86q-20 65 -124 65q-58 0 -94 -33.5t-36 -94.5z" />
    <glyph glyph-name="T" unicode="T" horiz-adv-x="605" 
d="M192 685h219q125 0 171 3v-50q-62 4 -171 4h-81q-1 -37 -1 -129v-334q0 -148 3 -179h-59q3 46 3 179v334q0 74 -3 129h-81q-107 0 -169 -4v50q47 -3 169 -3z" />
    <glyph glyph-name="U" unicode="U" horiz-adv-x="659" 
d="M72 685h59q-3 -41 -3 -179v-230q0 -107 56 -174t146 -67t145.5 67t55.5 174v230q0 137 -3 179h58q-3 -66 -3 -179v-228q0 -132 -69.5 -210.5t-183.5 -78.5t-184.5 78.5t-70.5 210.5v228q0 138 -3 179z" />
    <glyph glyph-name="V" unicode="V" horiz-adv-x="615" 
d="M113 564l197 -479l194 478q37 98 45 122h63q-27 -48 -69 -151l-229 -551h-12l-231 551q-42 102 -69 151h67q9 -30 44 -121z" />
    <glyph glyph-name="W" unicode="W" horiz-adv-x="938" 
d="M878 685h59l-64 -140l-242 -562h-9l-149 345l-150 -345h-9l-247 565q-37 85 -66 137h66q12 -39 49 -123l208 -482l126 301l-71 165q-43 98 -67 139h64q14 -42 54 -135l46 -108l47 113q39 94 52 130h59q-15 -25 -66 -140l-69 -159l128 -305l199 475q21 47 52 129z" />
    <glyph glyph-name="X" unicode="X" horiz-adv-x="486" 
d="M70 0h-69q42 56 94 141l120 201l-117 195q-48 83 -97 148h72q32 -60 70 -122l101 -172l102 172l68 122h69q-34 -43 -97 -147l-115 -191l117 -197q52 -86 99 -150h-71l-74 128l-100 171l-110 -184q-42 -75 -62 -115z" />
    <glyph glyph-name="Y" unicode="Y" horiz-adv-x="556" 
d="M308 0h-58q3 93 3 178v145l-158 232q-46 69 -94 130h70q22 -38 62 -99l147 -215l141 207q48 72 67 107h68q-44 -56 -96 -134l-155 -228v-145q0 -132 3 -178z" />
    <glyph glyph-name="Z" unicode="Z" horiz-adv-x="527" 
d="M401 534l-293 -490h227q119 0 164 3v-50q-45 3 -164 3h-311q28 41 94 152l294 490h-200q-131 0 -171 -4v50q45 -3 171 -3h283q-35 -48 -94 -151z" />
    <glyph glyph-name="bracketleft" unicode="[" horiz-adv-x="312" 
d="M71 -182q3 33 3 105v706q0 71 -3 105h138q49 0 83 3v-47q-33 3 -84 3h-89v-835h90q49 0 83 3v-46q-33 3 -84 3h-137z" />
    <glyph glyph-name="backslash" unicode="\" horiz-adv-x="262" 
d="M258 -37h-48l-206 737h48z" />
    <glyph glyph-name="bracketright" unicode="]" horiz-adv-x="312" 
d="M241 -182h-136q-51 0 -84 -3v46q34 -3 83 -3h90v835h-89q-51 0 -84 -3v47q35 -3 83 -3h137q-2 -46 -2 -105v-707q0 -60 2 -104z" />
    <glyph glyph-name="asciicircum" unicode="^" horiz-adv-x="470" 
d="M233 648l-142 -204h-52l190 256h11l189 -256h-54z" />
    <glyph glyph-name="underscore" unicode="_" horiz-adv-x="486" 
d="M11 -70h463v-24h-463v24z" />
    <glyph glyph-name="grave" unicode="`" horiz-adv-x="462" 
d="M110 653l95 -148h-46l-102 148h53z" />
    <glyph glyph-name="a" unicode="a" horiz-adv-x="426" 
d="M398 35v-34q-18 -12 -44 -12q-45 0 -48 54q-37 -54 -116 -54q-69 0 -109 35.5t-40 91.5q0 55 40.5 92t110.5 37q37 0 68.5 -14.5t43.5 -36.5v68q0 146 -122 146q-70 0 -110 -45v57q8 2 27.5 10t42 13.5t48.5 5.5q81 0 121.5 -47t40.5 -147v-188q0 -37 25 -37q13 0 21 5z
M92 118q0 -40 28.5 -65.5t79.5 -25.5q44 0 75.5 26.5t31.5 64.5q0 37 -31.5 63.5t-75.5 26.5q-51 0 -79.5 -26t-28.5 -64z" />
    <glyph glyph-name="b" unicode="b" horiz-adv-x="557" 
d="M123 0h-55q3 31 3 104v597h-45q14 14 26 33h72q-3 -28 -3 -104v-293q23 53 72 82.5t104 29.5q92 0 155.5 -66t63.5 -161q0 -96 -64 -162.5t-157 -66.5q-55 0 -102.5 28t-71.5 80q0 -61 2 -101zM118 221q0 -77 50.5 -131t122.5 -54q71 0 122 54.5t51 130.5t-51.5 130.5
t-123.5 54.5t-121.5 -54t-49.5 -131z" />
    <glyph glyph-name="c" unicode="c" horiz-adv-x="411" 
d="M91 220q0 -76 51 -129.5t123 -53.5q70 0 106 28v-59q-9 -1 -30.5 -5t-39 -6t-38.5 -2q-93 0 -157.5 66t-64.5 161t64.5 162t157.5 67q27 0 60.5 -5.5t45.5 -6.5v-61q-41 29 -104 29q-72 0 -123 -54.5t-51 -130.5z" />
    <glyph glyph-name="d" unicode="d" horiz-adv-x="556" 
d="M488 0h-56q3 30 3 101q-27 -52 -74.5 -80t-100.5 -28q-92 0 -155.5 67t-63.5 163t63 161t158 65q56 0 102 -26.5t71 -78.5v357h-45q14 12 26 33h72q-3 -45 -3 -83v-547q0 -68 3 -104zM438 221q0 77 -49.5 131t-120.5 54q-72 0 -124 -54t-52 -130q0 -77 51.5 -131.5
t124.5 -54.5q70 0 120 54t50 131z" />
    <glyph glyph-name="e" unicode="e" horiz-adv-x="487" 
d="M410 75v-56q-2 0 -49.5 -13.5t-100.5 -13.5q-94 0 -156.5 65.5t-62.5 161.5q0 100 59.5 164.5t146.5 64.5q49 0 89.5 -21.5t63.5 -53.5t35 -64.5t12 -59.5q0 -2 -0.5 -5.5t-0.5 -4.5h-353q-7 -81 43 -143t130 -62q87 0 144 41zM97 277h295q-5 49 -45.5 90.5t-99.5 41.5
q-55 0 -95.5 -37.5t-54.5 -94.5z" />
    <glyph glyph-name="f" unicode="f" horiz-adv-x="255" 
d="M146 0h-56q3 72 3 104v296h-73v42h73v115q0 86 37 134.5t102 48.5q18 0 44.5 -4.5t30.5 -4.5v-56q-20 23 -67 23q-46 0 -71.5 -36.5t-25.5 -102.5v-117h95v-42h-95v-296q0 -68 3 -104z" />
    <glyph glyph-name="g" unicode="g" horiz-adv-x="476" 
d="M387 442h44q0 -44 -40 -75q29 -41 29 -96q0 -75 -53.5 -128t-129.5 -53q-27 0 -58.5 12t-41.5 12q-15 0 -27.5 -17.5t-12.5 -44.5q0 -23 15.5 -41.5t36.5 -18.5q5 0 35 5t54 5q90 0 152.5 -38.5t62.5 -96.5q0 -55 -64 -94.5t-153 -39.5q-91 0 -154.5 38t-63.5 95
q0 66 84 103q-25 8 -39.5 33t-14.5 50q0 27 16.5 52.5t45.5 36.5q-55 53 -55 130q0 74 53 126t129 52t128 -54q22 18 22 47zM106 271q0 -58 38.5 -98.5t91.5 -40.5q55 0 94 40.5t39 98.5q0 57 -38.5 96.5t-94.5 39.5q-54 0 -92 -39.5t-38 -96.5zM69 -133q0 -41 49 -69
t118 -28q68 0 116.5 28t48.5 67t-49 67t-117 28q-69 0 -117.5 -27t-48.5 -66z" />
    <glyph glyph-name="h" unicode="h" horiz-adv-x="475" 
d="M359 104v155q0 68 -31 108t-86 40q-57 0 -89 -41.5t-32 -105.5v-156q0 -70 3 -104h-56q3 34 3 104v597h-45q6 5 14 17t12 16h72q-3 -37 -3 -104v-262q18 38 54 59.5t82 21.5q74 0 113 -52.5t39 -138.5v-154q0 -70 3 -104h-56q3 69 3 104z" />
    <glyph glyph-name="i" unicode="i" horiz-adv-x="196" 
d="M128 0h-56q3 33 3 105v303h-45q13 12 26 34h72q-3 -34 -3 -104v-233q0 -75 3 -105zM66 576q0 14 9 23.5t23 9.5t23.5 -9.5t9.5 -23.5t-9.5 -23t-23.5 -9t-23 9t-9 23z" />
    <glyph glyph-name="j" unicode="j" horiz-adv-x="196" 
d="M-68 -254v50q17 -15 49 -15q43 0 68.5 36t25.5 102v489h-46q8 8 27 34h72q-3 -37 -3 -104v-420q0 -84 -33.5 -131.5t-100.5 -47.5q-18 0 -38 3.5t-21 3.5zM65 576q0 14 9 23.5t23 9.5t23.5 -9.5t9.5 -23.5t-9.5 -23t-23.5 -9q-13 0 -22.5 9t-9.5 23z" />
    <glyph glyph-name="k" unicode="k" horiz-adv-x="400" 
d="M400 0h-74q-21 27 -205 219v-115q0 -70 3 -104h-56q3 34 3 104v597h-45q11 10 25 33h73q-3 -36 -3 -104v-402q154 174 183 214h64q-32 -29 -193 -212q162 -175 225 -230z" />
    <glyph glyph-name="l" unicode="l" horiz-adv-x="192" 
d="M124 0h-56q3 34 3 104v597h-45q11 10 25 33h73q-3 -36 -3 -104v-526q0 -70 3 -104z" />
    <glyph glyph-name="m" unicode="m" horiz-adv-x="706" 
d="M128 0h-56q3 36 3 105v303h-45q13 11 27 34h68v-70q15 36 46 57t73 21q100 0 126 -93q12 41 45.5 67t80.5 26q142 0 142 -177v-168q0 -66 3 -105h-55q2 27 2 105v164q0 139 -102 139q-43 0 -74 -37t-31 -97v-169q0 -72 3 -105h-56q3 34 3 105v172q0 131 -103 131
q-42 0 -72.5 -36t-30.5 -100v-167q0 -69 3 -105z" />
    <glyph glyph-name="n" unicode="n" horiz-adv-x="478" 
d="M128 0h-56q3 45 3 105v303h-45q10 10 26 34h69v-74q16 34 51.5 58t84.5 24q69 0 110 -49.5t41 -138.5v-157q0 -65 4 -105h-57q4 40 4 105v158q0 72 -34.5 108.5t-83.5 36.5q-52 0 -86 -38.5t-34 -100.5v-164q0 -60 3 -105z" />
    <glyph glyph-name="o" unicode="o" horiz-adv-x="532" 
d="M41 221q0 94 66 161t158 67q94 0 160 -66.5t66 -161.5t-66 -161.5t-160 -66.5q-92 0 -158 67t-66 161zM90 221q0 -76 51 -130t124 -54t125 54t52 130t-52 130t-125 54t-124 -54t-51 -130z" />
    <glyph glyph-name="p" unicode="p" horiz-adv-x="560" 
d="M129 -256h-58q4 40 4 104v560h-45q10 10 26 34h69v-106q26 52 72 82.5t103 30.5q91 0 155 -67t64 -161q0 -95 -64 -161.5t-155 -66.5q-58 0 -105 28t-70 80v-253q0 -64 4 -104zM122 221q0 -77 50.5 -131t121.5 -54q72 0 123 54t51 130q0 77 -51.5 131.5t-124.5 54.5
q-70 0 -120 -54.5t-50 -130.5z" />
    <glyph glyph-name="q" unicode="q" horiz-adv-x="558" 
d="M490 -256h-57q4 47 4 116v242q-25 -53 -72.5 -81t-104.5 -28q-91 0 -155 67t-64 161q0 95 63.5 161.5t154.5 66.5q58 0 104.5 -27.5t73.5 -78.5v20q0 47 -3 79h55q-3 -34 -3 -106v-478q0 -67 4 -114zM441 221q0 76 -51.5 130.5t-122.5 54.5q-73 0 -124 -54t-51 -130
q0 -77 51.5 -131.5t125.5 -54.5q71 0 121.5 54t50.5 131z" />
    <glyph glyph-name="r" unicode="r" horiz-adv-x="320" 
d="M130 0h-57q3 52 3 104v304h-43q16 17 24 34h66v-102q12 49 46 79t72 30q17 0 34.5 -2.5t23.5 -2.5v-58q-25 17 -63 17q-42 0 -76 -45.5t-34 -103.5v-150q0 -57 4 -104z" />
    <glyph glyph-name="s" unicode="s" horiz-adv-x="334" 
d="M46 14v78q12 -28 44.5 -46t67.5 -18t57.5 20.5t22.5 54.5q0 29 -18.5 52t-45 39.5l-52.5 34t-44.5 45.5t-18.5 64q0 49 33 80t91 31q22 0 52.5 -7.5t39.5 -8.5v-69q-9 20 -36.5 33t-53.5 13q-37 0 -56 -19t-19 -50q0 -27 18.5 -48.5t44.5 -37.5l52 -33.5t44.5 -47
t18.5 -68.5q0 -52 -35.5 -85t-92.5 -33q-22 0 -43 4.5t-43 12z" />
    <glyph glyph-name="t" unicode="t" horiz-adv-x="283" 
d="M250 47v-51q-6 0 -23 -2t-25 -2q-51 0 -82 33.5t-31 107.5v267h-73v42h73v23q0 52 -3 88h56q-3 -36 -3 -88v-23h125v-42h-125v-259q0 -106 74 -106q25 0 37 12z" />
    <glyph glyph-name="u" unicode="u" horiz-adv-x="481" 
d="M423 0h-48q-15 28 -15 73q-40 -81 -134 -81q-68 0 -110.5 45.5t-42.5 129.5v241h-45q13 12 26 34h71q-2 -58 -2 -104v-167q0 -67 33 -102t82 -35q55 0 88 41t33 98v165q0 60 -3 104h56q-3 -44 -3 -104v-241q0 -61 14 -97z" />
    <glyph glyph-name="v" unicode="v" horiz-adv-x="415" 
d="M2 442h63q14 -41 26 -70l121 -290l110 271q23 57 32 89h59q-39 -77 -48 -101l-149 -355h-13l-151 353q-21 51 -50 103z" />
    <glyph glyph-name="w" unicode="w" horiz-adv-x="635" 
d="M3 442h61q12 -48 32 -102l92 -254l120 357h22l129 -357l93 277q23 74 23 79h58q-22 -51 -38 -94l-129 -364h-14l-135 371l-126 -371h-15l-132 355q-19 51 -41 103z" />
    <glyph glyph-name="x" unicode="x" horiz-adv-x="354" 
d="M66 0h-63q24 32 72 106l74 114l-73 117q-32 53 -69 105h64q17 -38 46 -83l62 -101l63 101q35 58 47 83h61q-28 -36 -72 -105l-72 -116l73 -114q35 -58 73 -107h-63q-15 31 -34 60l-78 123l-50 -78q-42 -67 -61 -105z" />
    <glyph glyph-name="y" unicode="y" horiz-adv-x="427" 
d="M1 442h64q6 -18 35 -80l126 -243q73 152 107 235q14 34 34 88h60q-11 -20 -50 -107q-67 -158 -132 -279q-51 -97 -164 -273q-16 -26 -30.5 -35.5t-38.5 -9.5q-10 0 -17 4q31 41 61 86q94 145 143 235l-142 276q-35 68 -56 103z" />
    <glyph glyph-name="z" unicode="z" horiz-adv-x="371" 
d="M342 44v-47q-33 3 -84 3h-238l67 106.5l121.5 193l62.5 99.5h-156q-49 0 -83 -3v49q33 -3 84 -3h233l-126 -200t-126 -201h162q49 0 83 3z" />
    <glyph glyph-name="braceleft" unicode="{" horiz-adv-x="317" 
d="M298 736v-41q-16 2 -47 2q-37 0 -66.5 -36.5t-29.5 -85.5q0 -38 4.5 -90t4.5 -90q0 -52 -25.5 -80.5t-53.5 -37.5q16 -5 31.5 -14.5t31.5 -35.5t16 -61q0 -39 -4.5 -94t-4.5 -94q0 -55 29.5 -89t66.5 -34q25 0 47 2v-42q-18 3 -58 3q-53 0 -92 42t-39 116q0 35 4 88t4 95
q0 50 -29.5 74t-72.5 24v39q43 0 72.5 26.5t29.5 81.5q0 36 -4 86t-4 87q0 66 38 111.5t93 45.5q24 0 58 2z" />
    <glyph glyph-name="bar" unicode="|" horiz-adv-x="185" 
d="M114 -185h-44v925h44v-925z" />
    <glyph glyph-name="braceright" unicode="}" horiz-adv-x="317" 
d="M17 -185v42q18 -2 47 -2q37 0 65.5 33.5t28.5 89.5q0 39 -3.5 94t-3.5 94q0 50 25 76.5t53 34.5q-27 9 -52.5 37.5t-25.5 80.5q0 38 3.5 90t3.5 90q0 49 -29 85.5t-65 36.5q-32 0 -47 -2v41q18 -2 57 -2q55 0 93 -45.5t38 -111.5q0 -37 -4 -87t-4 -86q0 -55 29.5 -81.5
t72.5 -26.5v-39q-43 0 -72.5 -24t-29.5 -74q0 -42 4 -95t4 -88q0 -74 -39 -116t-92 -42q-32 0 -57 -3z" />
    <glyph glyph-name="asciitilde" unicode="~" horiz-adv-x="504" 
d="M88 165h-46q4 64 36 103t83 39q31 0 55.5 -16t38.5 -35t35 -35t44 -16q36 0 57 26t24 71h47q-4 -64 -38.5 -102.5t-87.5 -38.5q-32 0 -57.5 16t-39 34.5t-34 34.5t-43.5 16q-32 0 -51.5 -26.5t-22.5 -70.5z" />
    <glyph glyph-name="uni00A0" unicode="&#xa0;" horiz-adv-x="223" 
 />
    <glyph glyph-name="exclamdown" unicode="&#xa1;" horiz-adv-x="284" 
d="M120 164v-279q0 -75 3 -107h-56q3 34 3 107v279q0 72 -3 106h56q-3 -34 -3 -106zM133 413q0 -16 -10 -26.5t-25 -10.5q-16 0 -26.5 10.5t-10.5 26.5q0 15 10.5 25.5t26.5 10.5q15 0 25 -10.5t10 -25.5z" />
    <glyph glyph-name="cent" unicode="&#xa2;" horiz-adv-x="504" 
d="M413 96v-59q-81 -13 -96 -13v-58h-33v59q-86 8 -144 72.5t-58 153.5q0 90 58 155t144 73v72h34l-1 -71q22 -1 51 -6t42 -6v-61q-37 29 -102 29q-73 0 -123.5 -54t-50.5 -131q0 -76 51 -129.5t123 -53.5q71 0 105 28z" />
    <glyph glyph-name="sterling" unicode="&#xa3;" horiz-adv-x="504" 
d="M101 337v36h76l4 41q15 146 67.5 205t138.5 59q19 0 46 -4.5t29 -4.5v-56q-23 23 -77 23q-63 0 -101.5 -51t-51.5 -172l-4 -40h133v-36h-136l-4 -59q-10 -112 -33.5 -164.5t-59.5 -72.5h205q69 0 104 3v-47q-35 3 -104 3h-304v41q58 0 94 51.5t48 184.5l4 60h-74z" />
    <glyph glyph-name="currency" unicode="&#xa4;" horiz-adv-x="504" 
d="M43 99l-29 27l79 79q-44 57 -44 126q0 68 44 123l-82 81l29 28l80 -79q59 49 132 49t131 -48l78 77l28 -27l-77 -80q45 -57 45 -124q0 -69 -45 -127l77 -80l-29 -28l-78 79q-60 -47 -130 -47q-78 0 -131 48zM95 331q0 -67 46 -113.5t111 -46.5t111.5 46.5t46.5 113.5
q0 66 -46.5 112.5t-111.5 46.5t-111 -46.5t-46 -112.5z" />
    <glyph glyph-name="yen" unicode="&#xa5;" horiz-adv-x="504" 
d="M281 0h-59q4 62 4 142v73h-133v32h133v56h-133v32h133v27l-150 221q-50 72 -68 88h68q7 -16 48 -76l130 -185l114 163q52 76 64 98h64q-31 -34 -86 -116l-132 -195v-25h133v-32h-133v-56h133v-32h-133v-73q0 -49 3 -142z" />
    <glyph glyph-name="brokenbar" unicode="&#xa6;" horiz-adv-x="184" 
d="M114 370h-44v370h44v-370zM114 185v-370h-44v370h44z" />
    <glyph glyph-name="section" unicode="&#xa7;" horiz-adv-x="447" 
d="M356 673v-58q-38 44 -119 44q-51 0 -77.5 -24t-26.5 -64q0 -32 27 -57t65 -43t76 -38t65 -54.5t27 -80.5q0 -63 -67 -116q46 -41 46 -102q0 -68 -46 -101.5t-116 -33.5q-32 0 -57.5 5.5t-48 13.5t-31.5 10v69q19 -29 57 -44t79 -15q52 0 83 23.5t31 69.5q0 41 -28 69
t-68.5 45.5l-81 36t-68.5 50.5t-28 79q0 34 22 66t65 49q-18 12 -36.5 38.5t-18.5 58.5q0 62 41.5 95.5t110.5 33.5q28 0 48.5 -3.5t44 -11.5t30.5 -10zM95 363q0 -40 32 -67t89.5 -52.5t78.5 -40.5q51 37 51 91q0 26 -12.5 47.5t-34.5 37.5t-43 27.5t-48.5 24.5t-41.5 21
q-33 -12 -52 -37t-19 -52z" />
    <glyph glyph-name="dieresis" unicode="&#xa8;" horiz-adv-x="462" 
d="M113 577q0 13 9 21.5t22 8.5t21.5 -8.5t8.5 -21.5t-8.5 -21.5t-21.5 -8.5t-22 8.5t-9 21.5zM287 577q0 13 9 21.5t22 8.5t21.5 -8.5t8.5 -21.5t-8.5 -21.5t-21.5 -8.5t-22 8.5t-9 21.5z" />
    <glyph glyph-name="copyright" unicode="&#xa9;" horiz-adv-x="661" 
d="M40 312q0 121 85 207t204 86q121 0 206.5 -85.5t85.5 -207.5t-85.5 -208.5t-206.5 -86.5q-119 0 -204 86.5t-85 208.5zM76 312q0 -108 74 -184.5t179 -76.5q106 0 180.5 76t74.5 185q0 107 -74.5 183.5t-180.5 76.5q-104 0 -178.5 -76.5t-74.5 -183.5zM432 198v-50
q-9 -1 -24.5 -3.5t-29 -4t-29.5 -1.5q-70 0 -119.5 50.5t-49.5 122.5q0 73 49.5 124t119.5 51q22 0 48.5 -4.5t33.5 -5.5v-51q-30 22 -80 22q-53 0 -90.5 -40t-37.5 -96q0 -55 37.5 -95t90.5 -40q52 0 81 21z" />
    <glyph glyph-name="ordfeminine" unicode="&#xaa;" horiz-adv-x="266" 
d="M250 315v-19q-12 -14 -32 -14q-14 0 -23.5 8t-9.5 24q-21 -32 -70 -32q-42 0 -66 21.5t-24 55.5t24.5 57t67.5 23q49 0 65 -30v34q0 37 -18 60t-57 23t-63 -24v41q4 1 16 5.5t24.5 7.5t28.5 3q55 0 81.5 -29t26.5 -91v-101q0 -26 16 -26q9 0 13 3zM67 361q0 -22 15.5 -35
t43.5 -13q24 0 41 13.5t17 34.5q0 19 -17 33t-41 14q-28 0 -43.5 -13.5t-15.5 -33.5z" />
    <glyph glyph-name="guillemotleft" unicode="&#xab;" horiz-adv-x="520" 
d="M96 221l163 -137v-52l-219 184v9l217 186v-52zM271 221l163 -137v-52l-219 184v9l217 186v-52z" />
    <glyph glyph-name="logicalnot" unicode="&#xac;" horiz-adv-x="504" 
d="M433 130h-49v152h-361v42h410v-194z" />
    <glyph glyph-name="uni00AD" unicode="&#xad;" horiz-adv-x="291" 
d="M32 255h226v-45h-226v45z" />
    <glyph glyph-name="registered" unicode="&#xae;" horiz-adv-x="401" 
d="M64 594q0 58 41 99t99 41t99.5 -41t41.5 -99q0 -59 -41.5 -101t-99.5 -42t-99 42t-41 101zM90 594q0 -49 33.5 -84t80.5 -35t80 34.5t33 84.5q0 48 -32.5 81.5t-79.5 33.5t-81 -33.5t-34 -81.5zM184 511h-27q1 8 1 36v86q0 33 -2 43h42q26 0 41.5 -13t15.5 -34
q0 -36 -37 -46q29 -42 57 -72h-38l-42 68h-12v-34q0 -26 1 -34zM183 657v-59h15q14 0 23.5 8.5t8.5 21.5q0 29 -32 29h-15z" />
    <glyph glyph-name="macron" unicode="&#xaf;" horiz-adv-x="462" 
d="M120 580h222v-37h-222v37z" />
    <glyph glyph-name="degree" unicode="&#xb0;" horiz-adv-x="310" 
d="M41 566q0 49 33 82.5t81 33.5q47 0 80 -33.5t33 -82.5q0 -48 -33 -81.5t-80 -33.5q-48 0 -81 33.5t-33 81.5zM79 566q0 -34 22 -57t54 -23t54 23t22 57q0 33 -22.5 56.5t-53.5 23.5t-53.5 -23.5t-22.5 -56.5z" />
    <glyph glyph-name="plusminus" unicode="&#xb1;" horiz-adv-x="504" 
d="M276 515v-179h168v-42h-168v-178h-47v178h-168v42h168v179h47zM61 0v42h383v-42h-383z" />
    <glyph glyph-name="twosuperior" unicode="&#xb2;" horiz-adv-x="315" 
d="M36 449v19q5 5 25 23.5l28 26l26.5 26t27 29l23 27.5t22 29.5t15.5 28t11.5 29.5t3.5 28q0 35 -23.5 61t-58.5 26q-30 0 -55 -13.5t-37 -33.5v55q6 2 22 10t36 14t43 6q52 0 85 -34.5t33 -86.5q0 -71 -98 -170q-13 -14 -64 -63h86q61 0 89 3v-42q-21 2 -94 2h-146z" />
    <glyph glyph-name="threesuperior" unicode="&#xb3;" horiz-adv-x="315" 
d="M134 803q-53 0 -80 -31v48q2 1 18.5 7t32.5 9t35 3q48 0 79.5 -27t31.5 -69q0 -34 -20.5 -58t-52.5 -34q35 -7 59.5 -33.5t24.5 -62.5q0 -49 -34.5 -79.5t-88.5 -30.5q-21 0 -37 3t-34 10t-19 7v47q22 -31 86 -31q36 0 60 21t24 55q0 33 -26.5 55.5t-62.5 22.5
q-3 0 -8 -0.5t-7 -0.5v35q10 -2 15 -2q34 0 56.5 19.5t22.5 50.5q0 29 -21.5 47.5t-53.5 18.5z" />
    <glyph glyph-name="acute" unicode="&#xb4;" horiz-adv-x="462" 
d="M252 505l95 148h52l-102 -148h-45z" />
    <glyph glyph-name="uni00B5" unicode="&#xb5;" horiz-adv-x="484" 
d="M453 35v-34q-24 -12 -43 -12q-23 0 -36 19.5t-14 76.5q-17 -40 -49 -66t-78 -26q-82 0 -119 62q5 -67 5 -213q0 -41 3 -101h-54q3 33 3 104v493q0 59 -3 104h56q-3 -45 -3 -104v-168q2 -133 119 -133q54 0 85.5 43t31.5 96v162q0 59 -3 104h56q-3 -45 -3 -104v-241
q0 -38 5.5 -52.5t19.5 -14.5t21 5z" />
    <glyph glyph-name="paragraph" unicode="&#xb6;" horiz-adv-x="452" 
d="M352 -41h-57q2 116 2 165v91h-10q-106 0 -174.5 68t-68.5 167t68 167t180 68h128v-44h-70v-517q0 -107 2 -165z" />
    <glyph glyph-name="periodcentered" unicode="&#xb7;" horiz-adv-x="172" 
d="M47 237q0 16 11.5 28t27.5 12t27.5 -12t11.5 -28t-11.5 -27.5t-27.5 -11.5t-27.5 11.5t-11.5 27.5z" />
    <glyph glyph-name="cedilla" unicode="&#xb8;" horiz-adv-x="462" 
d="M151 -83l52 83h35l-32 -49q29 -2 48 -20t19 -51t-23 -53.5t-59 -20.5q-28 0 -51 13v40q5 -8 19 -15t30 -7q20 0 33 11.5t13 30.5t-15 31.5t-38 12.5q-21 0 -31 -6z" />
    <glyph glyph-name="onesuperior" unicode="&#xb9;" horiz-adv-x="248" 
d="M163 772v-260q0 -39 2 -63h-45v63v275l-38 -16l-38 -16v36q45 16 105 47h16q-2 -14 -2 -66z" />
    <glyph glyph-name="ordmasculine" unicode="&#xba;" horiz-adv-x="327" 
d="M24 420q0 57 41 98t97 41q59 0 100 -40.5t41 -98.5q0 -56 -41.5 -97t-99.5 -41q-56 0 -97 41t-41 97zM65 420q0 -43 28 -73t69 -30q42 0 71 30t29 73q0 44 -29 74t-71 30q-41 0 -69 -30.5t-28 -73.5z" />
    <glyph glyph-name="guillemotright" unicode="&#xbb;" horiz-adv-x="520" 
d="M248 222l-162 137v51l218 -184v-9l-216 -185v51zM424 222l-163 137v51l219 -184v-9l-217 -185v51z" />
    <glyph glyph-name="onequarter" unicode="&#xbc;" horiz-adv-x="684" 
d="M180 610v-260q0 -39 2 -63h-46q1 13 1 63v275q-8 -3 -39.5 -16.5t-36.5 -15.5v36q33 10 105 47h16q-2 -14 -2 -66zM124 0h-43l442 671h43zM359 136l204 254h17q0 -7 -0.5 -32t-0.5 -39v-167q57 0 71 1v-37q-15 2 -71 2v-53q0 -37 2 -65h-45q1 14 1 65v53h-114h-64v18z
M537 317l-131 -165h131v165z" />
    <glyph glyph-name="onehalf" unicode="&#xbd;" horiz-adv-x="684" 
d="M180 610v-260q0 -39 2 -63h-46q1 13 1 63v275q-8 -3 -39.5 -16.5t-36.5 -15.5v36q33 10 105 47h16q-2 -14 -2 -66zM124 0h-43l442 671h43zM417 0v19q95 89 126 127q56 68 56 120q0 36 -23.5 61.5t-58.5 25.5q-30 0 -55 -13.5t-37 -33.5v56q1 0 35.5 14.5t66.5 14.5
q52 0 84.5 -34.5t32.5 -86.5q0 -28 -12.5 -57t-35 -57t-46.5 -52.5l-54 -53.5q-9 -9 -14 -13h87q59 0 88 3v-42q-21 2 -94 2h-146z" />
    <glyph glyph-name="threequarters" unicode="&#xbe;" horiz-adv-x="684" 
d="M131 641q-53 0 -80 -31v48q2 1 18.5 7t32.5 9t35 3q48 0 79.5 -27t31.5 -70q0 -33 -20.5 -57.5t-52.5 -33.5q35 -8 59.5 -34.5t24.5 -61.5q0 -49 -34.5 -79.5t-88.5 -30.5q-21 0 -37 3t-34 10t-19 7v47q22 -31 85 -31q37 0 61 21t24 55q0 33 -26.5 55.5t-62.5 22.5
q-3 0 -8 -0.5t-7 -0.5v35q10 -2 15 -2q34 0 56.5 19.5t22.5 50.5q0 29 -21.5 47.5t-53.5 18.5zM154 0h-43l442 671h43zM361 136l204 254h17q0 -7 -0.5 -32t-0.5 -39v-167q57 0 70 1v-37q-14 2 -70 2v-53q0 -37 2 -65h-46q2 14 2 65v53h-114h-64v18zM539 317l-131 -165h131
v165z" />
    <glyph glyph-name="questiondown" unicode="&#xbf;" horiz-adv-x="451" 
d="M266 -172q55 0 111 32v-54q-9 -2 -29.5 -8.5t-43.5 -11t-46 -4.5q-77 0 -125 50t-48 125q0 66 34.5 116t131.5 118q-7 52 -16 91h53q2 -22 15 -106q-100 -72 -131.5 -114.5t-31.5 -99.5t35.5 -95.5t90.5 -38.5zM284 413q0 -16 -10.5 -26.5t-25.5 -10.5t-26 10.5t-11 26.5
q0 15 11 25.5t26 10.5t25.5 -10.5t10.5 -25.5z" />
    <glyph glyph-name="Agrave" unicode="&#xc0;" horiz-adv-x="619" 
d="M619 0h-69q-14 42 -50 126l-59 140h-272l-57 -139q-39 -94 -48 -127h-64q29 55 70 152l230 546h16l231 -546q42 -95 72 -152zM423 309l-118 289l-118 -289h236zM226 838l128 -103h-57l-138 103h67z" />
    <glyph glyph-name="Aacute" unicode="&#xc1;" horiz-adv-x="619" 
d="M619 0h-69q-14 42 -50 126l-59 140h-272l-57 -139q-39 -94 -48 -127h-64q29 55 70 152l230 546h16l231 -546q42 -95 72 -152zM423 309l-118 289l-118 -289h236zM264 735l128 103h67l-138 -103h-57z" />
    <glyph glyph-name="Acircumflex" unicode="&#xc2;" horiz-adv-x="619" 
d="M619 0h-69q-14 42 -50 126l-59 140h-272l-57 -139q-39 -94 -48 -127h-64q29 55 70 152l230 546h16l231 -546q42 -95 72 -152zM423 309l-118 289l-118 -289h236zM308 807l-89 -84h-54l139 126h10l140 -126h-57z" />
    <glyph glyph-name="Atilde" unicode="&#xc3;" horiz-adv-x="619" 
d="M619 0h-69q-14 42 -50 126l-59 140h-272l-57 -139q-39 -94 -48 -127h-64q29 55 70 152l230 546h16l231 -546q42 -95 72 -152zM423 309l-118 289l-118 -289h236zM191 739h-41q-1 41 24 67t68 26q26 0 45 -9.5t28.5 -20.5t24.5 -20.5t34 -9.5q22 0 36.5 15t14.5 41h41
q0 -43 -25 -68t-67 -25q-40 0 -72.5 30.5t-59.5 30.5q-23 0 -37 -16.5t-14 -40.5z" />
    <glyph glyph-name="Adieresis" unicode="&#xc4;" horiz-adv-x="619" 
d="M619 0h-69q-14 42 -50 126l-59 140h-272l-57 -139q-39 -94 -48 -127h-64q29 55 70 152l230 546h16l231 -546q42 -95 72 -152zM423 309l-118 289l-118 -289h236zM188 778q0 13 9.5 22.5t23.5 9.5t23.5 -9.5t9.5 -22.5t-10 -23t-23 -10t-23 10t-10 23zM363 778
q0 13 10 22.5t24 9.5q13 0 22.5 -9.5t9.5 -22.5t-9.5 -23t-22.5 -10t-23.5 10t-10.5 23z" />
    <glyph glyph-name="Aring" unicode="&#xc5;" horiz-adv-x="619" 
d="M317 695l230 -543q42 -95 72 -152h-69q-14 42 -50 126l-59 140h-272l-57 -139q-39 -94 -48 -127h-64q29 55 70 152l229 544q-30 3 -52.5 25.5t-22.5 52.5q0 35 25 58.5t59 23.5q35 0 60 -23.5t25 -58.5q0 -30 -22 -52.5t-54 -26.5zM258 774q0 -21 14.5 -36t35.5 -15
q22 0 36.5 15t14.5 36q0 23 -14.5 38t-36.5 15q-21 0 -35.5 -15.5t-14.5 -37.5zM187 309h236l-118 289z" />
    <glyph glyph-name="AE" unicode="&#xc6;" horiz-adv-x="818" 
d="M67 0h-67q25 34 88 151l285 534h170q95 0 144 3v-50q-41 4 -139 4h-130l41 -299h124q83 0 129 3v-50q-45 3 -123 3h-121l35 -255h136q93 0 138 3v-49q-29 2 -136 2h-184q-7 61 -17 140l-19 133h-214l-76 -145q-48 -88 -64 -128zM376 597l-148 -280h186z" />
    <glyph glyph-name="Ccedilla" unicode="&#xc7;" horiz-adv-x="628" 
d="M601 91v-64q-88 -33 -168 -37l-25 -39q29 -2 48.5 -20.5t19.5 -50.5q0 -33 -24 -54t-60 -21q-28 0 -51 13v41q5 -8 19 -15t30 -7q20 0 32.5 11.5t12.5 29.5q0 20 -14 31.5t-38 11.5q-22 0 -32 -5l45 73q-148 5 -249.5 108t-101.5 246q0 147 106.5 250.5t258.5 103.5
q14 0 28.5 -1t25.5 -2t25.5 -4l22 -4.5t23 -5.5t19.5 -5.5t21 -6.5t19 -6v-65q-67 53 -181 53q-130 0 -222 -89.5t-92 -217.5t92 -218t222 -90q122 0 188 56z" />
    <glyph glyph-name="Egrave" unicode="&#xc8;" horiz-adv-x="435" 
d="M129 348v-304h94q123 0 168 3v-50q-45 3 -168 3h-151q4 110 4 179v328q0 118 -4 178h143q121 0 168 3v-50q-41 4 -168 4h-86v-250h88q105 0 152 3v-50q-46 3 -152 3h-88zM131 838l128 -103h-57l-138 103h67z" />
    <glyph glyph-name="Eacute" unicode="&#xc9;" horiz-adv-x="435" 
d="M129 348v-304h94q123 0 168 3v-50q-45 3 -168 3h-151q4 110 4 179v328q0 118 -4 178h143q121 0 168 3v-50q-41 4 -168 4h-86v-250h88q105 0 152 3v-50q-46 3 -152 3h-88zM175 735l127 103h67l-138 -103h-56z" />
    <glyph glyph-name="Ecircumflex" unicode="&#xca;" horiz-adv-x="435" 
d="M129 348v-304h94q123 0 168 3v-50q-45 3 -168 3h-151q4 110 4 179v328q0 118 -4 178h143q121 0 168 3v-50q-41 4 -168 4h-86v-250h88q105 0 152 3v-50q-46 3 -152 3h-88zM224 807l-90 -84h-53l139 126h9l140 -126h-57z" />
    <glyph glyph-name="Edieresis" unicode="&#xcb;" horiz-adv-x="435" 
d="M129 348v-304h94q123 0 168 3v-50q-45 3 -168 3h-151q4 110 4 179v328q0 118 -4 178h143q121 0 168 3v-50q-41 4 -168 4h-86v-250h88q105 0 152 3v-50q-46 3 -152 3h-88zM108 778q0 13 9.5 22.5t23.5 9.5q13 0 22.5 -9t9.5 -23q0 -13 -9.5 -23t-22.5 -10t-23 10t-10 23z
M283 778q0 13 9.5 22.5t23.5 9.5t23 -9t9 -23q0 -13 -9.5 -23t-22.5 -10t-23 10t-10 23z" />
    <glyph glyph-name="Igrave" unicode="&#xcc;" horiz-adv-x="215" 
d="M133 506v-327q0 -117 4 -179h-60q4 62 4 179v327q0 119 -4 179h60q-4 -60 -4 -179zM27 838l127 -103h-57l-138 103h68z" />
    <glyph glyph-name="Iacute" unicode="&#xcd;" horiz-adv-x="215" 
d="M133 506v-327q0 -117 4 -179h-60q4 62 4 179v327q0 119 -4 179h60q-4 -60 -4 -179zM63 735l127 103h67l-138 -103h-56z" />
    <glyph glyph-name="Icircumflex" unicode="&#xce;" horiz-adv-x="215" 
d="M133 506v-327q0 -117 4 -179h-60q4 62 4 179v327q0 119 -4 179h60q-4 -60 -4 -179zM106 807l-89 -84h-54l139 126h10l140 -126h-57z" />
    <glyph glyph-name="Idieresis" unicode="&#xcf;" horiz-adv-x="215" 
d="M133 506v-327q0 -117 4 -179h-60q4 62 4 179v327q0 119 -4 179h60q-4 -60 -4 -179zM-13 778q0 13 9.5 22.5t23.5 9.5t23 -9t9 -23q0 -13 -9.5 -23t-22.5 -10t-23 10t-10 23zM162 778q0 13 9.5 22.5t23.5 9.5t23.5 -9.5t9.5 -22.5t-10 -23t-23 -10t-23 10t-10 23z" />
    <glyph glyph-name="Eth" unicode="&#xd0;" horiz-adv-x="683" 
d="M122 685h173q141 0 242 -100.5t101 -241.5q0 -142 -101 -242.5t-242 -100.5h-173q5 52 5 179v141h-105v40h105v146q0 129 -5 179zM179 43h113q121 0 206.5 88.5t85.5 211.5t-85.5 211t-207.5 88h-112v-282h163v-40h-163v-277z" />
    <glyph glyph-name="Ntilde" unicode="&#xd1;" horiz-adv-x="686" 
d="M130 0h-57q3 42 3 145v364q0 111 -3 192h13q23 -32 73 -92l400 -496v393q0 116 -3 179h57q-3 -66 -3 -179v-377q0 -83 3 -141h-13q-24 33 -68 87l-404 502l-2 -433q0 -88 4 -144zM226 739h-41q-2 41 23.5 67t68.5 26q26 0 45 -9.5t28.5 -20.5t24.5 -20.5t34 -9.5
q22 0 36.5 15t14.5 41h41q0 -43 -25 -68t-67 -25q-40 0 -72.5 30.5t-59.5 30.5q-23 0 -37 -16.5t-14 -40.5z" />
    <glyph glyph-name="Ograve" unicode="&#xd2;" horiz-adv-x="787" 
d="M45 343q0 146 101.5 250t246.5 104t247.5 -104t102.5 -250t-102.5 -250t-247.5 -104t-246.5 104t-101.5 250zM99 343q0 -128 86 -218.5t208 -90.5t209 90.5t87 218.5q0 127 -87 217.5t-209 90.5t-208 -90.5t-86 -217.5zM313 838l127 -103h-57l-137 103h67z" />
    <glyph glyph-name="Oacute" unicode="&#xd3;" horiz-adv-x="787" 
d="M45 343q0 146 101.5 250t246.5 104t247.5 -104t102.5 -250t-102.5 -250t-247.5 -104t-246.5 104t-101.5 250zM99 343q0 -128 86 -218.5t208 -90.5t209 90.5t87 218.5q0 127 -87 217.5t-209 90.5t-208 -90.5t-86 -217.5zM348 735l128 103h67l-138 -103h-57z" />
    <glyph glyph-name="Ocircumflex" unicode="&#xd4;" horiz-adv-x="787" 
d="M45 343q0 146 101.5 250t246.5 104t247.5 -104t102.5 -250t-102.5 -250t-247.5 -104t-246.5 104t-101.5 250zM99 343q0 -128 86 -218.5t208 -90.5t209 90.5t87 218.5q0 127 -87 217.5t-209 90.5t-208 -90.5t-86 -217.5zM392 807l-89 -84h-54l139 126h10l140 -126h-57z
" />
    <glyph glyph-name="Otilde" unicode="&#xd5;" horiz-adv-x="787" 
d="M45 343q0 146 101.5 250t246.5 104t247.5 -104t102.5 -250t-102.5 -250t-247.5 -104t-246.5 104t-101.5 250zM99 343q0 -128 86 -218.5t208 -90.5t209 90.5t87 218.5q0 127 -87 217.5t-209 90.5t-208 -90.5t-86 -217.5zM276 739h-41q-1 41 24.5 67t68.5 26
q26 0 44.5 -9.5t28 -20.5t24.5 -20.5t34 -9.5q22 0 37 15t15 41h40q0 -43 -25 -68t-67 -25q-32 0 -53 15.5t-38 30.5t-40 15t-37.5 -16.5t-14.5 -40.5z" />
    <glyph glyph-name="Odieresis" unicode="&#xd6;" horiz-adv-x="787" 
d="M45 343q0 146 101.5 250t246.5 104t247.5 -104t102.5 -250t-102.5 -250t-247.5 -104t-246.5 104t-101.5 250zM99 343q0 -128 86 -218.5t208 -90.5t209 90.5t87 218.5q0 127 -87 217.5t-209 90.5t-208 -90.5t-86 -217.5zM272 778q0 13 10 22.5t23 9.5q14 0 23.5 -9.5
t9.5 -22.5t-10 -23t-23 -10t-23 10t-10 23zM448 778q0 13 9.5 22.5t23.5 9.5q13 0 22.5 -9t9.5 -23q0 -13 -9.5 -23t-22.5 -10t-23 10t-10 23z" />
    <glyph glyph-name="multiply" unicode="&#xd7;" horiz-adv-x="504" 
d="M414 382l-133 -133l134 -132l-30 -30l-132 133l-133 -132l-30 29l132 134l-133 132l29 30l133 -133l133 131z" />
    <glyph glyph-name="Oslash" unicode="&#xd8;" horiz-adv-x="787" 
d="M713 685l-76 -88q106 -104 106 -254q0 -146 -102.5 -250t-247.5 -104q-120 0 -213 74l-53 -63h-52l76 89q-106 104 -106 254q0 146 101.5 250t246.5 104q121 0 215 -75l54 63h51zM183 126l393 459q-80 66 -183 66q-122 0 -208 -90.5t-86 -217.5t84 -217zM605 558
l-393 -459q79 -65 181 -65q122 0 209 90.5t87 218.5q0 126 -84 215z" />
    <glyph glyph-name="Ugrave" unicode="&#xd9;" horiz-adv-x="659" 
d="M72 685h59q-3 -41 -3 -179v-230q0 -107 56 -174t146 -67t145.5 67t55.5 174v230q0 137 -3 179h58q-3 -66 -3 -179v-228q0 -132 -69.5 -210.5t-183.5 -78.5t-184.5 78.5t-70.5 210.5v228q0 138 -3 179zM249 838l128 -103h-57l-138 103h67z" />
    <glyph glyph-name="Uacute" unicode="&#xda;" horiz-adv-x="659" 
d="M72 685h59q-3 -41 -3 -179v-230q0 -107 56 -174t146 -67t145.5 67t55.5 174v230q0 137 -3 179h58q-3 -66 -3 -179v-228q0 -132 -69.5 -210.5t-183.5 -78.5t-184.5 78.5t-70.5 210.5v228q0 138 -3 179zM284 735l127 103h68l-138 -103h-57z" />
    <glyph glyph-name="Ucircumflex" unicode="&#xdb;" horiz-adv-x="659" 
d="M72 685h59q-3 -41 -3 -179v-230q0 -107 56 -174t146 -67t145.5 67t55.5 174v230q0 137 -3 179h58q-3 -66 -3 -179v-228q0 -132 -69.5 -210.5t-183.5 -78.5t-184.5 78.5t-70.5 210.5v228q0 138 -3 179zM328 807l-90 -84h-53l139 126h9l140 -126h-57z" />
    <glyph glyph-name="Udieresis" unicode="&#xdc;" horiz-adv-x="659" 
d="M72 685h59q-3 -41 -3 -179v-230q0 -107 56 -174t146 -67t145.5 67t55.5 174v230q0 137 -3 179h58q-3 -66 -3 -179v-228q0 -132 -69.5 -210.5t-183.5 -78.5t-184.5 78.5t-70.5 210.5v228q0 138 -3 179zM210 778q0 13 9.5 22.5t23.5 9.5q13 0 22.5 -9t9.5 -23
q0 -13 -9.5 -23t-22.5 -10t-23 10t-10 23zM385 778q0 13 10 22.5t23 9.5q14 0 23.5 -9.5t9.5 -22.5t-10 -23t-23 -10t-23 10t-10 23z" />
    <glyph glyph-name="Yacute" unicode="&#xdd;" horiz-adv-x="556" 
d="M308 0h-58q3 93 3 178v145l-158 232q-46 69 -94 130h70q22 -38 62 -99l147 -215l141 207q48 72 67 107h68q-44 -56 -96 -134l-155 -228v-145q0 -132 3 -178zM234 735l127 103h67l-138 -103h-56z" />
    <glyph glyph-name="Thorn" unicode="&#xde;" horiz-adv-x="443" 
d="M132 0h-59q4 41 4 141v365q0 126 -4 179h59q-4 -57 -4 -134h64q100 0 158.5 -56.5t58.5 -144.5q0 -86 -63 -144t-159 -58h-58v-17q0 -85 3 -131zM129 509v-320h58q73 0 120.5 48t47.5 113q0 68 -45.5 113.5t-122.5 45.5h-58z" />
    <glyph glyph-name="germandbls" unicode="&#xdf;" horiz-adv-x="502" 
d="M122 0h-56q3 45 3 100v422q0 105 51 161t128 56q75 0 120.5 -47.5t45.5 -118.5q0 -68 -32.5 -114.5t-80.5 -64.5q66 -9 111.5 -62t45.5 -128q0 -91 -56 -153t-141 -62q-33 0 -103 16v71q34 -43 100 -43q65 0 107 50t42 122q0 69 -47 115t-121 46q-18 0 -42 -4v49
q14 -2 37 -2q48 0 89.5 48t41.5 113q0 52 -31.5 89t-84.5 37q-56 0 -93 -43.5t-37 -127.5v-424q0 -56 3 -101z" />
    <glyph glyph-name="agrave" unicode="&#xe0;" horiz-adv-x="426" 
d="M398 35v-34q-18 -12 -44 -12q-45 0 -48 54q-37 -54 -116 -54q-69 0 -109 35.5t-40 91.5q0 55 40.5 92t110.5 37q37 0 68.5 -14.5t43.5 -36.5v68q0 146 -122 146q-70 0 -110 -45v57q8 2 27.5 10t42 13.5t48.5 5.5q81 0 121.5 -47t40.5 -147v-188q0 -37 25 -37q13 0 21 5z
M92 118q0 -40 28.5 -65.5t79.5 -25.5q44 0 75.5 26.5t31.5 64.5q0 37 -31.5 63.5t-75.5 26.5q-51 0 -79.5 -26t-28.5 -64zM130 653l95 -148h-46l-102 148h53z" />
    <glyph glyph-name="aacute" unicode="&#xe1;" horiz-adv-x="426" 
d="M398 35v-34q-18 -12 -44 -12q-45 0 -48 54q-37 -54 -116 -54q-69 0 -109 35.5t-40 91.5q0 55 40.5 92t110.5 37q37 0 68.5 -14.5t43.5 -36.5v68q0 146 -122 146q-70 0 -110 -45v57q8 2 27.5 10t42 13.5t48.5 5.5q81 0 121.5 -47t40.5 -147v-188q0 -37 25 -37q13 0 21 5z
M92 118q0 -40 28.5 -65.5t79.5 -25.5q44 0 75.5 26.5t31.5 64.5q0 37 -31.5 63.5t-75.5 26.5q-51 0 -79.5 -26t-28.5 -64zM159 505l95 148h52l-102 -148h-45z" />
    <glyph glyph-name="acircumflex" unicode="&#xe2;" horiz-adv-x="426" 
d="M398 35v-34q-18 -12 -44 -12q-45 0 -48 54q-37 -54 -116 -54q-69 0 -109 35.5t-40 91.5q0 55 40.5 92t110.5 37q37 0 68.5 -14.5t43.5 -36.5v68q0 146 -122 146q-70 0 -110 -45v57q8 2 27.5 10t42 13.5t48.5 5.5q81 0 121.5 -47t40.5 -147v-188q0 -37 25 -37q13 0 21 5z
M92 118q0 -40 28.5 -65.5t79.5 -25.5q44 0 75.5 26.5t31.5 64.5q0 37 -31.5 63.5t-75.5 26.5q-51 0 -79.5 -26t-28.5 -64zM195 598l-76 -96h-45l118 142h9l115 -142h-46z" />
    <glyph glyph-name="atilde" unicode="&#xe3;" horiz-adv-x="426" 
d="M398 35v-34q-18 -12 -44 -12q-45 0 -48 54q-37 -54 -116 -54q-69 0 -109 35.5t-40 91.5q0 55 40.5 92t110.5 37q37 0 68.5 -14.5t43.5 -36.5v68q0 146 -122 146q-70 0 -110 -45v57q8 2 27.5 10t42 13.5t48.5 5.5q81 0 121.5 -47t40.5 -147v-188q0 -37 25 -37q13 0 21 5z
M92 118q0 -40 28.5 -65.5t79.5 -25.5q44 0 75.5 26.5t31.5 64.5q0 37 -31.5 63.5t-75.5 26.5q-51 0 -79.5 -26t-28.5 -64zM110 524h-36q0 35 20 57.5t53 22.5q25 0 53.5 -24t39.5 -24q19 0 30 12t11 33h35q0 -33 -21 -56.5t-53 -23.5q-28 0 -55.5 24t-39.5 24
q-17 0 -27 -12.5t-10 -32.5z" />
    <glyph glyph-name="adieresis" unicode="&#xe4;" horiz-adv-x="426" 
d="M398 35v-34q-18 -12 -44 -12q-45 0 -48 54q-37 -54 -116 -54q-69 0 -109 35.5t-40 91.5q0 55 40.5 92t110.5 37q37 0 68.5 -14.5t43.5 -36.5v68q0 146 -122 146q-70 0 -110 -45v57q8 2 27.5 10t42 13.5t48.5 5.5q81 0 121.5 -47t40.5 -147v-188q0 -37 25 -37q13 0 21 5z
M92 118q0 -40 28.5 -65.5t79.5 -25.5q44 0 75.5 26.5t31.5 64.5q0 37 -31.5 63.5t-75.5 26.5q-51 0 -79.5 -26t-28.5 -64zM78 577q0 13 9 21.5t22 8.5t21.5 -8.5t8.5 -21.5t-8.5 -21.5t-21.5 -8.5t-22 8.5t-9 21.5zM252 577q0 13 9 21.5t22 8.5t21.5 -8.5t8.5 -21.5
t-8.5 -21.5t-21.5 -8.5t-22 8.5t-9 21.5z" />
    <glyph glyph-name="aring" unicode="&#xe5;" horiz-adv-x="426" 
d="M398 35v-34q-18 -12 -44 -12q-45 0 -48 54q-37 -54 -116 -54q-69 0 -109 35.5t-40 91.5q0 55 40.5 92t110.5 37q37 0 68.5 -14.5t43.5 -36.5v68q0 146 -122 146q-70 0 -110 -45v57q8 2 27.5 10t42 13.5t48.5 5.5q81 0 121.5 -47t40.5 -147v-188q0 -37 25 -37q13 0 21 5z
M92 118q0 -40 28.5 -65.5t79.5 -25.5q44 0 75.5 26.5t31.5 64.5q0 37 -31.5 63.5t-75.5 26.5q-51 0 -79.5 -26t-28.5 -64zM119 576q0 30 22.5 51.5t53.5 21.5q32 0 54.5 -21.5t22.5 -51.5t-22.5 -51.5t-54.5 -21.5q-31 0 -53.5 21.5t-22.5 51.5zM152 576q0 -18 13 -31
t30 -13q18 0 31 13t13 31t-13 31t-31 13q-17 0 -30 -13t-13 -31z" />
    <glyph glyph-name="ae" unicode="&#xe6;" horiz-adv-x="752" 
d="M703 239h-355q-1 -6 -1 -18q0 -78 50.5 -133t125.5 -55q86 0 145 42v-56q-13 -3 -38.5 -11t-49.5 -12t-59 -4q-71 0 -117 33t-70 79q-4 -48 -41.5 -81.5t-101.5 -33.5q-69 0 -109 34.5t-40 91.5q0 59 40.5 94.5t108.5 35.5q77 0 113 -51v65q0 68 -30.5 108t-93.5 40
q-75 0 -108 -40v58q8 2 27 8.5t40.5 11t46.5 4.5q61 0 100.5 -32.5t45.5 -92.5q19 56 67 90t108 34q41 0 75.5 -15t56 -37.5t37 -50t22 -51.5t6.5 -43q0 -10 -1 -12zM353 277h297q-7 53 -48 92.5t-98 39.5q-55 0 -96 -36t-55 -96zM201 27q46 0 76 26.5t30 63.5
q0 39 -31.5 65t-74.5 26q-50 0 -79.5 -24.5t-29.5 -67.5q0 -38 30 -63.5t79 -25.5z" />
    <glyph glyph-name="ccedilla" unicode="&#xe7;" horiz-adv-x="411" 
d="M371 65v-59q-7 -1 -37.5 -6.5t-51.5 -6.5l-28 -42q29 -2 48 -20t19 -51t-23 -53.5t-59 -20.5q-28 0 -51 13v40q5 -8 19 -15t30 -7q20 0 33 11.5t13 30.5t-15 31.5t-38 12.5q-21 0 -31 -6l48 77q-87 6 -146.5 71t-59.5 155q0 95 64.5 162t157.5 67q27 0 60.5 -5.5
t45.5 -6.5v-61q-41 29 -104 29q-72 0 -123 -54.5t-51 -130.5t51 -129.5t123 -53.5q70 0 106 28z" />
    <glyph glyph-name="egrave" unicode="&#xe8;" horiz-adv-x="487" 
d="M410 75v-56q-2 0 -49.5 -13.5t-100.5 -13.5q-94 0 -156.5 65.5t-62.5 161.5q0 100 59.5 164.5t146.5 64.5q49 0 89.5 -21.5t63.5 -53.5t35 -64.5t12 -59.5q0 -2 -0.5 -5.5t-0.5 -4.5h-353q-7 -81 43 -143t130 -62q87 0 144 41zM97 277h295q-5 49 -45.5 90.5t-99.5 41.5
q-55 0 -95.5 -37.5t-54.5 -94.5zM180 653l95 -148h-45l-102 148h52z" />
    <glyph glyph-name="eacute" unicode="&#xe9;" horiz-adv-x="487" 
d="M410 75v-56q-2 0 -49.5 -13.5t-100.5 -13.5q-94 0 -156.5 65.5t-62.5 161.5q0 100 59.5 164.5t146.5 64.5q49 0 89.5 -21.5t63.5 -53.5t35 -64.5t12 -59.5q0 -2 -0.5 -5.5t-0.5 -4.5h-353q-7 -81 43 -143t130 -62q87 0 144 41zM97 277h295q-5 49 -45.5 90.5t-99.5 41.5
q-55 0 -95.5 -37.5t-54.5 -94.5zM221 505l95 148h52l-102 -148h-45z" />
    <glyph glyph-name="ecircumflex" unicode="&#xea;" horiz-adv-x="487" 
d="M410 75v-56q-2 0 -49.5 -13.5t-100.5 -13.5q-94 0 -156.5 65.5t-62.5 161.5q0 100 59.5 164.5t146.5 64.5q49 0 89.5 -21.5t63.5 -53.5t35 -64.5t12 -59.5q0 -2 -0.5 -5.5t-0.5 -4.5h-353q-7 -81 43 -143t130 -62q87 0 144 41zM97 277h295q-5 49 -45.5 90.5t-99.5 41.5
q-55 0 -95.5 -37.5t-54.5 -94.5zM247 598l-76 -96h-44l117 142h9l116 -142h-47z" />
    <glyph glyph-name="edieresis" unicode="&#xeb;" horiz-adv-x="487" 
d="M410 75v-56q-2 0 -49.5 -13.5t-100.5 -13.5q-94 0 -156.5 65.5t-62.5 161.5q0 100 59.5 164.5t146.5 64.5q49 0 89.5 -21.5t63.5 -53.5t35 -64.5t12 -59.5q0 -2 -0.5 -5.5t-0.5 -4.5h-353q-7 -81 43 -143t130 -62q87 0 144 41zM97 277h295q-5 49 -45.5 90.5t-99.5 41.5
q-55 0 -95.5 -37.5t-54.5 -94.5zM130 577q0 13 9 21.5t22 8.5t21.5 -8.5t8.5 -21.5t-8.5 -21.5t-21.5 -8.5t-22 8.5t-9 21.5zM304 577q0 13 9 21.5t22 8.5t21.5 -8.5t8.5 -21.5t-8.5 -21.5t-21.5 -8.5t-22 8.5t-9 21.5z" />
    <glyph glyph-name="igrave" unicode="&#xec;" horiz-adv-x="196" 
d="M128 0h-56q3 33 3 105v303h-45q7 5 26 34h72q-3 -34 -3 -104v-233q0 -75 3 -105zM33 653l95 -148h-45l-102 148h52z" />
    <glyph glyph-name="iacute" unicode="&#xed;" horiz-adv-x="196" 
d="M128 0h-56q3 33 3 105v303h-45q7 5 26 34h72q-3 -34 -3 -104v-233q0 -75 3 -105zM71 505l95 148h52l-102 -148h-45z" />
    <glyph glyph-name="icircumflex" unicode="&#xee;" horiz-adv-x="196" 
d="M128 0h-56q3 33 3 105v303h-45q7 5 26 34h72q-3 -34 -3 -104v-233q0 -75 3 -105zM99 598l-76 -96h-44l117 142h9l116 -142h-47z" />
    <glyph glyph-name="idieresis" unicode="&#xef;" horiz-adv-x="196" 
d="M128 0h-56q3 33 3 105v303h-45q7 5 26 34h72q-3 -34 -3 -104v-233q0 -75 3 -105zM-18 577q0 13 9 21.5t22 8.5t21.5 -8.5t8.5 -21.5t-8.5 -21.5t-21.5 -8.5t-22 8.5t-9 21.5zM156 577q0 13 9 21.5t22 8.5t21.5 -8.5t8.5 -21.5t-8.5 -21.5t-21.5 -8.5t-22 8.5t-9 21.5z
" />
    <glyph glyph-name="eth" unicode="&#xf0;" horiz-adv-x="543" 
d="M444 668l-85 -52q133 -123 134 -356q0 -117 -65.5 -193.5t-162.5 -76.5q-96 0 -161 66t-65 161q0 96 66 162.5t160 66.5q55 0 102 -24.5t72 -70.5q-21 152 -120 241l-118 -72l-18 29l108 66q-73 55 -183 75v45q135 -26 225 -96l93 57zM266 36q74 0 123.5 58t49.5 141
q0 74 -50 119.5t-123 45.5q-72 0 -123 -53t-51 -129t51 -129t123 -53z" />
    <glyph glyph-name="ntilde" unicode="&#xf1;" horiz-adv-x="478" 
d="M128 0h-56q3 45 3 105v303h-45q10 10 26 34h69v-74q16 34 51.5 58t84.5 24q69 0 110 -49.5t41 -138.5v-157q0 -65 4 -105h-57q4 40 4 105v158q0 72 -34.5 108.5t-83.5 36.5q-52 0 -86 -38.5t-34 -100.5v-164q0 -60 3 -105zM160 524h-37q1 35 20.5 57.5t53.5 22.5
q25 0 53 -24t39 -24q41 0 41 45h36q0 -33 -21.5 -56.5t-53.5 -23.5q-27 0 -54.5 24t-40.5 24q-16 0 -26 -12.5t-10 -32.5z" />
    <glyph glyph-name="ograve" unicode="&#xf2;" horiz-adv-x="532" 
d="M41 221q0 94 66 161t158 67q94 0 160 -66.5t66 -161.5t-66 -161.5t-160 -66.5q-92 0 -158 67t-66 161zM90 221q0 -76 51 -130t124 -54t125 54t52 130t-52 130t-125 54t-124 -54t-51 -130zM197 653l95 -148h-45l-102 148h52z" />
    <glyph glyph-name="oacute" unicode="&#xf3;" horiz-adv-x="532" 
d="M41 221q0 94 66 161t158 67q94 0 160 -66.5t66 -161.5t-66 -161.5t-160 -66.5q-92 0 -158 67t-66 161zM90 221q0 -76 51 -130t124 -54t125 54t52 130t-52 130t-125 54t-124 -54t-51 -130zM238 505l95 148h52l-102 -148h-45z" />
    <glyph glyph-name="ocircumflex" unicode="&#xf4;" horiz-adv-x="532" 
d="M41 221q0 94 66 161t158 67q94 0 160 -66.5t66 -161.5t-66 -161.5t-160 -66.5q-92 0 -158 67t-66 161zM90 221q0 -76 51 -130t124 -54t125 54t52 130t-52 130t-125 54t-124 -54t-51 -130zM265 598l-76 -96h-44l117 142h9l116 -142h-47z" />
    <glyph glyph-name="otilde" unicode="&#xf5;" horiz-adv-x="532" 
d="M41 221q0 94 66 161t158 67q94 0 160 -66.5t66 -161.5t-66 -161.5t-160 -66.5q-92 0 -158 67t-66 161zM90 221q0 -76 51 -130t124 -54t125 54t52 130t-52 130t-125 54t-124 -54t-51 -130zM181 524h-37q1 35 20.5 57.5t53.5 22.5q25 0 53 -24t39 -24q41 0 41 45h36
q0 -33 -21.5 -56.5t-53.5 -23.5q-27 0 -54.5 24t-40.5 24q-16 0 -26 -12.5t-10 -32.5z" />
    <glyph glyph-name="odieresis" unicode="&#xf6;" horiz-adv-x="532" 
d="M41 221q0 94 66 161t158 67q94 0 160 -66.5t66 -161.5t-66 -161.5t-160 -66.5q-92 0 -158 67t-66 161zM90 221q0 -76 51 -130t124 -54t125 54t52 130t-52 130t-125 54t-124 -54t-51 -130zM147 577q0 13 9 21.5t22 8.5t21.5 -8.5t8.5 -21.5t-8.5 -21.5t-21.5 -8.5t-22 8.5
t-9 21.5zM321 577q0 13 9 21.5t22 8.5t21.5 -8.5t8.5 -21.5t-8.5 -21.5t-21.5 -8.5t-22 8.5t-9 21.5z" />
    <glyph glyph-name="divide" unicode="&#xf7;" horiz-adv-x="504" 
d="M76 228v43h351v-43h-351zM216 349q0 14 10 24t24 10q16 0 26.5 -9.5t10.5 -24.5t-10.5 -25.5t-26.5 -10.5q-14 0 -24 10.5t-10 25.5zM216 152q0 14 10 24.5t24 10.5q16 0 26.5 -10.5t10.5 -24.5q0 -15 -10.5 -25.5t-26.5 -10.5q-14 0 -24 10.5t-10 25.5z" />
    <glyph glyph-name="oslash" unicode="&#xf8;" horiz-adv-x="533" 
d="M489 442l-59 -65q61 -66 61 -156q0 -95 -66 -161.5t-160 -66.5q-77 0 -139 49l-38 -42h-40l57 62q-64 66 -64 159q0 94 66 161t158 67q83 0 144 -52l41 45h39zM136 97l241 265q-48 43 -112 43q-72 0 -123 -54t-51 -130q0 -71 45 -124zM398 341l-241 -265q49 -39 108 -39
q73 0 124.5 54t51.5 130q0 69 -43 120z" />
    <glyph glyph-name="ugrave" unicode="&#xf9;" horiz-adv-x="481" 
d="M423 0h-48q-15 28 -15 73q-40 -81 -134 -81q-68 0 -110.5 45.5t-42.5 129.5v241h-45q13 12 26 34h71q-2 -58 -2 -104v-167q0 -67 33 -102t82 -35q55 0 88 41t33 98v165q0 60 -3 104h56q-3 -44 -3 -104v-241q0 -61 14 -97zM170 653l95 -148h-46l-102 148h53z" />
    <glyph glyph-name="uacute" unicode="&#xfa;" horiz-adv-x="481" 
d="M423 0h-48q-15 28 -15 73q-40 -81 -134 -81q-68 0 -110.5 45.5t-42.5 129.5v241h-45q13 12 26 34h71q-2 -58 -2 -104v-167q0 -67 33 -102t82 -35q55 0 88 41t33 98v165q0 60 -3 104h56q-3 -44 -3 -104v-241q0 -61 14 -97zM212 505l95 148h52l-102 -148h-45z" />
    <glyph glyph-name="ucircumflex" unicode="&#xfb;" horiz-adv-x="481" 
d="M423 0h-48q-15 28 -15 73q-40 -81 -134 -81q-68 0 -110.5 45.5t-42.5 129.5v241h-45q13 12 26 34h71q-2 -58 -2 -104v-167q0 -67 33 -102t82 -35q55 0 88 41t33 98v165q0 60 -3 104h56q-3 -44 -3 -104v-241q0 -61 14 -97zM240 598l-76 -96h-44l117 142h9l116 -142h-46z
" />
    <glyph glyph-name="udieresis" unicode="&#xfc;" horiz-adv-x="481" 
d="M423 0h-48q-15 28 -15 73q-40 -81 -134 -81q-68 0 -110.5 45.5t-42.5 129.5v241h-45q13 12 26 34h71q-2 -58 -2 -104v-167q0 -67 33 -102t82 -35q55 0 88 41t33 98v165q0 60 -3 104h56q-3 -44 -3 -104v-241q0 -61 14 -97zM123 577q0 13 9 21.5t22 8.5t21.5 -8.5
t8.5 -21.5t-8.5 -21.5t-21.5 -8.5t-22 8.5t-9 21.5zM297 577q0 13 9 21.5t22 8.5t21.5 -8.5t8.5 -21.5t-8.5 -21.5t-21.5 -8.5t-22 8.5t-9 21.5z" />
    <glyph glyph-name="yacute" unicode="&#xfd;" horiz-adv-x="427" 
d="M1 442h64q6 -18 35 -80l126 -243q73 152 107 235q14 34 34 88h60q-11 -20 -50 -107q-67 -158 -132 -279q-51 -97 -164 -273q-16 -26 -30.5 -35.5t-38.5 -9.5q-10 0 -17 4q31 41 61 86q94 145 143 235l-142 276q-35 68 -56 103zM186 505l95 148h52l-102 -148h-45z" />
    <glyph glyph-name="thorn" unicode="&#xfe;" horiz-adv-x="557" 
d="M125 -256h-57q3 53 3 130v827h-45q18 21 26 33h72q-3 -28 -3 -104v-293q23 53 72 82.5t104 29.5q92 0 155.5 -66t63.5 -161q0 -96 -64.5 -162.5t-156.5 -66.5q-56 0 -103 28.5t-71 80.5l1 -228q0 -78 3 -130zM118 221q0 -77 50.5 -131t122.5 -54q71 0 122 54.5t51 130.5
t-51.5 130.5t-123.5 54.5t-121.5 -54t-49.5 -131z" />
    <glyph glyph-name="ydieresis" unicode="&#xff;" horiz-adv-x="427" 
d="M1 442h64q6 -18 35 -80l126 -243q73 152 107 235q14 34 34 88h60q-11 -20 -50 -107q-67 -158 -132 -279q-51 -97 -164 -273q-16 -26 -30.5 -35.5t-38.5 -9.5q-10 0 -17 4q31 41 61 86q94 145 143 235l-142 276q-35 68 -56 103zM99 577q0 13 9 21.5t22 8.5t21.5 -8.5
t8.5 -21.5t-8.5 -21.5t-21.5 -8.5t-22 8.5t-9 21.5zM273 577q0 13 9 21.5t22 8.5t21.5 -8.5t8.5 -21.5t-8.5 -21.5t-21.5 -8.5t-22 8.5t-9 21.5z" />
    <glyph glyph-name="Amacron" unicode="&#x100;" horiz-adv-x="619" 
d="M619 0h-69q-14 42 -50 126l-59 140h-272l-57 -139q-39 -94 -48 -127h-64q29 55 70 152l230 546h16l231 -546q42 -95 72 -152zM423 309l-118 289l-118 -289h236zM177 786h264v-37h-264v37z" />
    <glyph glyph-name="amacron" unicode="&#x101;" horiz-adv-x="426" 
d="M398 35v-34q-18 -12 -44 -12q-45 0 -48 54q-37 -54 -116 -54q-69 0 -109 35.5t-40 91.5q0 55 40.5 92t110.5 37q37 0 68.5 -14.5t43.5 -36.5v68q0 146 -122 146q-70 0 -110 -45v57q8 2 27.5 10t42 13.5t48.5 5.5q81 0 121.5 -47t40.5 -147v-188q0 -37 25 -37q13 0 21 5z
M92 118q0 -40 28.5 -65.5t79.5 -25.5q44 0 75.5 26.5t31.5 64.5q0 37 -31.5 63.5t-75.5 26.5q-51 0 -79.5 -26t-28.5 -64zM86 580h222v-37h-222v37z" />
    <glyph glyph-name="Abreve" unicode="&#x102;" horiz-adv-x="619" 
d="M619 0h-69q-14 42 -50 126l-59 140h-272l-57 -139q-39 -94 -48 -127h-64q29 55 70 152l230 546h16l231 -546q42 -95 72 -152zM423 309l-118 289l-118 -289h236zM215 832q0 -32 27 -54t66 -22t66 22t27 54h41q0 -48 -39 -79t-95 -31q-57 0 -95.5 30.5t-38.5 79.5h41z" />
    <glyph glyph-name="abreve" unicode="&#x103;" horiz-adv-x="426" 
d="M398 35v-34q-18 -12 -44 -12q-45 0 -48 54q-37 -54 -116 -54q-69 0 -109 35.5t-40 91.5q0 55 40.5 92t110.5 37q37 0 68.5 -14.5t43.5 -36.5v68q0 146 -122 146q-70 0 -110 -45v57q8 2 27.5 10t42 13.5t48.5 5.5q81 0 121.5 -47t40.5 -147v-188q0 -37 25 -37q13 0 21 5z
M92 118q0 -40 28.5 -65.5t79.5 -25.5q44 0 75.5 26.5t31.5 64.5q0 37 -31.5 63.5t-75.5 26.5q-51 0 -79.5 -26t-28.5 -64zM89 614h38q0 -30 21 -50.5t51 -20.5t51 20.5t21 50.5h38q0 -45 -32 -75.5t-78 -30.5t-78 30.5t-32 75.5z" />
    <glyph glyph-name="Aogonek" unicode="&#x104;" horiz-adv-x="619" 
d="M316 698l231 -546q42 -95 72 -152q-70 -34 -117 -80t-47 -89q0 -25 16.5 -40.5t40.5 -15.5q45 0 77 29v-46q-36 -24 -91 -24q-41 0 -67 23.5t-26 63.5q0 88 146 179h-1q-14 42 -50 126l-59 140h-272l-57 -139q-39 -94 -48 -127h-64q29 55 70 152l230 546h16zM187 309h236
l-118 289z" />
    <glyph glyph-name="aogonek" unicode="&#x105;" horiz-adv-x="426" 
d="M398 35v-26q-78 -56 -110 -91.5t-32 -69.5q0 -28 17 -43.5t44 -15.5q32 0 60 25v-41q-29 -22 -72 -22q-44 0 -69.5 23t-25.5 63q0 30 18.5 58.5t39.5 47t66 52.5q-27 9 -28 48q-37 -54 -116 -54q-69 0 -109 35.5t-40 91.5q0 55 40.5 92t110.5 37q37 0 68.5 -14.5
t43.5 -36.5v68q0 146 -122 146q-70 0 -110 -45v57q8 2 27.5 10t42 13.5t48.5 5.5q81 0 121.5 -47t40.5 -147v-188q0 -37 25 -37q13 0 21 5zM92 118q0 -40 28.5 -65.5t79.5 -25.5q44 0 75.5 26.5t31.5 64.5q0 37 -31.5 63.5t-75.5 26.5q-51 0 -79.5 -26t-28.5 -64z" />
    <glyph glyph-name="Cacute" unicode="&#x106;" horiz-adv-x="628" 
d="M601 91v-64q-102 -38 -191 -38q-152 0 -258.5 103.5t-106.5 250.5t106.5 250.5t258.5 103.5q14 0 28.5 -1t25.5 -2t25.5 -4l22 -4.5t23 -5.5t19.5 -5.5t21 -6.5t19 -6v-65q-67 53 -181 53q-130 0 -222 -89.5t-92 -217.5t92 -218t222 -90q122 0 188 56zM357 735l127 103
h67l-137 -103h-57z" />
    <glyph glyph-name="cacute" unicode="&#x107;" horiz-adv-x="411" 
d="M91 220q0 -76 51 -129.5t123 -53.5q70 0 106 28v-59q-9 -1 -30.5 -5t-39 -6t-38.5 -2q-93 0 -157.5 66t-64.5 161t64.5 162t157.5 67q27 0 60.5 -5.5t45.5 -6.5v-61q-41 29 -104 29q-72 0 -123 -54.5t-51 -130.5zM223 505l95 148h52l-102 -148h-45z" />
    <glyph glyph-name="Ccircumflex" unicode="&#x108;" horiz-adv-x="628" 
d="M601 91v-64q-102 -38 -191 -38q-152 0 -258.5 103.5t-106.5 250.5t106.5 250.5t258.5 103.5q14 0 28.5 -1t25.5 -2t25.5 -4l22 -4.5t23 -5.5t19.5 -5.5t21 -6.5t19 -6v-65q-67 53 -181 53q-130 0 -222 -89.5t-92 -217.5t92 -218t222 -90q122 0 188 56zM391 807l-89 -84
h-54l139 126h10l140 -126h-57z" />
    <glyph glyph-name="ccircumflex" unicode="&#x109;" horiz-adv-x="411" 
d="M91 220q0 -76 51 -129.5t123 -53.5q70 0 106 28v-59q-9 -1 -30.5 -5t-39 -6t-38.5 -2q-93 0 -157.5 66t-64.5 161t64.5 162t157.5 67q27 0 60.5 -5.5t45.5 -6.5v-61q-41 29 -104 29q-72 0 -123 -54.5t-51 -130.5zM249 598l-76 -96h-45l118 142h8l116 -142h-46z" />
    <glyph glyph-name="Cdotaccent" unicode="&#x10a;" horiz-adv-x="628" 
d="M601 91v-64q-102 -38 -191 -38q-152 0 -258.5 103.5t-106.5 250.5t106.5 250.5t258.5 103.5q14 0 28.5 -1t25.5 -2t25.5 -4l22 -4.5t23 -5.5t19.5 -5.5t21 -6.5t19 -6v-65q-67 53 -181 53q-130 0 -222 -89.5t-92 -217.5t92 -218t222 -90q122 0 188 56zM369 773
q0 14 10 23.5t25 9.5q14 0 23.5 -10t9.5 -23q0 -14 -10 -24t-23 -10q-15 0 -25 10t-10 24z" />
    <glyph glyph-name="cdotaccent" unicode="&#x10b;" horiz-adv-x="411" 
d="M91 220q0 -76 51 -129.5t123 -53.5q70 0 106 28v-59q-9 -1 -30.5 -5t-39 -6t-38.5 -2q-93 0 -157.5 66t-64.5 161t64.5 162t157.5 67q27 0 60.5 -5.5t45.5 -6.5v-61q-41 29 -104 29q-72 0 -123 -54.5t-51 -130.5zM219 574q0 14 9 23t23 9t23 -9t9 -23t-9.5 -23t-22.5 -9
t-22.5 9t-9.5 23z" />
    <glyph glyph-name="Ccaron" unicode="&#x10c;" horiz-adv-x="628" 
d="M601 91v-64q-102 -38 -191 -38q-152 0 -258.5 103.5t-106.5 250.5t106.5 250.5t258.5 103.5q14 0 28.5 -1t25.5 -2t25.5 -4l22 -4.5t23 -5.5t19.5 -5.5t21 -6.5t19 -6v-65q-67 53 -181 53q-130 0 -222 -89.5t-92 -217.5t92 -218t222 -90q122 0 188 56zM401 762l90 84h53
l-139 -125h-9l-140 125h57z" />
    <glyph glyph-name="ccaron" unicode="&#x10d;" horiz-adv-x="411" 
d="M91 220q0 -76 51 -129.5t123 -53.5q70 0 106 28v-59q-9 -1 -30.5 -5t-39 -6t-38.5 -2q-93 0 -157.5 66t-64.5 161t64.5 162t157.5 67q27 0 60.5 -5.5t45.5 -6.5v-61q-41 29 -104 29q-72 0 -123 -54.5t-51 -130.5zM250 540l76 96h44l-117 -142h-9l-116 142h47z" />
    <glyph glyph-name="Dcaron" unicode="&#x10e;" horiz-adv-x="634" 
d="M245 0h-173q5 52 5 179v327q0 129 -5 179h173q141 0 242 -100.5t101 -241.5q0 -142 -101 -242.5t-242 -100.5zM130 642v-599h112q121 0 206.5 88.5t85.5 211.5t-85.5 211t-207.5 88h-111zM249 762l90 84h53l-139 -125h-9l-140 125h57z" />
    <glyph glyph-name="dcaron" unicode="&#x10f;" horiz-adv-x="556" 
d="M488 0h-56q3 30 3 101q-27 -52 -74.5 -80t-100.5 -28q-92 0 -155.5 67t-63.5 163t63 161t158 65q56 0 102 -26.5t71 -78.5v357h-45q14 12 26 33h72q-3 -45 -3 -83v-547q0 -68 3 -104zM438 221q0 77 -49.5 131t-120.5 54q-72 0 -124 -54t-52 -130q0 -77 51.5 -131.5
t124.5 -54.5q70 0 120 54t50 131zM538 586l4 154h46l-12 -154h-38z" />
    <glyph glyph-name="Dcroat" unicode="&#x110;" horiz-adv-x="683" 
d="M122 685h173q141 0 242 -100.5t101 -241.5q0 -142 -101 -242.5t-242 -100.5h-173q5 52 5 179v141h-105v40h105v146q0 129 -5 179zM179 43h113q121 0 206.5 88.5t85.5 211.5t-85.5 211t-207.5 88h-112v-282h163v-40h-163v-277z" />
    <glyph glyph-name="dcroat" unicode="&#x111;" horiz-adv-x="569" 
d="M569 541h-84v-437q0 -68 3 -104h-56q3 30 3 101q-27 -52 -74.5 -80t-100.5 -28q-92 0 -155.5 67t-63.5 163t63 161t158 65q56 0 102 -26.5t71 -78.5v197h-201v38h201v122h-45q14 12 26 33h72q-3 -45 -3 -83v-72h84v-38zM268 36q70 0 120 54t50 131t-49.5 131t-120.5 54
q-72 0 -124 -54t-52 -130q0 -77 51.5 -131.5t124.5 -54.5z" />
    <glyph glyph-name="Emacron" unicode="&#x112;" horiz-adv-x="435" 
d="M129 348v-304h94q123 0 168 3v-50q-45 3 -168 3h-151q4 110 4 179v328q0 118 -4 178h143q121 0 168 3v-50q-41 4 -168 4h-86v-250h88q105 0 152 3v-50q-46 3 -152 3h-88zM94 786h265v-37h-265v37z" />
    <glyph glyph-name="emacron" unicode="&#x113;" horiz-adv-x="487" 
d="M410 75v-56q-2 0 -49.5 -13.5t-100.5 -13.5q-94 0 -156.5 65.5t-62.5 161.5q0 100 59.5 164.5t146.5 64.5q49 0 89.5 -21.5t63.5 -53.5t35 -64.5t12 -59.5q0 -2 -0.5 -5.5t-0.5 -4.5h-353q-7 -81 43 -143t130 -62q87 0 144 41zM97 277h295q-5 49 -45.5 90.5t-99.5 41.5
q-55 0 -95.5 -37.5t-54.5 -94.5zM137 580h221v-37h-221v37z" />
    <glyph glyph-name="Ebreve" unicode="&#x114;" horiz-adv-x="435" 
d="M129 348v-304h94q123 0 168 3v-50q-45 3 -168 3h-151q4 110 4 179v328q0 118 -4 178h143q121 0 168 3v-50q-41 4 -168 4h-86v-250h88q105 0 152 3v-50q-46 3 -152 3h-88zM134 832q0 -32 27 -54t66 -22t66 22t27 54h41q0 -48 -39 -79t-95 -31q-57 0 -95.5 30.5t-38.5 79.5
h41z" />
    <glyph glyph-name="ebreve" unicode="&#x115;" horiz-adv-x="487" 
d="M410 75v-56q-2 0 -49.5 -13.5t-100.5 -13.5q-94 0 -156.5 65.5t-62.5 161.5q0 100 59.5 164.5t146.5 64.5q49 0 89.5 -21.5t63.5 -53.5t35 -64.5t12 -59.5q0 -2 -0.5 -5.5t-0.5 -4.5h-353q-7 -81 43 -143t130 -62q87 0 144 41zM97 277h295q-5 49 -45.5 90.5t-99.5 41.5
q-55 0 -95.5 -37.5t-54.5 -94.5zM138 614h38q0 -30 21 -50.5t51 -20.5t51 20.5t21 50.5h38q0 -45 -32 -75.5t-78 -30.5t-78 30.5t-32 75.5z" />
    <glyph glyph-name="Edotaccent" unicode="&#x116;" horiz-adv-x="435" 
d="M129 348v-304h94q123 0 168 3v-50q-45 3 -168 3h-151q4 110 4 179v328q0 118 -4 178h143q121 0 168 3v-50q-41 4 -168 4h-86v-250h88q105 0 152 3v-50q-46 3 -152 3h-88zM193 773q0 14 10 23.5t25 9.5q14 0 23.5 -10t9.5 -23q0 -14 -10 -24t-23 -10q-15 0 -25 10t-10 24z
" />
    <glyph glyph-name="edotaccent" unicode="&#x117;" horiz-adv-x="487" 
d="M410 75v-56q-2 0 -49.5 -13.5t-100.5 -13.5q-94 0 -156.5 65.5t-62.5 161.5q0 100 59.5 164.5t146.5 64.5q49 0 89.5 -21.5t63.5 -53.5t35 -64.5t12 -59.5q0 -2 -0.5 -5.5t-0.5 -4.5h-353q-7 -81 43 -143t130 -62q87 0 144 41zM97 277h295q-5 49 -45.5 90.5t-99.5 41.5
q-55 0 -95.5 -37.5t-54.5 -94.5zM217 574q0 14 9 23t23 9t23 -9t9 -23t-9.5 -23t-22.5 -9t-22.5 9t-9.5 23z" />
    <glyph glyph-name="Eogonek" unicode="&#x118;" horiz-adv-x="435" 
d="M391 47v-47q-63 -34 -107.5 -80t-44.5 -88q0 -25 16.5 -41t40.5 -16q45 0 77 30v-46q-34 -24 -90 -24q-41 0 -67.5 23.5t-26.5 63.5q0 88 145 178h-262q4 110 4 179v328q0 118 -4 178h143q106 0 168 4v-51q-41 4 -168 4h-86v-250h88q105 0 152 3v-50q-46 3 -152 3h-88
v-304h94q123 0 168 3z" />
    <glyph glyph-name="eogonek" unicode="&#x119;" horiz-adv-x="487" 
d="M446 239h-353q-7 -81 43 -143t130 -62q87 0 144 41v-56q-157 -105 -157 -172q0 -27 17 -42.5t43 -15.5q32 0 60 25v-41q-32 -21 -79 -21q-38 0 -62.5 23t-24.5 62q0 71 131 163q-30 -8 -78 -8q-94 0 -156.5 65.5t-62.5 161.5q0 100 59.5 164.5t146.5 64.5
q49 0 89.5 -21.5t63.5 -53.5t35 -64.5t12 -59.5q0 -2 -0.5 -5.5t-0.5 -4.5zM97 277h295q-5 49 -45.5 90.5t-99.5 41.5q-55 0 -95.5 -37.5t-54.5 -94.5z" />
    <glyph glyph-name="Ecaron" unicode="&#x11a;" horiz-adv-x="435" 
d="M129 348v-304h94q123 0 168 3v-50q-45 3 -168 3h-151q4 110 4 179v328q0 118 -4 178h143q121 0 168 3v-50q-41 4 -168 4h-86v-250h88q105 0 152 3v-50q-46 3 -152 3h-88zM228 762l90 84h53l-139 -125h-9l-140 125h57z" />
    <glyph glyph-name="ecaron" unicode="&#x11b;" horiz-adv-x="487" 
d="M410 75v-56q-2 0 -49.5 -13.5t-100.5 -13.5q-94 0 -156.5 65.5t-62.5 161.5q0 100 59.5 164.5t146.5 64.5q49 0 89.5 -21.5t63.5 -53.5t35 -64.5t12 -59.5q0 -2 -0.5 -5.5t-0.5 -4.5h-353q-7 -81 43 -143t130 -62q87 0 144 41zM97 277h295q-5 49 -45.5 90.5t-99.5 41.5
q-55 0 -95.5 -37.5t-54.5 -94.5zM248 540l76 96h45l-118 -142h-9l-115 142h46z" />
    <glyph glyph-name="Gcircumflex" unicode="&#x11c;" horiz-adv-x="663" 
d="M595 195v-172q-90 -34 -185 -34q-158 0 -261.5 103t-103.5 251t103.5 251t260.5 103q93 0 176 -36v-64q-66 53 -175 53q-134 0 -222.5 -89t-88.5 -218t89 -218.5t223 -89.5q94 0 133 25v134q0 63 -4 123h59q-4 -60 -4 -122zM391 807l-90 -84h-54l139 126h10l140 -126h-57
z" />
    <glyph glyph-name="gcircumflex" unicode="&#x11d;" horiz-adv-x="476" 
d="M387 442h44q0 -44 -40 -75q29 -41 29 -96q0 -75 -53.5 -128t-129.5 -53q-27 0 -58.5 12t-41.5 12q-15 0 -27.5 -17.5t-12.5 -44.5q0 -23 15.5 -41.5t36.5 -18.5q5 0 35 5t54 5q90 0 152.5 -38.5t62.5 -96.5q0 -55 -64 -94.5t-153 -39.5q-91 0 -154.5 38t-63.5 95
q0 66 84 103q-25 8 -39.5 33t-14.5 50q0 27 16.5 52.5t45.5 36.5q-55 53 -55 130q0 74 53 126t129 52t128 -54q22 18 22 47zM106 271q0 -58 38.5 -98.5t91.5 -40.5q55 0 94 40.5t39 98.5q0 57 -38.5 96.5t-94.5 39.5q-54 0 -92 -39.5t-38 -96.5zM69 -133q0 -41 49 -69
t118 -28q68 0 116.5 28t48.5 67t-49 67t-117 28q-69 0 -117.5 -27t-48.5 -66zM239 598l-76 -96h-45l118 142h8l116 -142h-46z" />
    <glyph glyph-name="Gbreve" unicode="&#x11e;" horiz-adv-x="663" 
d="M595 195v-172q-90 -34 -185 -34q-158 0 -261.5 103t-103.5 251t103.5 251t260.5 103q93 0 176 -36v-64q-66 53 -175 53q-134 0 -222.5 -89t-88.5 -218t89 -218.5t223 -89.5q94 0 133 25v134q0 63 -4 123h59q-4 -60 -4 -122zM308 832q0 -32 27 -54t66 -22t66 22t27 54h41
q0 -48 -39 -79t-95 -31q-57 0 -95.5 30.5t-38.5 79.5h41z" />
    <glyph glyph-name="gbreve" unicode="&#x11f;" horiz-adv-x="476" 
d="M387 442h44q0 -44 -40 -75q29 -41 29 -96q0 -75 -53.5 -128t-129.5 -53q-27 0 -58.5 12t-41.5 12q-15 0 -27.5 -17.5t-12.5 -44.5q0 -23 15.5 -41.5t36.5 -18.5q5 0 35 5t54 5q90 0 152.5 -38.5t62.5 -96.5q0 -55 -64 -94.5t-153 -39.5q-91 0 -154.5 38t-63.5 95
q0 66 84 103q-25 8 -39.5 33t-14.5 50q0 27 16.5 52.5t45.5 36.5q-55 53 -55 130q0 74 53 126t129 52t128 -54q22 18 22 47zM106 271q0 -58 38.5 -98.5t91.5 -40.5q55 0 94 40.5t39 98.5q0 57 -38.5 96.5t-94.5 39.5q-54 0 -92 -39.5t-38 -96.5zM69 -133q0 -41 49 -69
t118 -28q68 0 116.5 28t48.5 67t-49 67t-117 28q-69 0 -117.5 -27t-48.5 -66zM129 614h38q0 -30 21 -50.5t51 -20.5t51 20.5t21 50.5h38q0 -45 -32 -75.5t-78 -30.5t-78 30.5t-32 75.5z" />
    <glyph glyph-name="Gdotaccent" unicode="&#x120;" horiz-adv-x="663" 
d="M595 195v-172q-90 -34 -185 -34q-158 0 -261.5 103t-103.5 251t103.5 251t260.5 103q93 0 176 -36v-64q-66 53 -175 53q-134 0 -222.5 -89t-88.5 -218t89 -218.5t223 -89.5q94 0 133 25v134q0 63 -4 123h59q-4 -60 -4 -122zM367 773q0 14 10 23.5t24 9.5q13 0 23 -10
t10 -23q0 -14 -10 -24t-23 -10q-14 0 -24 10t-10 24z" />
    <glyph glyph-name="gdotaccent" unicode="&#x121;" horiz-adv-x="476" 
d="M387 442h44q0 -44 -40 -75q29 -41 29 -96q0 -75 -53.5 -128t-129.5 -53q-27 0 -58.5 12t-41.5 12q-15 0 -27.5 -17.5t-12.5 -44.5q0 -23 15.5 -41.5t36.5 -18.5q5 0 35 5t54 5q90 0 152.5 -38.5t62.5 -96.5q0 -55 -64 -94.5t-153 -39.5q-91 0 -154.5 38t-63.5 95
q0 66 84 103q-25 8 -39.5 33t-14.5 50q0 27 16.5 52.5t45.5 36.5q-55 53 -55 130q0 74 53 126t129 52t128 -54q22 18 22 47zM106 271q0 -58 38.5 -98.5t91.5 -40.5q55 0 94 40.5t39 98.5q0 57 -38.5 96.5t-94.5 39.5q-54 0 -92 -39.5t-38 -96.5zM69 -133q0 -41 49 -69
t118 -28q68 0 116.5 28t48.5 67t-49 67t-117 28q-69 0 -117.5 -27t-48.5 -66zM207 574q0 14 9 23t23 9t23.5 -9t9.5 -23q0 -13 -9.5 -22.5t-23.5 -9.5q-13 0 -22.5 9t-9.5 23z" />
    <glyph glyph-name="uni0122" unicode="&#x122;" horiz-adv-x="663" 
d="M595 195v-172q-90 -34 -185 -34q-158 0 -261.5 103t-103.5 251t103.5 251t260.5 103q93 0 176 -36v-64q-66 53 -175 53q-134 0 -222.5 -89t-88.5 -218t89 -218.5t223 -89.5q94 0 133 25v134q0 63 -4 123h59q-4 -60 -4 -122zM379 -79v33q43 -1 71.5 -27t28.5 -66
q0 -37 -26 -61t-65 -24q-23 0 -47 10v36q20 -13 43 -13q22 0 37.5 15t15.5 37q0 25 -17 42.5t-41 17.5z" />
    <glyph glyph-name="uni0123" unicode="&#x123;" horiz-adv-x="476" 
d="M387 442h44q0 -44 -40 -75q29 -41 29 -96q0 -75 -53.5 -128t-129.5 -53q-27 0 -58.5 12t-41.5 12q-15 0 -27.5 -17.5t-12.5 -44.5q0 -23 15.5 -41.5t36.5 -18.5q5 0 35 5t54 5q90 0 152.5 -38.5t62.5 -96.5q0 -55 -64 -94.5t-153 -39.5q-91 0 -154.5 38t-63.5 95
q0 66 84 103q-25 8 -39.5 33t-14.5 50q0 27 16.5 52.5t45.5 36.5q-55 53 -55 130q0 74 53 126t129 52t128 -54q22 18 22 47zM106 271q0 -58 38.5 -98.5t91.5 -40.5q55 0 94 40.5t39 98.5q0 57 -38.5 96.5t-94.5 39.5q-54 0 -92 -39.5t-38 -96.5zM69 -133q0 -41 49 -69
t118 -28q68 0 116.5 28t48.5 67t-49 67t-117 28q-69 0 -117.5 -27t-48.5 -66zM268 519v-32q-44 0 -72.5 26.5t-28.5 66.5q0 37 26 60.5t65 23.5q23 0 47 -9v-37q-22 14 -43 14q-22 0 -37 -15t-15 -37q0 -25 17 -42.5t41 -18.5z" />
    <glyph glyph-name="Hcircumflex" unicode="&#x124;" horiz-adv-x="669" 
d="M132 0h-58q3 42 3 145v361q0 138 -3 179h58q-3 -41 -3 -179v-113h411v113q0 137 -3 179h59q-3 -66 -3 -179v-362q0 -102 3 -144h-59q3 42 3 145v204h-411v-205q0 -102 3 -144zM333 807l-89 -84h-54l139 126h9l140 -126h-56z" />
    <glyph glyph-name="hcircumflex" unicode="&#x125;" horiz-adv-x="475" 
d="M359 104v155q0 68 -31 108t-86 40q-57 0 -89 -41.5t-32 -105.5v-156q0 -70 3 -104h-56q3 34 3 104v597h-45q6 5 14 17t12 16h72q-3 -37 -3 -104v-262q18 38 54 59.5t82 21.5q74 0 113 -52.5t39 -138.5v-154q0 -70 3 -104h-56q3 69 3 104zM92 827l-90 -84h-53l139 126h9
l140 -126h-57z" />
    <glyph glyph-name="Hbar" unicode="&#x126;" horiz-adv-x="675" 
d="M651 499h-54v-355q0 -74 5 -144h-63q4 37 4 145v198h-409v-199q0 -60 3 -144h-61q4 56 4 145v354h-57v38h57q-2 125 -4 148h61q-1 -22 -3 -148h409q0 78 -4 148h63q-3 -58 -5 -148h54v-38zM543 388v111h-409v-111h409z" />
    <glyph glyph-name="hbar" unicode="&#x127;" horiz-adv-x="476" 
d="M413 0h-56q3 69 3 104v155q0 68 -31 108t-86 40q-57 0 -89 -41.5t-32 -105.5v-156q0 -70 3 -104h-56q3 34 3 104v437h-70v38h70v122h-44q6 5 13.5 17t11.5 16h72q-3 -37 -3 -104v-51h174v-38h-174v-173q18 38 54 59.5t82 21.5q74 0 113 -52.5t39 -138.5v-154
q0 -70 3 -104z" />
    <glyph glyph-name="Itilde" unicode="&#x128;" horiz-adv-x="215" 
d="M133 506v-327q0 -117 4 -179h-60q4 62 4 179v327q0 119 -4 179h60q-4 -60 -4 -179zM-10 739h-40q-2 41 23.5 67t68.5 26q26 0 44.5 -9.5t28 -20.5t24.5 -20.5t34 -9.5q22 0 37 15t15 41h40q0 -43 -25 -68t-67 -25q-32 0 -53 15.5t-38 30.5t-40 15t-37.5 -16.5
t-14.5 -40.5z" />
    <glyph glyph-name="itilde" unicode="&#x129;" horiz-adv-x="196" 
d="M128 0h-56q3 33 3 105v303h-45q7 5 26 34h72q-3 -34 -3 -104v-233q0 -75 3 -105zM14 524h-37q1 35 20.5 57.5t53.5 22.5q25 0 53 -24t39 -24q41 0 41 45h36q0 -33 -21.5 -56.5t-53.5 -23.5q-27 0 -54.5 24t-40.5 24q-16 0 -26 -12.5t-10 -32.5z" />
    <glyph glyph-name="Imacron" unicode="&#x12a;" horiz-adv-x="215" 
d="M133 506v-327q0 -117 4 -179h-60q4 62 4 179v327q0 119 -4 179h60q-4 -60 -4 -179zM-26 786h265v-37h-265v37z" />
    <glyph glyph-name="imacron" unicode="&#x12b;" horiz-adv-x="196" 
d="M128 0h-56q3 33 3 105v303h-45q7 5 26 34h72q-3 -34 -3 -104v-233q0 -75 3 -105zM-13 580h221v-37h-221v37z" />
    <glyph glyph-name="Ibreve" unicode="&#x12c;" horiz-adv-x="215" 
d="M133 506v-327q0 -117 4 -179h-60q4 62 4 179v327q0 119 -4 179h60q-4 -60 -4 -179zM14 832q0 -32 27.5 -54t66.5 -22q38 0 65 22t27 54h41q0 -49 -38.5 -79.5t-94.5 -30.5q-57 0 -96 30.5t-39 79.5h41z" />
    <glyph glyph-name="ibreve" unicode="&#x12d;" horiz-adv-x="196" 
d="M128 0h-56q3 33 3 105v303h-45q7 5 26 34h72q-3 -34 -3 -104v-233q0 -75 3 -105zM-12 614h38q0 -30 21 -50.5t51 -20.5t51 20.5t21 50.5h38q0 -45 -32 -75.5t-78 -30.5t-78 30.5t-32 75.5z" />
    <glyph glyph-name="Iogonek" unicode="&#x12e;" horiz-adv-x="215" 
d="M133 506v-327q0 -117 4 -179q-144 -86 -144 -168q0 -25 17.5 -41t42.5 -16q42 0 74 30v-46q-34 -24 -88 -24q-42 0 -69 23.5t-27 63.5q0 84 134 178q4 64 4 179v327q0 119 -4 179h60q-4 -60 -4 -179z" />
    <glyph glyph-name="iogonek" unicode="&#x12f;" horiz-adv-x="196" 
d="M98 544q-14 0 -23 9t-9 23t9 23.5t23 9.5t23.5 -9.5t9.5 -23.5t-9.5 -23t-23.5 -9zM56 442h72q-3 -34 -3 -104v-233q0 -75 3 -105q-63 -43 -95 -79t-32 -74q0 -27 17.5 -42.5t43.5 -15.5q31 0 60 25v-41q-34 -21 -80 -21q-38 0 -62.5 23t-24.5 63q0 45 30 81.5t87 80.5
q3 33 3 105v303h-45q13 12 26 34z" />
    <glyph glyph-name="Idotaccent" unicode="&#x130;" horiz-adv-x="215" 
d="M133 506v-327q0 -117 4 -179h-60q4 62 4 179v327q0 119 -4 179h60q-4 -60 -4 -179zM73 773q0 14 10 23.5t24 9.5t23.5 -9.5t9.5 -23.5t-9.5 -24t-23.5 -10t-24 10t-10 24z" />
    <glyph glyph-name="dotlessi" unicode="&#x131;" horiz-adv-x="196" 
d="M128 0h-56q3 33 3 105v303h-45q7 5 26 34h72q-3 -34 -3 -104v-233q0 -75 3 -105z" />
    <glyph glyph-name="IJ" unicode="&#x132;" horiz-adv-x="427" 
d="M133 506v-327q0 -117 4 -179h-60q4 62 4 179v327q0 119 -4 179h60q-4 -60 -4 -179zM349 506v-505q0 -84 -44.5 -130.5t-112.5 -46.5q-13 0 -26 2t-27.5 6t-21.5 5v64q25 -32 73 -32q45 0 75.5 36t30.5 94v507q0 89 -3 179h59q-3 -45 -3 -179z" />
    <glyph glyph-name="ij" unicode="&#x133;" horiz-adv-x="392" 
d="M128 0h-56q3 33 3 105v303h-45q13 12 26 34h72q-3 -34 -3 -104v-233q0 -75 3 -105zM66 576q0 14 9 23.5t23 9.5t23.5 -9.5t9.5 -23.5t-9.5 -23t-23.5 -9t-23 9t-9 23zM128 -254v50q17 -15 48 -15q44 0 69 36t25 102v489h-45q12 12 26 34h72q-3 -38 -3 -104v-420
q0 -85 -33 -132t-100 -47q-19 0 -39 3zM261 576q0 14 9 23.5t23 9.5t23 -9.5t9 -23.5t-9 -23t-23 -9q-13 0 -22.5 9t-9.5 23z" />
    <glyph glyph-name="Jcircumflex" unicode="&#x134;" horiz-adv-x="212" 
d="M134 506v-505q0 -84 -44.5 -130.5t-112.5 -46.5q-13 0 -26 2t-27.5 6t-21.5 5v64q25 -32 73 -32q45 0 76 36t31 94v507q0 119 -4 179h59q-3 -45 -3 -179zM107 807l-89 -84h-54l139 126h10l140 -126h-57z" />
    <glyph glyph-name="jcircumflex" unicode="&#x135;" horiz-adv-x="196" 
d="M-68 -254v50q16 -14 49 -14q43 0 68.5 36t25.5 103v487h-46q10 10 26 34h73q-3 -37 -3 -104v-420q0 -84 -33.5 -131.5t-100.5 -47.5q-19 0 -39 3zM98 598l-76 -96h-44l117 142h9l116 -142h-47z" />
    <glyph glyph-name="uni0136" unicode="&#x136;" horiz-adv-x="533" 
d="M181 353l246 -252q39 -41 106 -101h-85q-32 41 -69 79l-250 258v-158q0 -86 3 -179h-59q3 46 3 179v327q0 134 -3 179h59q-3 -90 -3 -179v-148l199 217q64 69 96 110h71q-40 -37 -115 -118zM232 -79v33q43 -1 71.5 -27t28.5 -66q0 -37 -26 -61t-65 -24q-23 0 -47 10v36
q20 -13 43 -13q22 0 37.5 15t15.5 37q0 25 -17 42.5t-41 17.5z" />
    <glyph glyph-name="uni0137" unicode="&#x137;" horiz-adv-x="400" 
d="M304 442h64q-32 -29 -193 -212q162 -175 225 -230h-74q-21 27 -205 219v-115q0 -70 3 -104h-56q3 34 3 104v597h-45q11 10 25 33h73q-3 -36 -3 -104v-402q154 174 183 214zM179 -79v33q43 -1 71.5 -27t28.5 -66q0 -37 -26 -61t-65 -24q-23 0 -47 10v36q20 -13 43 -13
q22 0 37.5 15t15.5 37q0 25 -17 42.5t-41 17.5z" />
    <glyph glyph-name="kgreenlandic" unicode="&#x138;" horiz-adv-x="403" 
d="M181 229l125 -136q62 -64 97 -93h-76q-14 22 -62 72l-140 146v-99q0 -89 3 -119h-56q3 32 3 119v289h-45q8 8 26 34h19h48h5q-3 -60 -3 -119v-94l149 168q25 28 44 39t43 11q19 0 33 -8q-40 -10 -85 -65z" />
    <glyph glyph-name="Lacute" unicode="&#x139;" horiz-adv-x="437" 
d="M129 506v-462h128q96 0 156 4v-52q-60 4 -156 4h-184q3 82 3 179v327q0 134 -3 179h59q-3 -90 -3 -179zM62 735l127 103h68l-138 -103h-57z" />
    <glyph glyph-name="lacute" unicode="&#x13a;" horiz-adv-x="192" 
d="M124 0h-56q3 34 3 104v597h-45q11 10 25 33h73q-3 -36 -3 -104v-526q0 -70 3 -104zM27 771l127 103h67l-137 -103h-57z" />
    <glyph glyph-name="uni013B" unicode="&#x13b;" horiz-adv-x="437" 
d="M129 506v-462h128q96 0 156 4v-52q-60 4 -156 4h-184q3 82 3 179v327q0 134 -3 179h59q-3 -90 -3 -179zM195 -79v33q43 -1 71.5 -27t28.5 -66q0 -37 -26 -61t-65 -24q-24 0 -47 10v36q20 -13 43 -13q22 0 37.5 15t15.5 37q0 25 -17 42.5t-41 17.5z" />
    <glyph glyph-name="uni013C" unicode="&#x13c;" horiz-adv-x="192" 
d="M124 0h-56q3 34 3 104v597h-45q11 10 25 33h73q-3 -36 -3 -104v-526q0 -70 3 -104zM69 -79v33q43 -1 72 -27t29 -66q0 -37 -26.5 -61t-65.5 -24q-23 0 -46 10v36q20 -13 43 -13q22 0 37 15t15 37q0 25 -17 42.5t-41 17.5z" />
    <glyph glyph-name="Lcaron" unicode="&#x13d;" horiz-adv-x="437" 
d="M129 506v-462h128q96 0 156 4v-52q-60 4 -156 4h-184q3 82 3 179v327q0 134 -3 179h59q-3 -90 -3 -179zM258 586l5 154h46l-12 -154h-39z" />
    <glyph glyph-name="lcaron" unicode="&#x13e;" horiz-adv-x="192" 
d="M124 0h-56q3 34 3 104v597h-45q11 10 25 33h73q-3 -36 -3 -104v-526q0 -70 3 -104zM174 586l4 154h46l-12 -154h-38z" />
    <glyph glyph-name="Ldot" unicode="&#x13f;" horiz-adv-x="437" 
d="M129 506v-462h128q96 0 156 4v-52q-60 4 -156 4h-184q3 82 3 179v327q0 134 -3 179h59q-3 -90 -3 -179zM291 374q0 14 10 24t24 10t23.5 -10t9.5 -24t-10 -23.5t-23 -9.5q-14 0 -24 9.5t-10 23.5z" />
    <glyph glyph-name="ldot" unicode="&#x140;" horiz-adv-x="218" 
d="M176 390q0 13 8 21.5t20 8.5q11 0 19 -8.5t8 -21.5q0 -12 -8 -20.5t-19 -8.5q-12 0 -20 8.5t-8 20.5zM124 0h-56q3 34 3 104v597h-45q11 10 25 33h73q-3 -36 -3 -104v-526q0 -70 3 -104z" />
    <glyph glyph-name="Lslash" unicode="&#x141;" horiz-adv-x="477" 
d="M453 48v-52q-60 4 -156 4h-183q3 82 3 179v105l-93 -55v50l93 54v173q0 134 -3 179h58q-2 -60 -2 -179v-145l180 107v-49l-180 -108v-267h127q96 0 156 4z" />
    <glyph glyph-name="lslash" unicode="&#x142;" horiz-adv-x="279" 
d="M166 0h-56q3 34 3 104v230l-89 -58v46l89 56v323h-45q11 10 25 33h73q-3 -36 -3 -104v-223l92 58v-44l-92 -59v-258q0 -70 3 -104z" />
    <glyph glyph-name="Nacute" unicode="&#x143;" horiz-adv-x="686" 
d="M130 0h-57q3 42 3 145v364q0 111 -3 192h13q23 -32 73 -92l400 -496v393q0 116 -3 179h57q-3 -66 -3 -179v-377q0 -83 3 -141h-13q-24 33 -68 87l-404 502l-2 -433q0 -88 4 -144zM301 735l127 103h67l-138 -103h-56z" />
    <glyph glyph-name="nacute" unicode="&#x144;" horiz-adv-x="478" 
d="M128 0h-56q3 45 3 105v303h-45q10 10 26 34h69v-74q16 34 51.5 58t84.5 24q69 0 110 -49.5t41 -138.5v-157q0 -65 4 -105h-57q4 40 4 105v158q0 72 -34.5 108.5t-83.5 36.5q-52 0 -86 -38.5t-34 -100.5v-164q0 -60 3 -105zM214 505l96 148h51l-102 -148h-45z" />
    <glyph glyph-name="uni0145" unicode="&#x145;" horiz-adv-x="686" 
d="M130 0h-57q3 42 3 145v364q0 111 -3 192h13q23 -32 73 -92l400 -496v393q0 116 -3 179h57q-3 -66 -3 -179v-377q0 -83 3 -141h-13q-24 33 -68 87l-404 502l-2 -433q0 -88 4 -144zM327 -79v33q43 -1 72 -27t29 -66q0 -37 -26.5 -61t-65.5 -24q-23 0 -46 10v36
q20 -13 43 -13q22 0 37 15t15 37q0 25 -17 42.5t-41 17.5z" />
    <glyph glyph-name="uni0146" unicode="&#x146;" horiz-adv-x="478" 
d="M128 0h-56q3 45 3 105v303h-45q10 10 26 34h69v-74q16 34 51.5 58t84.5 24q69 0 110 -49.5t41 -138.5v-157q0 -65 4 -105h-57q4 40 4 105v158q0 72 -34.5 108.5t-83.5 36.5q-52 0 -86 -38.5t-34 -100.5v-164q0 -60 3 -105zM211 -79v33q43 -1 71.5 -27t28.5 -66
q0 -37 -26 -61t-65 -24q-23 0 -46 10v36q20 -13 42 -13t37.5 15t15.5 37q0 25 -17 42.5t-41 17.5z" />
    <glyph glyph-name="Ncaron" unicode="&#x147;" horiz-adv-x="686" 
d="M130 0h-57q3 42 3 145v364q0 111 -3 192h13q23 -32 73 -92l400 -496v393q0 116 -3 179h57q-3 -66 -3 -179v-377q0 -83 3 -141h-13q-24 33 -68 87l-404 502l-2 -433q0 -88 4 -144zM342 762l90 84h53l-139 -125h-9l-140 125h57z" />
    <glyph glyph-name="ncaron" unicode="&#x148;" horiz-adv-x="478" 
d="M128 0h-56q3 45 3 105v303h-45q10 10 26 34h69v-74q16 34 51.5 58t84.5 24q69 0 110 -49.5t41 -138.5v-157q0 -65 4 -105h-57q4 40 4 105v158q0 72 -34.5 108.5t-83.5 36.5q-52 0 -86 -38.5t-34 -100.5v-164q0 -60 3 -105zM246 540l76 96h45l-118 -142h-9l-115 142h46z
" />
    <glyph glyph-name="napostrophe" unicode="&#x149;" horiz-adv-x="478" 
d="M128 0h-56q3 45 3 105v303h-45q10 10 26 34h69v-74q16 34 51.5 58t84.5 24q69 0 110 -49.5t41 -138.5v-157q0 -65 4 -105h-57q4 40 4 105v158q0 72 -34.5 108.5t-83.5 36.5q-52 0 -86 -38.5t-34 -100.5v-164q0 -60 3 -105zM72 492l5 154h46l-12 -154h-39z" />
    <glyph glyph-name="Eng" unicode="&#x14a;" horiz-adv-x="686" 
d="M130 0h-58q4 57 4 206v303q0 109 -3 192h13q24 -36 95 -124l378 -464v393q0 89 -3 179h58q-4 -40 -4 -179v-504q0 -84 -44 -131t-113 -47q-15 0 -74 13v62q25 -32 74 -32q45 0 75.5 36t30.5 94v40l-432 541v-379q0 -136 3 -199z" />
    <glyph glyph-name="eng" unicode="&#x14b;" horiz-adv-x="483" 
d="M127 0h-55q3 45 3 104v304h-45q13 12 26 34h69v-74q14 33 46.5 57t83.5 24q72 0 115 -50.5t43 -132.5v-247q0 -84 -33.5 -131.5t-100.5 -47.5q-14 0 -27 2t-21.5 3.5t-10.5 1.5v50q16 -14 49 -14q43 0 68.5 36t25.5 101v245q0 66 -34 104t-85 38q-55 0 -87 -38.5
t-32 -101.5v-163q0 -44 2 -104z" />
    <glyph glyph-name="Omacron" unicode="&#x14c;" horiz-adv-x="787" 
d="M45 343q0 146 101.5 250t246.5 104t247.5 -104t102.5 -250t-102.5 -250t-247.5 -104t-246.5 104t-101.5 250zM99 343q0 -128 86 -218.5t208 -90.5t209 90.5t87 218.5q0 127 -87 217.5t-209 90.5t-208 -90.5t-86 -217.5zM262 786h264v-37h-264v37z" />
    <glyph glyph-name="omacron" unicode="&#x14d;" horiz-adv-x="532" 
d="M41 221q0 94 66 161t158 67q94 0 160 -66.5t66 -161.5t-66 -161.5t-160 -66.5q-92 0 -158 67t-66 161zM90 221q0 -76 51 -130t124 -54t125 54t52 130t-52 130t-125 54t-124 -54t-51 -130zM154 580h222v-37h-222v37z" />
    <glyph glyph-name="Obreve" unicode="&#x14e;" horiz-adv-x="787" 
d="M45 343q0 146 101.5 250t246.5 104t247.5 -104t102.5 -250t-102.5 -250t-247.5 -104t-246.5 104t-101.5 250zM99 343q0 -128 86 -218.5t208 -90.5t209 90.5t87 218.5q0 127 -87 217.5t-209 90.5t-208 -90.5t-86 -217.5zM301 832q0 -32 27 -54t66 -22q38 0 65.5 22
t27.5 54h41q0 -48 -39 -79t-95 -31q-57 0 -95.5 30.5t-38.5 79.5h41z" />
    <glyph glyph-name="obreve" unicode="&#x14f;" horiz-adv-x="532" 
d="M41 221q0 94 66 161t158 67q94 0 160 -66.5t66 -161.5t-66 -161.5t-160 -66.5q-92 0 -158 67t-66 161zM90 221q0 -76 51 -130t124 -54t125 54t52 130t-52 130t-125 54t-124 -54t-51 -130zM155 614h38q0 -30 21 -50.5t51 -20.5t51 20.5t21 50.5h38q0 -45 -32 -75.5
t-78 -30.5t-78 30.5t-32 75.5z" />
    <glyph glyph-name="Ohungarumlaut" unicode="&#x150;" horiz-adv-x="787" 
d="M45 343q0 146 101.5 250t246.5 104t247.5 -104t102.5 -250t-102.5 -250t-247.5 -104t-246.5 104t-101.5 250zM99 343q0 -128 86 -218.5t208 -90.5t209 90.5t87 218.5q0 127 -87 217.5t-209 90.5t-208 -90.5t-86 -217.5zM300 736l91 133h50l-95 -133h-46zM425 736l91 133
h49l-95 -133h-45z" />
    <glyph glyph-name="ohungarumlaut" unicode="&#x151;" horiz-adv-x="532" 
d="M41 221q0 94 66 161t158 67q94 0 160 -66.5t66 -161.5t-66 -161.5t-160 -66.5q-92 0 -158 67t-66 161zM90 221q0 -76 51 -130t124 -54t125 54t52 130t-52 130t-125 54t-124 -54t-51 -130zM178 505l91 133h50l-96 -133h-45zM302 505l91 133h50l-95 -133h-46z" />
    <glyph glyph-name="OE" unicode="&#x152;" horiz-adv-x="794" 
d="M489 348v-304h102q99 0 159 4v-52q-60 4 -159 4h-172q-164 0 -269 98t-105 245q0 146 104.5 244t268.5 98h173q89 0 151 4v-51q-46 3 -151 3h-102v-249h96q98 0 143 3v-50q-45 3 -143 3h-96zM437 44v597h-20q-138 0 -228 -86.5t-90 -211.5q0 -126 90 -212.5t228 -86.5h20
z" />
    <glyph glyph-name="oe" unicode="&#x153;" horiz-adv-x="883" 
d="M842 239h-355q-1 -6 -1 -17q-1 -80 50.5 -134t127.5 -54q87 0 143 41v-56q-10 -2 -37.5 -10.5t-52 -12.5t-58.5 -4q-73 0 -125.5 39.5t-72.5 104.5q-16 -58 -68.5 -101t-127.5 -43q-93 0 -158.5 66.5t-65.5 162.5q0 94 65.5 161.5t158.5 67.5q73 0 128 -43t70 -99
q13 60 64.5 100t120.5 40q86 0 140 -64.5t54 -133.5v-11zM493 277h296q-6 51 -47.5 91.5t-96.5 40.5q-59 0 -98.5 -36t-53.5 -96zM265 38q73 0 124.5 54t51.5 128q0 76 -51.5 130.5t-124.5 54.5q-71 0 -123 -54t-52 -130q0 -75 51.5 -129t123.5 -54z" />
    <glyph glyph-name="Racute" unicode="&#x154;" horiz-adv-x="517" 
d="M130 294v-123q0 -140 3 -171h-59q4 62 4 171v335q0 119 -4 179h115q107 0 166 -53.5t59 -140.5q0 -74 -38.5 -120t-96.5 -64q6 -7 98.5 -135t137.5 -172h-75q-133 177 -208 297q-19 -3 -38 -3h-64zM130 643v-308h69q70 0 115.5 42.5t45.5 112.5q0 64 -45 108.5t-128 44.5
h-57zM174 735l127 103h67l-138 -103h-56z" />
    <glyph glyph-name="racute" unicode="&#x155;" horiz-adv-x="320" 
d="M130 0h-57q3 52 3 104v304h-43q16 17 24 34h66v-102q12 49 46 79t72 30q17 0 34.5 -2.5t23.5 -2.5v-58q-25 17 -63 17q-42 0 -76 -45.5t-34 -103.5v-150q0 -57 4 -104zM153 505l96 148h51l-102 -148h-45z" />
    <glyph glyph-name="uni0156" unicode="&#x156;" horiz-adv-x="517" 
d="M130 294v-123q0 -140 3 -171h-59q4 62 4 171v335q0 119 -4 179h115q107 0 166 -53.5t59 -140.5q0 -74 -38.5 -120t-96.5 -64q6 -7 98.5 -135t137.5 -172h-75q-133 177 -208 297q-19 -3 -38 -3h-64zM130 643v-308h69q70 0 115.5 42.5t45.5 112.5q0 64 -45 108.5t-128 44.5
h-57zM225 -79v33q43 -1 71.5 -27t28.5 -66q0 -37 -26 -61t-65 -24q-24 0 -47 10v36q20 -13 43 -13q22 0 37.5 15t15.5 37q0 25 -17 42.5t-41 17.5z" />
    <glyph glyph-name="uni0157" unicode="&#x157;" horiz-adv-x="320" 
d="M130 0h-57q3 52 3 104v304h-43q16 17 24 34h66v-102q12 49 46 79t72 30q17 0 34.5 -2.5t23.5 -2.5v-58q-25 17 -63 17q-42 0 -76 -45.5t-34 -103.5v-150q0 -57 4 -104zM81 -79v33q43 -1 72 -27t29 -66q0 -37 -26 -61t-65 -24q-24 0 -47 10v36q20 -13 43 -13q22 0 37 15
t15 37q0 25 -17 42.5t-41 17.5z" />
    <glyph glyph-name="Rcaron" unicode="&#x158;" horiz-adv-x="517" 
d="M130 294v-123q0 -140 3 -171h-59q4 62 4 171v335q0 119 -4 179h115q107 0 166 -53.5t59 -140.5q0 -74 -38.5 -120t-96.5 -64q6 -7 98.5 -135t137.5 -172h-75q-133 177 -208 297q-19 -3 -38 -3h-64zM130 643v-308h69q70 0 115.5 42.5t45.5 112.5q0 64 -45 108.5t-128 44.5
h-57zM219 762l90 84h53l-139 -125h-9l-140 125h57z" />
    <glyph glyph-name="rcaron" unicode="&#x159;" horiz-adv-x="320" 
d="M130 0h-57q3 52 3 104v304h-43q16 17 24 34h66v-102q12 49 46 79t72 30q17 0 34.5 -2.5t23.5 -2.5v-58q-25 17 -63 17q-42 0 -76 -45.5t-34 -103.5v-150q0 -57 4 -104zM163 540l76 96h44l-118 -142h-8l-116 142h46z" />
    <glyph glyph-name="Sacute" unicode="&#x15a;" horiz-adv-x="444" 
d="M122 529q0 -44 28 -79t67.5 -60l79 -52t67.5 -69t28 -97q0 -82 -53 -134.5t-139 -52.5q-28 0 -53 4.5t-53 12t-45 10.5v89q17 -31 59.5 -52t93.5 -21q62 0 98 38.5t36 100.5q0 33 -14.5 60.5t-38.5 47.5t-52.5 38.5l-56.5 38.5t-52 42.5t-38.5 56t-14.5 73.5
q0 82 51.5 128.5t131.5 46.5q31 0 74.5 -10t49.5 -11v-86q-20 65 -124 65q-58 0 -94 -33.5t-36 -94.5zM208 735l127 103h67l-137 -103h-57z" />
    <glyph glyph-name="sacute" unicode="&#x15b;" horiz-adv-x="334" 
d="M46 14v78q12 -28 44.5 -46t67.5 -18t57.5 20.5t22.5 54.5q0 29 -18.5 52t-45 39.5l-52.5 34t-44.5 45.5t-18.5 64q0 49 33 80t91 31q22 0 52.5 -7.5t39.5 -8.5v-69q-9 20 -36.5 33t-53.5 13q-37 0 -56 -19t-19 -50q0 -27 18.5 -48.5t44.5 -37.5l52 -33.5t44.5 -47
t18.5 -68.5q0 -52 -35.5 -85t-92.5 -33q-22 0 -43 4.5t-43 12zM146 505l95 148h52l-102 -148h-45z" />
    <glyph glyph-name="Scircumflex" unicode="&#x15c;" horiz-adv-x="444" 
d="M122 529q0 -44 28 -79t67.5 -60l79 -52t67.5 -69t28 -97q0 -82 -53 -134.5t-139 -52.5q-28 0 -53 4.5t-53 12t-45 10.5v89q17 -31 59.5 -52t93.5 -21q62 0 98 38.5t36 100.5q0 33 -14.5 60.5t-38.5 47.5t-52.5 38.5l-56.5 38.5t-52 42.5t-38.5 56t-14.5 73.5
q0 82 51.5 128.5t131.5 46.5q31 0 74.5 -10t49.5 -11v-86q-20 65 -124 65q-58 0 -94 -33.5t-36 -94.5zM239 807l-89 -84h-54l139 126h9l140 -126h-56z" />
    <glyph glyph-name="scircumflex" unicode="&#x15d;" horiz-adv-x="334" 
d="M46 14v78q12 -28 44.5 -46t67.5 -18t57.5 20.5t22.5 54.5q0 29 -18.5 52t-45 39.5l-52.5 34t-44.5 45.5t-18.5 64q0 49 33 80t91 31q22 0 52.5 -7.5t39.5 -8.5v-69q-9 20 -36.5 33t-53.5 13q-37 0 -56 -19t-19 -50q0 -27 18.5 -48.5t44.5 -37.5l52 -33.5t44.5 -47
t18.5 -68.5q0 -52 -35.5 -85t-92.5 -33q-22 0 -43 4.5t-43 12zM176 598l-76 -96h-45l118 142h8l116 -142h-46z" />
    <glyph glyph-name="uni015E" unicode="&#x15e;" horiz-adv-x="444" 
d="M376 678v-86q-20 65 -124 65q-58 0 -94 -33.5t-36 -94.5q0 -44 28 -79t67.5 -60l79 -52t67.5 -69t28 -97q0 -72 -42.5 -123t-113.5 -61l-24 -37q29 -2 48.5 -20.5t19.5 -50.5q0 -33 -23.5 -54t-59.5 -21q-29 0 -52 13v41q13 -22 50 -22q20 0 32.5 11.5t12.5 29.5
q0 19 -14.5 31t-38.5 12q-22 0 -32 -5l44 69q-28 0 -53 4.5t-52.5 12t-44.5 10.5v89q17 -31 59.5 -52t93.5 -21q62 0 98 38.5t36 100.5q0 33 -14.5 60.5t-38.5 47.5t-52.5 38.5l-56.5 38.5t-52 42.5t-38.5 56t-14.5 73.5q0 82 51.5 128.5t131.5 46.5q31 0 74.5 -10t49.5 -11
z" />
    <glyph glyph-name="uni015F" unicode="&#x15f;" horiz-adv-x="334" 
d="M275 433v-69q-9 20 -36.5 33t-53.5 13q-37 0 -56 -19t-19 -50q0 -27 18.5 -48.5t44.5 -37.5l52 -33.5t44.5 -47t18.5 -68.5q0 -51 -33.5 -83.5t-88.5 -34.5l-24 -37q29 -2 48.5 -20t19.5 -51t-23.5 -53.5t-59.5 -20.5q-28 0 -51 13v40q5 -8 19 -15t30 -7q20 0 33 11.5
t13 30.5q0 20 -14.5 32t-38.5 12q-21 0 -31 -6l46 73q-16 2 -32.5 6.5t-32 10t-22.5 7.5v78q12 -28 44.5 -46t67.5 -18t57.5 20.5t22.5 54.5q0 29 -18.5 52t-45 39.5l-52.5 34t-44.5 45.5t-18.5 64q0 49 33 80t91 31q22 0 52.5 -7.5t39.5 -8.5z" />
    <glyph glyph-name="Scaron" unicode="&#x160;" horiz-adv-x="444" 
d="M122 529q0 -44 28 -79t67.5 -60l79 -52t67.5 -69t28 -97q0 -82 -53 -134.5t-139 -52.5q-28 0 -53 4.5t-53 12t-45 10.5v89q17 -31 59.5 -52t93.5 -21q62 0 98 38.5t36 100.5q0 33 -14.5 60.5t-38.5 47.5t-52.5 38.5l-56.5 38.5t-52 42.5t-38.5 56t-14.5 73.5
q0 82 51.5 128.5t131.5 46.5q31 0 74.5 -10t49.5 -11v-86q-20 65 -124 65q-58 0 -94 -33.5t-36 -94.5zM242 762l90 84h54l-139 -125h-10l-140 125h57z" />
    <glyph glyph-name="scaron" unicode="&#x161;" horiz-adv-x="334" 
d="M46 14v78q12 -28 44.5 -46t67.5 -18t57.5 20.5t22.5 54.5q0 29 -18.5 52t-45 39.5l-52.5 34t-44.5 45.5t-18.5 64q0 49 33 80t91 31q22 0 52.5 -7.5t39.5 -8.5v-69q-9 20 -36.5 33t-53.5 13q-37 0 -56 -19t-19 -50q0 -27 18.5 -48.5t44.5 -37.5l52 -33.5t44.5 -47
t18.5 -68.5q0 -52 -35.5 -85t-92.5 -33q-22 0 -43 4.5t-43 12zM180 540l76 96h44l-117 -142h-9l-116 142h46z" />
    <glyph glyph-name="uni0162" unicode="&#x162;" horiz-adv-x="605" 
d="M192 685h219q125 0 171 3v-50q-62 4 -171 4h-81q-1 -37 -1 -129v-334q0 -148 3 -179h-8l-32 -49q29 -2 48 -20t19 -51t-23 -53.5t-59 -20.5q-28 0 -51 13v40q5 -8 19 -15t30 -7q20 0 33 11.5t13 30.5t-15 31.5t-38 12.5q-21 0 -31 -6l52 83h-16q3 46 3 179v334
q0 74 -3 129h-81q-107 0 -169 -4v50q47 -3 169 -3z" />
    <glyph glyph-name="uni0163" unicode="&#x163;" horiz-adv-x="283" 
d="M264 400h-125v-259q0 -106 74 -106q25 0 37 12v-51q-6 0 -23 -2t-25 -2h-4l-27 -41q29 -2 48.5 -20t19.5 -51t-23.5 -53.5t-59.5 -20.5q-28 0 -51 13v40q5 -8 19 -15t30 -7q20 0 33 11.5t13 30.5q0 20 -14.5 32t-38.5 12q-21 0 -31 -6l50 80q-77 21 -77 136v267h-73v42
h73v23q0 52 -3 88h56q-3 -36 -3 -88v-23h125v-42z" />
    <glyph glyph-name="Tcaron" unicode="&#x164;" horiz-adv-x="605" 
d="M192 685h219q125 0 171 3v-50q-62 4 -171 4h-81q-1 -37 -1 -129v-334q0 -148 3 -179h-59q3 46 3 179v334q0 74 -3 129h-81q-107 0 -169 -4v50q47 -3 169 -3zM303 762l90 84h53l-139 -125h-9l-140 125h57z" />
    <glyph glyph-name="tcaron" unicode="&#x165;" horiz-adv-x="283" 
d="M250 47v-51q-6 0 -23 -2t-25 -2q-51 0 -82 33.5t-31 107.5v267h-73v42h73v23q0 52 -3 88h56q-3 -36 -3 -88v-23h125v-42h-125v-259q0 -106 74 -106q25 0 37 12zM198 514l5 155h46l-12 -155h-39z" />
    <glyph glyph-name="Tbar" unicode="&#x166;" horiz-adv-x="605" 
d="M411 642h-81q-1 -37 -1 -129v-119h141v-40h-141v-175q0 -148 3 -179h-59q3 46 3 179v175h-141v40h141v119q0 74 -3 129h-81q-107 0 -169 -4v50q47 -3 169 -3h219q125 0 171 3v-50q-62 4 -171 4z" />
    <glyph glyph-name="tbar" unicode="&#x167;" horiz-adv-x="283" 
d="M264 400h-125v-118h107v-35h-107v-106q0 -106 74 -106q25 0 37 12v-51q-6 0 -23 -2t-25 -2q-51 0 -82 33.5t-31 107.5v114h-54v35h54v118h-73v42h73v23q0 52 -3 88h56q-3 -36 -3 -88v-23h125v-42z" />
    <glyph glyph-name="Utilde" unicode="&#x168;" horiz-adv-x="659" 
d="M72 685h59q-3 -41 -3 -179v-230q0 -107 56 -174t146 -67t145.5 67t55.5 174v230q0 137 -3 179h58q-3 -66 -3 -179v-228q0 -132 -69.5 -210.5t-183.5 -78.5t-184.5 78.5t-70.5 210.5v228q0 138 -3 179zM216 739h-40q-2 41 23.5 67t68.5 26q26 0 45 -9.5t28.5 -20.5
t24.5 -20.5t33 -9.5q23 0 37.5 15t14.5 41h41q0 -43 -25.5 -68t-67.5 -25q-32 0 -52.5 15.5t-37.5 30.5t-41 15q-23 0 -37.5 -16.5t-14.5 -40.5z" />
    <glyph glyph-name="utilde" unicode="&#x169;" horiz-adv-x="481" 
d="M423 0h-48q-15 28 -15 73q-40 -81 -134 -81q-68 0 -110.5 45.5t-42.5 129.5v241h-45q13 12 26 34h71q-2 -58 -2 -104v-167q0 -67 33 -102t82 -35q55 0 88 41t33 98v165q0 60 -3 104h56q-3 -44 -3 -104v-241q0 -61 14 -97zM157 524h-37q1 35 20.5 57.5t53.5 22.5
q25 0 53 -24t39 -24q41 0 41 45h36q0 -33 -21.5 -56.5t-53.5 -23.5q-27 0 -54.5 24t-40.5 24q-16 0 -26 -12.5t-10 -32.5z" />
    <glyph glyph-name="Umacron" unicode="&#x16a;" horiz-adv-x="659" 
d="M72 685h59q-3 -41 -3 -179v-230q0 -107 56 -174t146 -67t145.5 67t55.5 174v230q0 137 -3 179h58q-3 -66 -3 -179v-228q0 -132 -69.5 -210.5t-183.5 -78.5t-184.5 78.5t-70.5 210.5v228q0 138 -3 179zM197 786h265v-37h-265v37z" />
    <glyph glyph-name="umacron" unicode="&#x16b;" horiz-adv-x="481" 
d="M423 0h-48q-15 28 -15 73q-40 -81 -134 -81q-68 0 -110.5 45.5t-42.5 129.5v241h-45q13 12 26 34h71q-2 -58 -2 -104v-167q0 -67 33 -102t82 -35q55 0 88 41t33 98v165q0 60 -3 104h56q-3 -44 -3 -104v-241q0 -61 14 -97zM130 580h222v-37h-222v37z" />
    <glyph glyph-name="Ubreve" unicode="&#x16c;" horiz-adv-x="659" 
d="M72 685h59q-3 -41 -3 -179v-230q0 -107 56 -174t146 -67t145.5 67t55.5 174v230q0 137 -3 179h58q-3 -66 -3 -179v-228q0 -132 -69.5 -210.5t-183.5 -78.5t-184.5 78.5t-70.5 210.5v228q0 138 -3 179zM236 832q0 -32 27 -54t67 -22q38 0 65 22t27 54h41q0 -48 -39 -79
t-94 -31q-57 0 -96 30.5t-39 79.5h41z" />
    <glyph glyph-name="ubreve" unicode="&#x16d;" horiz-adv-x="481" 
d="M423 0h-48q-15 28 -15 73q-40 -81 -134 -81q-68 0 -110.5 45.5t-42.5 129.5v241h-45q13 12 26 34h71q-2 -58 -2 -104v-167q0 -67 33 -102t82 -35q55 0 88 41t33 98v165q0 60 -3 104h56q-3 -44 -3 -104v-241q0 -61 14 -97zM131 614h38q0 -30 21 -50.5t51 -20.5t51 20.5
t21 50.5h38q0 -45 -32 -75.5t-78 -30.5t-78 30.5t-32 75.5z" />
    <glyph glyph-name="Uring" unicode="&#x16e;" horiz-adv-x="659" 
d="M72 685h59q-3 -41 -3 -179v-230q0 -107 56 -174t146 -67t145.5 67t55.5 174v230q0 137 -3 179h58q-3 -66 -3 -179v-228q0 -132 -69.5 -210.5t-183.5 -78.5t-184.5 78.5t-70.5 210.5v228q0 138 -3 179zM244 813q0 34 25.5 58t59.5 24t59.5 -23.5t25.5 -58.5
q0 -32 -25.5 -56t-59.5 -24q-33 0 -59 24t-26 56zM279 813q0 -21 14.5 -36t35.5 -15t36 15t15 36q0 22 -15 37.5t-36 15.5t-35.5 -15.5t-14.5 -37.5z" />
    <glyph glyph-name="uring" unicode="&#x16f;" horiz-adv-x="481" 
d="M423 0h-48q-15 28 -15 73q-40 -81 -134 -81q-68 0 -110.5 45.5t-42.5 129.5v241h-45q13 12 26 34h71q-2 -58 -2 -104v-167q0 -67 33 -102t82 -35q55 0 88 41t33 98v165q0 60 -3 104h56q-3 -44 -3 -104v-241q0 -61 14 -97zM165 576q0 30 22.5 51.5t53.5 21.5t53.5 -21.5
t22.5 -51.5t-22.5 -51.5t-53.5 -21.5t-53.5 21.5t-22.5 51.5zM198 576q0 -18 12.5 -31t30.5 -13t31 13t13 31t-13 31t-31 13t-30.5 -13t-12.5 -31z" />
    <glyph glyph-name="Uhungarumlaut" unicode="&#x170;" horiz-adv-x="659" 
d="M72 685h59q-3 -41 -3 -179v-230q0 -107 56 -174t146 -67t145.5 67t55.5 174v230q0 137 -3 179h58q-3 -66 -3 -179v-228q0 -132 -69.5 -210.5t-183.5 -78.5t-184.5 78.5t-70.5 210.5v228q0 138 -3 179zM237 736l91 133h50l-96 -133h-45zM361 736l91 133h50l-95 -133h-46z
" />
    <glyph glyph-name="uhungarumlaut" unicode="&#x171;" horiz-adv-x="481" 
d="M423 0h-48q-15 28 -15 73q-40 -81 -134 -81q-68 0 -110.5 45.5t-42.5 129.5v241h-45q13 12 26 34h71q-2 -58 -2 -104v-167q0 -67 33 -102t82 -35q55 0 88 41t33 98v165q0 60 -3 104h56q-3 -44 -3 -104v-241q0 -61 14 -97zM151 505l91 133h50l-96 -133h-45zM276 505
l91 133h49l-95 -133h-45z" />
    <glyph glyph-name="Uogonek" unicode="&#x172;" horiz-adv-x="659" 
d="M417 -195v-46q-33 -24 -89 -24q-43 0 -69 24.5t-26 61.5q0 49 41.5 94t98.5 78q-17 -4 -45 -4q-112 0 -182.5 79t-70.5 210v228q0 143 -4 179h61q-4 -54 -4 -179v-229q0 -108 56.5 -175t145.5 -67q90 0 145.5 67t55.5 175v229q0 123 -4 179h60q-4 -88 -4 -179v-228
q0 -162 -103 -241l-54 -39t-70 -52.5t-48.5 -52.5t-24.5 -62q0 -25 17.5 -40.5t41.5 -15.5q47 2 75 30z" />
    <glyph glyph-name="uogonek" unicode="&#x173;" horiz-adv-x="481" 
d="M409 338v-241q0 -61 14 -97q-141 -82 -141 -153q0 -27 17.5 -42.5t43.5 -15.5q31 0 60 25v-41q-34 -21 -80 -21q-38 0 -62.5 23t-24.5 62q0 78 139 164q-15 28 -15 72q-40 -81 -134 -81q-68 0 -110.5 45.5t-42.5 129.5v241h-45q13 12 26 34h71q-2 -58 -2 -104v-167
q0 -67 33 -102t82 -35q55 0 88 41t33 98v165q0 60 -3 104h56q-3 -44 -3 -104z" />
    <glyph glyph-name="Wcircumflex" unicode="&#x174;" horiz-adv-x="938" 
d="M472 807l-89 -84h-54l139 126h10l140 -126h-57zM878 685h59l-64 -140l-242 -562h-9l-149 345l-150 -345h-9l-247 565q-37 85 -66 137h66q12 -39 49 -123l208 -482l126 301l-71 165q-43 98 -67 139h64q14 -42 54 -135l46 -108l47 113q39 94 52 130h59q-15 -25 -66 -140
l-69 -159l128 -305l199 475q21 47 52 129z" />
    <glyph glyph-name="wcircumflex" unicode="&#x175;" horiz-adv-x="635" 
d="M3 442h61q12 -48 32 -102l92 -254l120 357h22l129 -357l93 277q23 74 23 79h58q-22 -51 -38 -94l-129 -364h-14l-135 371l-126 -371h-15l-132 355q-19 51 -41 103zM318 598l-76 -96h-45l118 142h9l115 -142h-46z" />
    <glyph glyph-name="Ycircumflex" unicode="&#x176;" horiz-adv-x="556" 
d="M308 0h-58q3 93 3 178v145l-158 232q-46 69 -94 130h70q22 -38 62 -99l147 -215l141 207q48 72 67 107h68q-44 -56 -96 -134l-155 -228v-145q0 -132 3 -178zM279 807l-89 -84h-54l139 126h10l140 -126h-57z" />
    <glyph glyph-name="ycircumflex" unicode="&#x177;" horiz-adv-x="427" 
d="M1 442h64q6 -18 35 -80l126 -243q73 152 107 235q14 34 34 88h60q-11 -20 -50 -107q-67 -158 -132 -279q-51 -97 -164 -273q-16 -26 -30.5 -35.5t-38.5 -9.5q-10 0 -17 4q31 41 61 86q94 145 143 235l-142 276q-35 68 -56 103zM215 598l-76 -96h-45l118 142h8l116 -142
h-46z" />
    <glyph glyph-name="Ydieresis" unicode="&#x178;" horiz-adv-x="556" 
d="M308 0h-58q3 93 3 178v145l-158 232q-46 69 -94 130h70q22 -38 62 -99l147 -215l141 207q48 72 67 107h68q-44 -56 -96 -134l-155 -228v-145q0 -132 3 -178zM157 778q0 13 10 22.5t24 9.5q13 0 22.5 -9t9.5 -23q0 -13 -9.5 -23t-22.5 -10t-23.5 10t-10.5 23zM333 778
q0 13 9.5 22.5t23.5 9.5t23 -9t9 -23q0 -13 -9.5 -23t-22.5 -10t-23 10t-10 23z" />
    <glyph glyph-name="Zacute" unicode="&#x179;" horiz-adv-x="527" 
d="M401 534l-293 -490h227q119 0 164 3v-50q-45 3 -164 3h-311q28 41 94 152l294 490h-200q-131 0 -171 -4v50q45 -3 171 -3h283q-35 -48 -94 -151zM223 735l127 103h67l-138 -103h-56z" />
    <glyph glyph-name="zacute" unicode="&#x17a;" horiz-adv-x="371" 
d="M342 44v-47q-33 3 -84 3h-238l67 106.5l121.5 193l62.5 99.5h-156q-49 0 -83 -3v49q33 -3 84 -3h233l-126 -200t-126 -201h162q49 0 83 3zM165 505l95 148h52l-102 -148h-45z" />
    <glyph glyph-name="Zdotaccent" unicode="&#x17b;" horiz-adv-x="527" 
d="M401 534l-293 -490h227q119 0 164 3v-50q-45 3 -164 3h-311q28 41 94 152l294 490h-200q-131 0 -171 -4v50q45 -3 171 -3h283q-35 -48 -94 -151zM233 773q0 14 10 23.5t25 9.5q14 0 23.5 -10t9.5 -23q0 -14 -10 -24t-23 -10q-15 0 -25 10t-10 24z" />
    <glyph glyph-name="zdotaccent" unicode="&#x17c;" horiz-adv-x="371" 
d="M342 44v-47q-33 3 -84 3h-238l67 106.5l121.5 193l62.5 99.5h-156q-49 0 -83 -3v49q33 -3 84 -3h233l-126 -200t-126 -201h162q49 0 83 3zM159 574q0 14 9 23t23 9t23 -9t9 -23t-9.5 -23t-22.5 -9t-22.5 9t-9.5 23z" />
    <glyph glyph-name="Zcaron" unicode="&#x17d;" horiz-adv-x="527" 
d="M401 534l-293 -490h227q119 0 164 3v-50q-45 3 -164 3h-311q28 41 94 152l294 490h-200q-131 0 -171 -4v50q45 -3 171 -3h283q-35 -48 -94 -151zM271 762l90 84h54l-139 -125h-10l-140 125h57z" />
    <glyph glyph-name="zcaron" unicode="&#x17e;" horiz-adv-x="371" 
d="M342 44v-47q-33 3 -84 3h-238l67 106.5l121.5 193l62.5 99.5h-156q-49 0 -83 -3v49q33 -3 84 -3h233l-126 -200t-126 -201h162q49 0 83 3zM191 540l76 96h44l-117 -142h-9l-116 142h46z" />
    <glyph glyph-name="longs" unicode="&#x17f;" horiz-adv-x="215" 
d="M20 403v39h73v123q0 85 40 130t99 45q18 0 45 -4.5t30 -4.5v-56q-20 23 -67 23q-43 0 -70 -35t-27 -101v-458q0 -80 2 -104h-54q2 48 2 104v299h-73z" />
    <glyph glyph-name="uni018F" unicode="&#x18f;" horiz-adv-x="714" 
d="M41 313h572q2 15 2 40q0 123 -81 210t-202 87q-130 0 -229 -79v66l30.5 13t32 13l29 10.5t33 10l32 6.5t38.5 5.5t41 1.5q143 0 236 -101t93 -249q0 -146 -94 -250.5t-226 -104.5q-91 0 -163.5 48.5t-108.5 118t-36 140.5q0 10 1 14zM608 271h-507q7 -93 80.5 -162.5
t167.5 -69.5q92 0 167.5 67t91.5 165z" />
    <glyph glyph-name="uni0192" unicode="&#x192;" horiz-adv-x="504" 
d="M94 386h96l12 77q33 219 169 219q22 0 36.5 -3.5t27.5 -9t20 -7.5v-57q-32 32 -81 32q-94 0 -121 -182l-11 -69h122v-44h-128l-29 -200q-28 -187 -68.5 -259t-128.5 -72q-21 0 -38.5 4.5t-33.5 12t-20 8.5v59q37 -39 93 -39q26 0 44 9t37 37t34.5 87.5t29.5 154.5l29 198
h-91v44z" />
    <glyph glyph-name="uni019F" unicode="&#x19f;" horiz-adv-x="788" 
d="M393 697q145 0 247.5 -104t102.5 -250t-102.5 -250t-247.5 -104t-246.5 104t-101.5 250t101.5 250t246.5 104zM100 369h588q-10 119 -94.5 200.5t-200.5 81.5q-115 0 -199 -81.5t-94 -200.5zM689 328h-590q6 -123 91 -208.5t203 -85.5t204 85.5t92 208.5z" />
    <glyph glyph-name="Ohorn" unicode="&#x1a0;" horiz-adv-x="787" 
d="M99 343q0 -128 86 -218.5t208 -90.5t209 90.5t87 218.5q0 127 -87 217.5t-209 90.5t-208 -90.5t-86 -217.5zM666 740h50q8 -17 8 -47q0 -40 -21.5 -67t-64.5 -31q105 -102 105 -252q0 -146 -102.5 -250t-247.5 -104t-246.5 104t-101.5 250t101.5 250t246.5 104
q59 0 108 -17.5t77 -34.5t35 -17q63 0 63 60q0 22 -10 52z" />
    <glyph glyph-name="ohorn" unicode="&#x1a1;" horiz-adv-x="531" 
d="M466 503h45q6 -18 6 -37q1 -87 -80 -99q53 -63 53 -146q0 -94 -66 -161t-159 -67t-158.5 66.5t-65.5 161.5t65.5 161.5t158.5 66.5q40 0 73.5 -13.5t53 -26.5t26.5 -13q27 0 41 14.5t14 39.5q0 30 -7 53zM90 221q0 -76 51 -130t124 -54q72 0 123.5 54t51.5 130t-51.5 130
t-123.5 54q-73 0 -124 -54t-51 -130z" />
    <glyph glyph-name="Uhorn" unicode="&#x1af;" horiz-adv-x="659" 
d="M72 685h59q-3 -41 -3 -179v-230q0 -106 56.5 -173.5t145.5 -67.5q90 0 145.5 67t55.5 174v230q0 137 -3 179h40q29 0 44.5 16t15.5 45q0 27 -10 51h51q8 -19 8 -45q0 -39 -22 -68.5t-70 -33.5q-2 -42 -2 -144v-228q0 -132 -69.5 -210.5t-183.5 -78.5t-184.5 78.5
t-70.5 210.5v228q0 138 -3 179z" />
    <glyph glyph-name="uhorn" unicode="&#x1b0;" horiz-adv-x="481" 
d="M441 546h46q7 -24 7 -41q0 -46 -24.5 -69t-60.5 -27v-301q0 -80 15 -108h-48q-15 24 -15 73q-43 -80 -135 -80q-67 0 -110 45t-43 124v245h-46q17 17 26 35h72q-2 -60 -2 -104v-172q0 -62 33.5 -96.5t81.5 -34.5q55 0 88 40.5t33 97.5v165q0 59 -3 104h36q57 0 58 52
q0 23 -9 52z" />
    <glyph glyph-name="uni01C4" unicode="&#x1c4;" horiz-adv-x="1161" 
d="M245 0h-173q5 52 5 179v327q0 129 -5 179h173q141 0 242 -100.5t101 -241.5q0 -142 -101 -242.5t-242 -100.5zM130 642v-599h112q121 0 206.5 88.5t85.5 211.5t-85.5 211t-207.5 88h-111zM1035 534l-294 -490h228q117 0 164 3v-50q-47 3 -164 3h-311l94 152l293 490h-199
q-131 0 -171 -4v50q45 -3 171 -3h282q-35 -50 -93 -151zM905 762l90 84h53l-139 -125h-9l-140 125h57z" />
    <glyph glyph-name="uni01C5" unicode="&#x1c5;" horiz-adv-x="1004" 
d="M245 0h-173q5 52 5 179v327q0 129 -5 179h173q141 0 242 -100.5t101 -241.5q0 -142 -101 -242.5t-242 -100.5zM130 642v-599h112q121 0 206.5 88.5t85.5 211.5t-85.5 211t-207.5 88h-111zM975 44v-47q-31 3 -83 3h-238l126.5 202t124.5 197h-156q-49 0 -83 -3v49
q33 -3 83 -3h233l-252 -401h163q49 0 82 3zM824 540l76 96h44l-117 -142h-9l-116 142h47z" />
    <glyph glyph-name="uni01C6" unicode="&#x1c6;" horiz-adv-x="926" 
d="M488 0h-56q3 30 3 101q-27 -52 -74.5 -80t-100.5 -28q-92 0 -155.5 67t-63.5 163t63 161t158 65q56 0 102 -26.5t71 -78.5v357h-45q14 12 26 33h72q-3 -45 -3 -83v-547q0 -68 3 -104zM438 221q0 77 -49.5 131t-120.5 54q-72 0 -124 -54t-52 -130q0 -77 51.5 -131.5
t124.5 -54.5q70 0 120 54t50 131zM897 44v-47q-31 3 -83 3h-238l126.5 202t124.5 197h-156q-49 0 -83 -3v49q33 -3 83 -3h233l-252 -401h163q49 0 82 3zM746 540l76 96h44l-117 -142h-9l-116 142h47z" />
    <glyph glyph-name="uni01C7" unicode="&#x1c7;" horiz-adv-x="649" 
d="M129 506v-462h128q96 0 156 4v-52q-60 4 -156 4h-184q3 82 3 179v327q0 134 -3 179h59q-3 -90 -3 -179zM570 506v-505q0 -85 -44 -131t-113 -46q-13 0 -25.5 2t-26.5 6t-22 5v64q24 -32 73 -32q45 0 75.5 36t30.5 94v507q0 89 -3 179h59q-4 -60 -4 -179z" />
    <glyph glyph-name="uni01C8" unicode="&#x1c8;" horiz-adv-x="633" 
d="M129 506v-462h128q96 0 156 4v-52q-60 4 -156 4h-184q3 82 3 179v327q0 134 -3 179h59q-3 -90 -3 -179zM368 -254v50q19 -15 49 -15q44 0 69 36t25 102v489h-45q12 12 26 34h72q-3 -38 -3 -104v-420q0 -84 -33.5 -131.5t-99.5 -47.5q-19 0 -39 3.5t-21 3.5zM502 576
q0 14 9 23.5t23 9.5t23 -9.5t9 -23.5t-9 -23t-23 -9t-23 9t-9 23z" />
    <glyph glyph-name="uni01C9" unicode="&#x1c9;" horiz-adv-x="388" 
d="M124 0h-56q3 34 3 104v597h-45q11 10 25 33h73q-3 -36 -3 -104v-526q0 -70 3 -104zM124 -254v50q17 -15 49 -15q43 0 68.5 36t25.5 102v489h-46q12 12 26 34h72q-3 -38 -3 -104v-420q0 -85 -33 -132t-100 -47q-19 0 -38.5 3.5t-20.5 3.5zM257 576q0 14 9 23.5t23 9.5
t23 -9.5t9 -23.5t-9 -23t-23 -9q-13 0 -22.5 9t-9.5 23z" />
    <glyph glyph-name="uni01CA" unicode="&#x1ca;" horiz-adv-x="898" 
d="M130 0h-57q3 42 3 145v364q0 111 -3 192h13q23 -32 73 -92l400 -496v393q0 116 -3 179h57q-3 -66 -3 -179v-377q0 -83 3 -141h-13q-24 33 -68 87l-404 502l-2 -433q0 -88 4 -144zM820 506v-505q0 -84 -44.5 -130.5t-112.5 -46.5q-13 0 -26 2t-27.5 6t-21.5 5v64
q25 -32 73 -32q45 0 76 36t31 94v507q0 119 -4 179h59q-3 -45 -3 -179z" />
    <glyph glyph-name="uni01CB" unicode="&#x1cb;" horiz-adv-x="883" 
d="M130 0h-57q3 42 3 145v364q0 111 -3 192h13q23 -32 73 -92l400 -496v393q0 116 -3 179h57q-3 -66 -3 -179v-377q0 -83 3 -141h-13q-24 33 -68 87l-404 502l-2 -433q0 -88 4 -144zM618 -254v50q17 -15 49 -15q43 0 68.5 36t25.5 102v489h-45q7 7 26 34h72q-3 -38 -3 -104
v-420q0 -84 -33.5 -131.5t-100.5 -47.5q-18 0 -38 3.5t-21 3.5zM751 576q0 14 9 23.5t23 9.5t23.5 -9.5t9.5 -23.5t-9.5 -23t-23.5 -9q-13 0 -22.5 9t-9.5 23z" />
    <glyph glyph-name="uni01CC" unicode="&#x1cc;" horiz-adv-x="675" 
d="M128 0h-56q3 45 3 105v303h-45q10 10 26 34h69v-74q16 34 51.5 58t84.5 24q69 0 110 -49.5t41 -138.5v-157q0 -65 4 -105h-57q4 40 4 105v158q0 72 -34.5 108.5t-83.5 36.5q-52 0 -86 -38.5t-34 -100.5v-164q0 -60 3 -105zM410 -254v50q17 -15 49 -15q44 0 69 36t25 102
v489h-45q15 17 26 34h72q-3 -38 -3 -104v-420q0 -84 -33.5 -131.5t-100.5 -47.5q-18 0 -38 3.5t-21 3.5zM544 576q0 14 9 23.5t23 9.5t23 -9.5t9 -23.5t-9 -23t-23 -9t-23 9t-9 23z" />
    <glyph glyph-name="uni01CD" unicode="&#x1cd;" horiz-adv-x="619" 
d="M619 0h-69q-14 42 -50 126l-59 140h-272l-57 -139q-39 -94 -48 -127h-64q29 55 70 152l230 546h16l231 -546q42 -95 72 -152zM423 309l-118 289l-118 -289h236zM308 762l90 84h53l-139 -125h-9l-140 125h57z" />
    <glyph glyph-name="uni01CE" unicode="&#x1ce;" horiz-adv-x="426" 
d="M398 35v-34q-18 -12 -44 -12q-45 0 -48 54q-37 -54 -116 -54q-69 0 -109 35.5t-40 91.5q0 55 40.5 92t110.5 37q37 0 68.5 -14.5t43.5 -36.5v68q0 146 -122 146q-70 0 -110 -45v57q8 2 27.5 10t42 13.5t48.5 5.5q81 0 121.5 -47t40.5 -147v-188q0 -37 25 -37q13 0 21 5z
M92 118q0 -40 28.5 -65.5t79.5 -25.5q44 0 75.5 26.5t31.5 64.5q0 37 -31.5 63.5t-75.5 26.5q-51 0 -79.5 -26t-28.5 -64zM186 540l76 96h44l-117 -142h-9l-116 142h46z" />
    <glyph glyph-name="uni01CF" unicode="&#x1cf;" horiz-adv-x="215" 
d="M133 506v-327q0 -117 4 -179h-60q4 62 4 179v327q0 119 -4 179h60q-4 -60 -4 -179zM108 762l89 84h54l-139 -125h-10l-140 125h57z" />
    <glyph glyph-name="uni01D0" unicode="&#x1d0;" horiz-adv-x="196" 
d="M128 0h-56q3 33 3 105v303h-45q7 5 26 34h72q-3 -34 -3 -104v-233q0 -75 3 -105zM99 540l76 96h45l-118 -142h-9l-115 142h46z" />
    <glyph glyph-name="uni01D1" unicode="&#x1d1;" horiz-adv-x="787" 
d="M45 343q0 146 101.5 250t246.5 104t247.5 -104t102.5 -250t-102.5 -250t-247.5 -104t-246.5 104t-101.5 250zM99 343q0 -128 86 -218.5t208 -90.5t209 90.5t87 218.5q0 127 -87 217.5t-209 90.5t-208 -90.5t-86 -217.5zM394 762l89 84h54l-139 -125h-10l-140 125h57z" />
    <glyph glyph-name="uni01D2" unicode="&#x1d2;" horiz-adv-x="532" 
d="M41 221q0 94 66 161t158 67q94 0 160 -66.5t66 -161.5t-66 -161.5t-160 -66.5q-92 0 -158 67t-66 161zM90 221q0 -76 51 -130t124 -54t125 54t52 130t-52 130t-125 54t-124 -54t-51 -130zM265 540l76 96h44l-117 -142h-9l-116 142h46z" />
    <glyph glyph-name="uni01D3" unicode="&#x1d3;" horiz-adv-x="659" 
d="M72 685h59q-3 -41 -3 -179v-230q0 -107 56 -174t146 -67t145.5 67t55.5 174v230q0 137 -3 179h58q-3 -66 -3 -179v-228q0 -132 -69.5 -210.5t-183.5 -78.5t-184.5 78.5t-70.5 210.5v228q0 138 -3 179zM329 762l90 84h53l-139 -125h-9l-140 125h57z" />
    <glyph glyph-name="uni01D4" unicode="&#x1d4;" horiz-adv-x="481" 
d="M423 0h-48q-15 28 -15 73q-40 -81 -134 -81q-68 0 -110.5 45.5t-42.5 129.5v241h-45q13 12 26 34h71q-2 -58 -2 -104v-167q0 -67 33 -102t82 -35q55 0 88 41t33 98v165q0 60 -3 104h56q-3 -44 -3 -104v-241q0 -61 14 -97zM238 540l76 96h44l-117 -142h-9l-116 142h47z
" />
    <glyph glyph-name="uni01D5" unicode="&#x1d5;" horiz-adv-x="659" 
d="M72 685h59q-3 -41 -3 -179v-230q0 -107 56 -174t146 -67t145.5 67t55.5 174v230q0 137 -3 179h58q-3 -66 -3 -179v-228q0 -132 -69.5 -210.5t-183.5 -78.5t-184.5 78.5t-70.5 210.5v228q0 138 -3 179zM213 775q0 12 9 20.5t21 8.5q13 0 21.5 -8.5t8.5 -20.5t-8.5 -21
t-21.5 -9q-11 0 -20.5 9t-9.5 21zM387 775q0 12 9.5 20.5t21.5 8.5t20.5 -8.5t8.5 -20.5t-8.5 -21t-20.5 -9t-21.5 9t-9.5 21zM197 876h265v-32h-265v32z" />
    <glyph glyph-name="uni01D6" unicode="&#x1d6;" horiz-adv-x="481" 
d="M423 0h-48q-15 28 -15 73q-40 -81 -134 -81q-68 0 -110.5 45.5t-42.5 129.5v241h-45q13 12 26 34h71q-2 -58 -2 -104v-167q0 -67 33 -102t82 -35q55 0 88 41t33 98v165q0 60 -3 104h56q-3 -44 -3 -104v-241q0 -61 14 -97zM128 574q0 12 8 19.5t20 7.5q11 0 19 -7.5
t8 -19.5t-8 -19.5t-19 -7.5q-12 0 -20 7.5t-8 19.5zM301 574q0 12 8.5 19.5t20.5 7.5q11 0 19 -7.5t8 -19.5t-8 -19.5t-19 -7.5q-12 0 -20.5 7.5t-8.5 19.5zM132 686h221v-34h-221v34z" />
    <glyph glyph-name="uni01D7" unicode="&#x1d7;" horiz-adv-x="659" 
d="M72 685h59q-3 -41 -3 -179v-230q0 -107 56 -174t146 -67t145.5 67t55.5 174v230q0 137 -3 179h58q-3 -66 -3 -179v-228q0 -132 -69.5 -210.5t-183.5 -78.5t-184.5 78.5t-70.5 210.5v228q0 138 -3 179zM213 775q0 12 9 20.5t21 8.5q13 0 21.5 -8.5t8.5 -20.5t-8.5 -21
t-21.5 -9q-11 0 -20.5 9t-9.5 21zM387 775q0 12 9.5 20.5t21.5 8.5t20.5 -8.5t8.5 -20.5t-8.5 -21t-20.5 -9t-21.5 9t-9.5 21zM290 829l107 82h69l-118 -82h-58z" />
    <glyph glyph-name="uni01D8" unicode="&#x1d8;" horiz-adv-x="481" 
d="M423 0h-48q-15 28 -15 73q-40 -81 -134 -81q-68 0 -110.5 45.5t-42.5 129.5v241h-45q13 12 26 34h71q-2 -58 -2 -104v-167q0 -67 33 -102t82 -35q55 0 88 41t33 98v165q0 60 -3 104h56q-3 -44 -3 -104v-241q0 -61 14 -97zM128 574q0 12 8 19.5t20 7.5q11 0 19 -7.5
t8 -19.5t-8 -19.5t-19 -7.5q-12 0 -20 7.5t-8 19.5zM301 574q0 12 8.5 19.5t20.5 7.5q11 0 19 -7.5t8 -19.5t-8 -19.5t-19 -7.5q-12 0 -20.5 7.5t-8.5 19.5zM210 615l74 117h52l-81 -117h-45z" />
    <glyph glyph-name="uni01D9" unicode="&#x1d9;" horiz-adv-x="659" 
d="M72 685h59q-3 -41 -3 -179v-230q0 -107 56 -174t146 -67t145.5 67t55.5 174v230q0 137 -3 179h58q-3 -66 -3 -179v-228q0 -132 -69.5 -210.5t-183.5 -78.5t-184.5 78.5t-70.5 210.5v228q0 138 -3 179zM213 775q0 12 9 20.5t21 8.5q13 0 21.5 -8.5t8.5 -20.5t-8.5 -21
t-21.5 -9q-11 0 -20.5 9t-9.5 21zM387 775q0 12 9.5 20.5t21.5 8.5t20.5 -8.5t8.5 -20.5t-8.5 -21t-20.5 -9t-21.5 9t-9.5 21zM331 847l67 68h46l-103 -100h-22l-104 100h49z" />
    <glyph glyph-name="uni01DA" unicode="&#x1da;" horiz-adv-x="481" 
d="M423 0h-48q-15 28 -15 73q-40 -81 -134 -81q-68 0 -110.5 45.5t-42.5 129.5v241h-45q13 12 26 34h71q-2 -58 -2 -104v-167q0 -67 33 -102t82 -35q55 0 88 41t33 98v165q0 60 -3 104h56q-3 -44 -3 -104v-241q0 -61 14 -97zM128 574q0 12 8 19.5t20 7.5q11 0 19 -7.5
t8 -19.5t-8 -19.5t-19 -7.5q-12 0 -20 7.5t-8 19.5zM301 574q0 12 8.5 19.5t20.5 7.5q11 0 19 -7.5t8 -19.5t-8 -19.5t-19 -7.5q-12 0 -20.5 7.5t-8.5 19.5zM243 640l76 77h45l-114 -113h-16l-112 113h46z" />
    <glyph glyph-name="uni01DB" unicode="&#x1db;" horiz-adv-x="659" 
d="M72 685h59q-3 -41 -3 -179v-230q0 -107 56 -174t146 -67t145.5 67t55.5 174v230q0 137 -3 179h58q-3 -66 -3 -179v-228q0 -132 -69.5 -210.5t-183.5 -78.5t-184.5 78.5t-70.5 210.5v228q0 138 -3 179zM213 775q0 12 9 20.5t21 8.5q13 0 21.5 -8.5t8.5 -20.5t-8.5 -21
t-21.5 -9q-11 0 -20.5 9t-9.5 21zM387 775q0 12 9.5 20.5t21.5 8.5t20.5 -8.5t8.5 -20.5t-8.5 -21t-20.5 -9t-21.5 9t-9.5 21zM267 911l107 -82h-58l-117 82h68z" />
    <glyph glyph-name="uni01DC" unicode="&#x1dc;" horiz-adv-x="481" 
d="M423 0h-48q-15 28 -15 73q-40 -81 -134 -81q-68 0 -110.5 45.5t-42.5 129.5v241h-45q13 12 26 34h71q-2 -58 -2 -104v-167q0 -67 33 -102t82 -35q55 0 88 41t33 98v165q0 60 -3 104h56q-3 -44 -3 -104v-241q0 -61 14 -97zM128 574q0 12 8 19.5t20 7.5q11 0 19 -7.5
t8 -19.5t-8 -19.5t-19 -7.5q-12 0 -20 7.5t-8 19.5zM301 574q0 12 8.5 19.5t20.5 7.5q11 0 19 -7.5t8 -19.5t-8 -19.5t-19 -7.5q-12 0 -20.5 7.5t-8.5 19.5zM197 732l74 -117h-46l-80 117h52z" />
    <glyph glyph-name="Gcaron" unicode="&#x1e6;" horiz-adv-x="663" 
d="M595 195v-172q-90 -34 -185 -34q-158 0 -261.5 103t-103.5 251t103.5 251t260.5 103q93 0 176 -36v-64q-66 53 -175 53q-134 0 -222.5 -89t-88.5 -218t89 -218.5t223 -89.5q94 0 133 25v134q0 63 -4 123h59q-4 -60 -4 -122zM401 762l90 84h53l-139 -125h-9l-140 125h57z
" />
    <glyph glyph-name="gcaron" unicode="&#x1e7;" horiz-adv-x="476" 
d="M387 442h44q0 -44 -40 -75q29 -41 29 -96q0 -75 -53.5 -128t-129.5 -53q-27 0 -58.5 12t-41.5 12q-15 0 -27.5 -17.5t-12.5 -44.5q0 -23 15.5 -41.5t36.5 -18.5q5 0 35 5t54 5q90 0 152.5 -38.5t62.5 -96.5q0 -55 -64 -94.5t-153 -39.5q-91 0 -154.5 38t-63.5 95
q0 66 84 103q-25 8 -39.5 33t-14.5 50q0 27 16.5 52.5t45.5 36.5q-55 53 -55 130q0 74 53 126t129 52t128 -54q22 18 22 47zM106 271q0 -58 38.5 -98.5t91.5 -40.5q55 0 94 40.5t39 98.5q0 57 -38.5 96.5t-94.5 39.5q-54 0 -92 -39.5t-38 -96.5zM69 -133q0 -41 49 -69
t118 -28q68 0 116.5 28t48.5 67t-49 67t-117 28q-69 0 -117.5 -27t-48.5 -66zM236 540l76 96h44l-117 -142h-9l-116 142h46z" />
    <glyph glyph-name="uni01F1" unicode="&#x1f1;" horiz-adv-x="1161" 
d="M245 0h-173q5 52 5 179v327q0 129 -5 179h173q141 0 242 -100.5t101 -241.5q0 -142 -101 -242.5t-242 -100.5zM130 642v-599h112q121 0 206.5 88.5t85.5 211.5t-85.5 211t-207.5 88h-111zM1035 534l-294 -490h228q117 0 164 3v-50q-47 3 -164 3h-311l94 152l293 490h-199
q-131 0 -171 -4v50q45 -3 171 -3h282q-35 -50 -93 -151z" />
    <glyph glyph-name="uni01F2" unicode="&#x1f2;" horiz-adv-x="1004" 
d="M245 0h-173q5 52 5 179v327q0 129 -5 179h173q141 0 242 -100.5t101 -241.5q0 -142 -101 -242.5t-242 -100.5zM130 642v-599h112q121 0 206.5 88.5t85.5 211.5t-85.5 211t-207.5 88h-111zM975 44v-47q-31 3 -83 3h-238l126.5 202t124.5 197h-156q-49 0 -83 -3v49
q33 -3 83 -3h233l-252 -401h163q49 0 82 3z" />
    <glyph glyph-name="uni01F3" unicode="&#x1f3;" horiz-adv-x="926" 
d="M488 0h-56q3 30 3 101q-27 -52 -74.5 -80t-100.5 -28q-92 0 -155.5 67t-63.5 163t63 161t158 65q56 0 102 -26.5t71 -78.5v357h-45q14 12 26 33h72q-3 -45 -3 -83v-547q0 -68 3 -104zM438 221q0 77 -49.5 131t-120.5 54q-72 0 -124 -54t-52 -130q0 -77 51.5 -131.5
t124.5 -54.5q70 0 120 54t50 131zM897 44v-47q-31 3 -83 3h-238l126.5 202t124.5 197h-156q-49 0 -83 -3v49q33 -3 83 -3h233l-252 -401h163q49 0 82 3z" />
    <glyph glyph-name="Aringacute" unicode="&#x1fa;" horiz-adv-x="619" 
d="M441 909l-105 -76h-58l99 76h64zM321 686l226 -534q42 -95 72 -152h-69q-14 42 -50 126l-59 140h-272l-57 -139q-39 -94 -48 -127h-64q29 55 70 152l225 534q-28 5 -46 23t-18 43q0 28 22.5 47.5t55.5 19.5t56 -19.5t23 -47.5q0 -25 -19 -43.5t-48 -22.5zM267 752
q0 -16 12.5 -26.5t29.5 -10.5t30 10.5t13 26.5q0 15 -13 26t-30 11t-29.5 -11t-12.5 -26zM187 309h236l-118 289z" />
    <glyph glyph-name="aringacute" unicode="&#x1fb;" horiz-adv-x="426" 
d="M164 618l83 82h54l-88 -82h-49zM121 538q0 26 22 44.5t53 18.5t53.5 -18.5t22.5 -44.5t-22.5 -44.5t-53.5 -18.5t-53 18.5t-22 44.5zM154 538q0 -16 12.5 -27t29.5 -11t29.5 11t12.5 27t-12.5 27t-29.5 11t-29.5 -11t-12.5 -27zM398 35v-34q-18 -12 -44 -12q-45 0 -48 54
q-37 -54 -116 -54q-69 0 -109 35.5t-40 91.5q0 55 40.5 92t110.5 37q37 0 68.5 -14.5t43.5 -36.5v68q0 146 -122 146q-70 0 -110 -45v57q8 2 27.5 10t42 13.5t48.5 5.5q81 0 121.5 -47t40.5 -147v-188q0 -37 25 -37q13 0 21 5zM92 118q0 -40 28.5 -65.5t79.5 -25.5
q44 0 75.5 26.5t31.5 64.5q0 37 -31.5 63.5t-75.5 26.5q-51 0 -79.5 -26t-28.5 -64z" />
    <glyph glyph-name="AEacute" unicode="&#x1fc;" horiz-adv-x="818" 
d="M67 0h-67q25 34 88 151l285 534h170q95 0 144 3v-50q-41 4 -139 4h-130l41 -299h124q83 0 129 3v-50q-45 3 -123 3h-121l35 -255h136q93 0 138 3v-49q-29 2 -136 2h-184q-7 61 -17 140l-19 133h-214l-76 -145q-48 -88 -64 -128zM376 597l-148 -280h186zM462 735l128 103
h67l-138 -103h-57z" />
    <glyph glyph-name="aeacute" unicode="&#x1fd;" horiz-adv-x="752" 
d="M476 653l-102 -148h-45l96 148h51zM703 239h-355q-1 -6 -1 -18q0 -78 50.5 -133t125.5 -55q86 0 145 42v-56q-13 -3 -38.5 -11t-49.5 -12t-59 -4q-71 0 -117 33t-70 79q-4 -48 -41.5 -81.5t-101.5 -33.5q-69 0 -109 34.5t-40 91.5q0 59 40.5 94.5t108.5 35.5
q77 0 113 -51v65q0 68 -30.5 108t-93.5 40q-75 0 -108 -40v58q8 2 27 8.5t40.5 11t46.5 4.5q61 0 100.5 -32.5t45.5 -92.5q19 56 67 90t108 34q41 0 75.5 -15t56 -37.5t37 -50t22 -51.5t6.5 -43q0 -10 -1 -12zM353 277h297q-7 53 -48 92.5t-98 39.5q-55 0 -96 -36t-55 -96z
M201 27q46 0 76 26.5t30 63.5q0 39 -31.5 65t-74.5 26q-50 0 -79.5 -24.5t-29.5 -67.5q0 -38 30 -63.5t79 -25.5z" />
    <glyph glyph-name="Oslashacute" unicode="&#x1fe;" horiz-adv-x="787" 
d="M546 838l-138 -103h-57l128 103h67zM713 685l-76 -88q106 -104 106 -254q0 -146 -102.5 -250t-247.5 -104q-120 0 -213 74l-53 -63h-52l76 89q-106 104 -106 254q0 146 101.5 250t246.5 104q121 0 215 -75l54 63h51zM183 126l393 459q-80 66 -183 66q-122 0 -208 -90.5
t-86 -217.5t84 -217zM605 558l-393 -459q79 -65 181 -65q122 0 209 90.5t87 218.5q0 126 -84 215z" />
    <glyph glyph-name="oslashacute" unicode="&#x1ff;" horiz-adv-x="533" 
d="M382 653l-102 -148h-45l95 148h52zM489 442l-59 -65q61 -66 61 -156q0 -95 -66 -161.5t-160 -66.5q-77 0 -139 49l-38 -42h-40l57 62q-64 66 -64 159q0 94 66 161t158 67q83 0 144 -52l41 45h39zM136 97l241 265q-48 43 -112 43q-72 0 -123 -54t-51 -130q0 -71 45 -124z
M398 341l-241 -265q49 -39 108 -39q73 0 124.5 54t51.5 130q0 69 -43 120z" />
    <glyph glyph-name="uni0218" unicode="&#x218;" horiz-adv-x="444" 
d="M122 529q0 -44 28 -79t67.5 -60l79 -52t67.5 -69t28 -97q0 -82 -53 -134.5t-139 -52.5q-28 0 -53 4.5t-53 12t-45 10.5v89q17 -31 59.5 -52t93.5 -21q62 0 98 38.5t36 100.5q0 33 -14.5 60.5t-38.5 47.5t-52.5 38.5l-56.5 38.5t-52 42.5t-38.5 56t-14.5 73.5
q0 82 51.5 128.5t131.5 46.5q31 0 74.5 -10t49.5 -11v-86q-20 65 -124 65q-58 0 -94 -33.5t-36 -94.5zM188 -79v33q43 -1 71.5 -27t28.5 -66q0 -37 -26 -61t-65 -24q-23 0 -47 10v36q22 -13 43 -13q22 0 37.5 15t15.5 37q0 25 -17 42.5t-41 17.5z" />
    <glyph glyph-name="uni0219" unicode="&#x219;" horiz-adv-x="334" 
d="M46 14v78q12 -28 44.5 -46t67.5 -18t57.5 20.5t22.5 54.5q0 29 -18.5 52t-45 39.5l-52.5 34t-44.5 45.5t-18.5 64q0 49 33 80t91 31q22 0 52.5 -7.5t39.5 -8.5v-69q-9 20 -36.5 33t-53.5 13q-37 0 -56 -19t-19 -50q0 -27 18.5 -48.5t44.5 -37.5l52 -33.5t44.5 -47
t18.5 -68.5q0 -52 -35.5 -85t-92.5 -33q-22 0 -43 4.5t-43 12zM132 -79v33q43 -1 72 -27t29 -66q0 -37 -26.5 -61t-65.5 -24q-23 0 -46 10v36q20 -13 43 -13q22 0 37 15t15 37q0 25 -17 42.5t-41 17.5z" />
    <glyph glyph-name="uni021A" unicode="&#x21a;" horiz-adv-x="605" 
d="M192 685h219q125 0 171 3v-50q-62 4 -171 4h-81q-1 -37 -1 -129v-334q0 -148 3 -179h-59q3 46 3 179v334q0 74 -3 129h-81q-107 0 -169 -4v50q47 -3 169 -3zM272 -79v33q44 -1 72.5 -27t28.5 -66q0 -37 -26 -61t-65 -24q-24 0 -47 10v36q20 -13 43 -13q22 0 37 15t15 37
q0 25 -17 42.5t-41 17.5z" />
    <glyph glyph-name="uni021B" unicode="&#x21b;" horiz-adv-x="283" 
d="M250 47v-51q-6 0 -23 -2t-25 -2q-51 0 -82 33.5t-31 107.5v267h-73v42h73v23q0 52 -3 88h56q-3 -36 -3 -88v-23h125v-42h-125v-259q0 -106 74 -106q25 0 37 12zM148 -79v33q43 -1 71.5 -27t28.5 -66q0 -37 -26 -61t-65 -24q-23 0 -47 10v36q22 -13 43 -13q22 0 37.5 15
t15.5 37q0 25 -17 42.5t-41 17.5z" />
    <glyph glyph-name="uni021C" unicode="&#x21c;" horiz-adv-x="485" 
d="M125 326v56q25 -5 62 -5q61 0 109.5 43.5t48.5 97.5t-43 91.5t-114 37.5t-121 -34v57q13 2 54.5 12.5t69.5 10.5q100 0 153.5 -47.5t53.5 -124.5q0 -54 -33 -96t-91 -64q66 -13 112.5 -64.5t46.5 -124.5q0 -243 -385 -308v53h1q54 4 109 21t106.5 46.5t83.5 78.5t32 110
q0 75 -56 117t-136 42q-33 0 -63 -6z" />
    <glyph glyph-name="uni021D" unicode="&#x21d;" horiz-adv-x="409" 
d="M105 118v50q82 4 133 39.5t51 89.5q0 48 -37 79t-91 31q-58 0 -101 -31v53q8 2 25 8t35.5 9.5t42.5 3.5q75 0 125.5 -41.5t50.5 -109.5q0 -94 -111 -139q57 -10 92.5 -53.5t35.5 -111.5q0 -198 -325 -257v48h1q57 2 117.5 24t108.5 71t48 114t-38 101t-97 36
q-44 0 -66 -14z" />
    <glyph glyph-name="uni0232" unicode="&#x232;" horiz-adv-x="556" 
d="M308 0h-58q3 93 3 178v145l-158 232q-46 69 -94 130h70q22 -38 62 -99l147 -215l141 207q48 72 67 107h68q-44 -56 -96 -134l-155 -228v-145q0 -132 3 -178zM147 786h265v-37h-265v37z" />
    <glyph glyph-name="uni0233" unicode="&#x233;" horiz-adv-x="427" 
d="M1 442h64q6 -18 35 -80l126 -243q73 152 107 235q14 34 34 88h60q-11 -20 -50 -107q-67 -158 -132 -279q-51 -97 -164 -273q-16 -26 -30.5 -35.5t-38.5 -9.5q-10 0 -17 4q31 41 61 86q94 145 143 235l-142 276q-35 68 -56 103zM110 580h222v-37h-222v37z" />
    <glyph glyph-name="uni0237" unicode="&#x237;" horiz-adv-x="196" 
d="M-68 -254v50q16 -14 49 -14q43 0 68.5 36t25.5 103v487h-46q10 10 26 34h73q-3 -37 -3 -104v-420q0 -84 -33.5 -131.5t-100.5 -47.5q-19 0 -39 3z" />
    <glyph glyph-name="uni0251" unicode="&#x251;" horiz-adv-x="556" 
d="M489 0h-58q1 9 2 29t1.5 43.5t0.5 30.5q-27 -53 -75.5 -81.5t-103.5 -28.5q-89 0 -152 66t-63 160q0 96 63 163t154 67q57 0 104 -27.5t73 -78.5v24q0 36 -3 75h56q-3 -38 -3 -90v-245q0 -75 4 -107zM439 221q0 76 -51 130.5t-122 54.5q-72 0 -123 -54.5t-51 -130.5
t51 -130t123 -54q71 0 122 54t51 130z" />
    <glyph glyph-name="uni0259" unicode="&#x259;" horiz-adv-x="490" 
d="M42 221h354q2 72 -44.5 129.5t-123.5 57.5q-89 0 -150 -51v56q9 2 33.5 12t55.5 17t68 7q93 0 153 -65t60 -162q0 -100 -59 -164.5t-147 -64.5q-41 0 -75 14t-57 36t-39 51t-23 58.5t-7 58.5q0 2 0.5 5.5t0.5 4.5zM397 184h-302q3 -63 44.5 -107t102.5 -44q64 0 106 44
t49 107z" />
    <glyph glyph-name="uni0261" unicode="&#x261;" horiz-adv-x="558" 
d="M82 -226v59q65 -51 162 -51q82 0 137.5 50t55.5 146v124q-25 -53 -72.5 -81t-104.5 -28q-91 0 -155 67t-64 161q0 95 64 161.5t155 66.5q57 0 103.5 -27t73.5 -79v37q0 32 -3 62h56q-4 -31 -4 -72v-389q0 -119 -68 -181.5t-172 -62.5q-40 0 -69 6t-58 17.5t-37 13.5z
M440 221q0 77 -51 131t-123 54t-123 -54t-51 -130q0 -77 51.5 -131.5t125.5 -54.5q71 0 121 54t50 131z" />
    <glyph glyph-name="uni0275" unicode="&#x275;" horiz-adv-x="532" 
d="M265 449q94 0 160 -66.5t66 -161.5t-66 -161.5t-160 -66.5q-92 0 -158 67t-66 161t66 161t158 67zM90 245h351q-9 69 -59.5 116t-116.5 47q-67 0 -117 -47t-58 -116zM442 210h-353q5 -75 55 -125.5t121 -50.5q70 0 121 51t56 125z" />
    <glyph glyph-name="uni02BB" unicode="&#x2bb;" horiz-adv-x="238" 
d="M137 497h-49q0 138 40 207h41q-32 -73 -32 -207z" />
    <glyph glyph-name="uni02BC" unicode="&#x2bc;" horiz-adv-x="159" 
d="M71 729h50q0 -175 -51 -252h-41q42 84 42 252z" />
    <glyph glyph-name="uni02BE" unicode="&#x2be;" horiz-adv-x="165" 
d="M41 406v36q30 -3 53.5 13.5t23.5 52.5q0 35 -24 52.5t-53 14.5v36q46 2 79 -25.5t33 -77.5t-33 -77t-79 -25z" />
    <glyph glyph-name="uni02BF" unicode="&#x2bf;" horiz-adv-x="161" 
d="M133 442v-36q-47 -2 -80 25t-33 77t33.5 77.5t79.5 25.5v-36q-30 3 -53.5 -14.5t-23.5 -52.5q0 -37 23.5 -53t53.5 -13z" />
    <glyph glyph-name="circumflex" unicode="&#x2c6;" horiz-adv-x="462" 
d="M231 598l-76 -96h-45l118 142h8l116 -142h-46z" />
    <glyph glyph-name="caron" unicode="&#x2c7;" horiz-adv-x="462" 
d="M232 540l76 96h44l-117 -142h-9l-116 142h46z" />
    <glyph glyph-name="uni02C8" unicode="&#x2c8;" horiz-adv-x="462" 
d="M212 505v168h37v-168h-37z" />
    <glyph glyph-name="uni02C9" unicode="&#x2c9;" horiz-adv-x="462" 
d="M120 580h222v-37h-222v37z" />
    <glyph glyph-name="uni02CA" unicode="&#x2ca;" horiz-adv-x="462" 
d="M252 505l95 148h52l-102 -148h-45z" />
    <glyph glyph-name="uni02CB" unicode="&#x2cb;" horiz-adv-x="462" 
d="M110 653l95 -148h-46l-102 148h53z" />
    <glyph glyph-name="uni02CC" unicode="&#x2cc;" horiz-adv-x="462" 
d="M212 -244v167h37v-167h-37z" />
    <glyph glyph-name="breve" unicode="&#x2d8;" horiz-adv-x="462" 
d="M121 614h38q0 -30 21 -50.5t51 -20.5t51 20.5t21 50.5h38q0 -45 -32 -75.5t-78 -30.5t-78 30.5t-32 75.5z" />
    <glyph glyph-name="dotaccent" unicode="&#x2d9;" horiz-adv-x="462" 
d="M200 574q0 14 9 23t23 9t23 -9t9 -23t-9 -23t-23 -9t-23 9t-9 23z" />
    <glyph glyph-name="ring" unicode="&#x2da;" horiz-adv-x="462" 
d="M155 576q0 30 22.5 51.5t53.5 21.5q32 0 54.5 -21.5t22.5 -51.5t-22.5 -51.5t-54.5 -21.5q-31 0 -53.5 21.5t-22.5 51.5zM188 576q0 -18 13 -31t30 -13q18 0 31 13t13 31t-13 31t-31 13q-17 0 -30 -13t-13 -31z" />
    <glyph glyph-name="ogonek" unicode="&#x2db;" horiz-adv-x="462" 
d="M269 -186v-41q-34 -21 -79 -21q-38 0 -63 23t-25 62q0 24 11.5 47.5t35 45.5t41.5 36.5t47 34.5h44q-65 -47 -98.5 -82t-33.5 -72q0 -27 17 -42.5t43 -15.5q32 0 60 25z" />
    <glyph glyph-name="tilde" unicode="&#x2dc;" horiz-adv-x="462" 
d="M147 524h-37q1 35 20.5 57.5t53.5 22.5q25 0 53 -24t39 -24q41 0 41 45h36q0 -33 -21.5 -56.5t-53.5 -23.5q-27 0 -54.5 24t-40.5 24q-16 0 -26 -12.5t-10 -32.5z" />
    <glyph glyph-name="hungarumlaut" unicode="&#x2dd;" horiz-adv-x="462" 
d="M125 505l91 133h50l-96 -133h-45zM249 505l91 133h50l-95 -133h-46z" />
    <glyph glyph-name="gravecomb" unicode="&#x300;" horiz-adv-x="0" 
d="M-49 653l95 -148h-46l-102 148h53z" />
    <glyph glyph-name="acutecomb" unicode="&#x301;" horiz-adv-x="0" 
d="M-30 505l96 148h52l-103 -148h-45z" />
    <glyph glyph-name="uni0302" unicode="&#x302;" horiz-adv-x="0" 
d="M0 598l-76 -96h-45l118 142h9l115 -142h-46z" />
    <glyph glyph-name="tildecomb" unicode="&#x303;" horiz-adv-x="0" 
d="M-85 524h-36q0 35 19.5 57.5t53.5 22.5q25 0 53 -24t40 -24q19 0 29.5 12t10.5 33h36q0 -33 -21.5 -56.5t-53.5 -23.5q-27 0 -54.5 24t-39.5 24q-17 0 -27 -12.5t-10 -32.5z" />
    <glyph glyph-name="uni0304" unicode="&#x304;" horiz-adv-x="0" 
d="M-110 580h222v-37h-222v37z" />
    <glyph glyph-name="uni0306" unicode="&#x306;" horiz-adv-x="0" 
d="M-109 614h38q0 -30 21 -50.5t51 -20.5t51 20.5t21 50.5h38q0 -45 -32 -75.5t-78 -30.5t-78 30.5t-32 75.5z" />
    <glyph glyph-name="uni0307" unicode="&#x307;" horiz-adv-x="0" 
d="M-32 574q0 14 9 23t23 9t23.5 -9t9.5 -23q0 -13 -9.5 -22.5t-23.5 -9.5t-23 9t-9 23z" />
    <glyph glyph-name="uni0308" unicode="&#x308;" horiz-adv-x="0" 
d="M-117 577q0 13 9 21.5t22 8.5t21.5 -8.5t8.5 -21.5t-8.5 -21.5t-21.5 -8.5t-22 8.5t-9 21.5zM57 577q0 13 9 21.5t22 8.5t21.5 -8.5t8.5 -21.5t-8.5 -21.5t-21.5 -8.5t-22 8.5t-9 21.5z" />
    <glyph glyph-name="hookabovecomb" unicode="&#x309;" horiz-adv-x="0" 
d="M-74 615v36q23 23 65 23q37 0 61.5 -22.5t24.5 -60.5q0 -31 -17.5 -56t-55.5 -56h-44q44 35 61.5 59t17.5 50q0 24 -15 38t-38 14q-32 1 -60 -25z" />
    <glyph glyph-name="uni030A" unicode="&#x30a;" horiz-adv-x="0" 
d="M-75 576q0 30 22.5 51.5t53.5 21.5q32 0 54.5 -21.5t22.5 -51.5t-22.5 -51.5t-54.5 -21.5q-31 0 -53.5 21.5t-22.5 51.5zM-42 576q0 -18 13 -31t30 -13q18 0 31 13t13 31t-13 31t-31 13q-17 0 -30 -13t-13 -31z" />
    <glyph glyph-name="uni030B" unicode="&#x30b;" horiz-adv-x="0" 
d="M-101 505l91 133h50l-95 -133h-46zM24 505l91 133h49l-95 -133h-45z" />
    <glyph glyph-name="uni030C" unicode="&#x30c;" horiz-adv-x="0" 
d="M2 540l76 96h44l-117 -142h-9l-116 142h46z" />
    <glyph glyph-name="uni031B" unicode="&#x31b;" horiz-adv-x="0" 
d="M200 503h46q5 -15 5 -37q1 -87 -80 -99l-19 29q27 0 41.5 14.5t14.5 39.5q0 33 -8 53z" />
    <glyph glyph-name="dotbelowcomb" unicode="&#x323;" horiz-adv-x="0" 
d="M-32 -156q0 14 9.5 23.5t22.5 9.5t22 -9.5t9 -23.5t-9 -23t-22 -9q-14 0 -23 9t-9 23z" />
    <glyph glyph-name="uni0324" unicode="&#x324;" horiz-adv-x="0" 
d="M-117 -116q0 13 9 21.5t22 8.5t21.5 -8.5t8.5 -21.5t-8.5 -21.5t-21.5 -8.5t-22 8.5t-9 21.5zM57 -116q0 13 9 21.5t22 8.5t21.5 -8.5t8.5 -21.5t-8.5 -21.5t-21.5 -8.5t-22 8.5t-9 21.5z" />
    <glyph glyph-name="uni0326" unicode="&#x326;" horiz-adv-x="0" 
d="M10 -79v33q43 -1 72 -27t29 -66q0 -37 -26.5 -61t-65.5 -24q-23 0 -46 10v36q20 -13 43 -13q22 0 37 15t15 37q0 25 -17 42.5t-41 17.5z" />
    <glyph glyph-name="uni0327" unicode="&#x327;" horiz-adv-x="0" 
d="M-38 -83l52 83h35l-32 -49q29 -2 48.5 -20t19.5 -51t-23.5 -53.5t-59.5 -20.5q-28 0 -51 13v40q5 -8 19 -15t30 -7q20 0 33 11.5t13 30.5q0 20 -14.5 32t-38.5 12q-21 0 -31 -6z" />
    <glyph glyph-name="uni0328" unicode="&#x328;" horiz-adv-x="0" 
d="M81 -186v-41q-34 -21 -80 -21q-38 0 -62.5 23t-24.5 62q0 24 11.5 47.5t35 45.5t41.5 36.5t47 34.5h44q-66 -47 -99.5 -82t-33.5 -72q0 -27 17.5 -42.5t43.5 -15.5q31 0 60 25z" />
    <glyph glyph-name="uni032E" unicode="&#x32e;" horiz-adv-x="0" 
d="M-110 -79h38q0 -29 21 -50t51 -21t51 21t21 50h38q0 -45 -32 -75.5t-78 -30.5t-78 30.5t-32 75.5z" />
    <glyph glyph-name="uni0331" unicode="&#x331;" horiz-adv-x="0" 
d="M-110 -113h221v-37h-221v37z" />
    <glyph glyph-name="uni0374" unicode="&#x374;" horiz-adv-x="225" 
d="M34 332l95 221h52l-102 -221h-45z" />
    <glyph glyph-name="uni0375" unicode="&#x375;" horiz-adv-x="225" 
d="M34 -106l95 221h52l-102 -221h-45z" />
    <glyph glyph-name="uni037A" unicode="&#x37a;" horiz-adv-x="385" 
d="M281 -157v-31q-18 -10 -44 -10q-39 0 -57.5 23.5t-18.5 54.5q0 38 10 66h41q-6 -21 -6 -52q0 -58 47 -58q17 0 28 7z" />
    <glyph glyph-name="uni037E" unicode="&#x37e;" horiz-adv-x="191" 
d="M65 370q0 16 11 27t27 11q15 0 26 -11t11 -27t-11 -27t-26 -11q-16 0 -27 11t-11 27zM79 84h50q0 -168 -51 -250h-41q42 86 42 250z" />
    <glyph glyph-name="tonos" unicode="&#x384;" horiz-adv-x="459" 
d="M199 505l95 133h52l-100 -133h-47z" />
    <glyph glyph-name="dieresistonos" unicode="&#x385;" horiz-adv-x="470" 
d="M111 567q0 12 8.5 20t20.5 8q13 0 22 -8t9 -20t-9 -20t-22 -8q-12 0 -20.5 8t-8.5 20zM312 567q0 12 8.5 20t20.5 8q13 0 21.5 -8t8.5 -20t-8.5 -20t-21.5 -8q-12 0 -20.5 8t-8.5 20zM186 504l71 138h48l-76 -138h-43z" />
    <glyph glyph-name="Alphatonos" unicode="&#x386;" horiz-adv-x="619" 
d="M619 0h-69q-14 42 -50 126l-59 140h-272l-57 -139q-39 -94 -48 -127h-64q29 55 70 152l230 546h16l231 -546q42 -95 72 -152zM423 309l-118 289l-118 -289h236zM60 528l56 170h47l-60 -170h-43z" />
    <glyph glyph-name="anoteleia" unicode="&#x387;" horiz-adv-x="172" 
d="M47 351q0 16 11.5 27.5t27.5 11.5t27.5 -11.5t11.5 -27.5t-11.5 -28t-27.5 -12t-27.5 12t-11.5 28z" />
    <glyph glyph-name="Epsilontonos" unicode="&#x388;" horiz-adv-x="482" 
d="M176 348v-304h94q122 0 167 3v-50q-45 3 -167 3h-151q4 110 4 179v328q0 118 -4 178h143q120 0 167 3v-50q-41 4 -167 4h-86v-250h88q104 0 151 3v-50q-46 3 -151 3h-88zM-30 528l57 170h46l-60 -170h-43z" />
    <glyph glyph-name="Etatonos" unicode="&#x389;" horiz-adv-x="716" 
d="M179 0h-59q4 56 4 145v361q0 125 -4 179h59q-3 -41 -3 -179v-113h411v113q0 137 -3 179h59q-4 -88 -4 -179v-362q0 -88 4 -144h-59q3 42 3 145v204h-411v-205q0 -102 3 -144zM-30 528l57 170h46l-60 -170h-43z" />
    <glyph glyph-name="Iotatonos" unicode="&#x38a;" horiz-adv-x="248" 
d="M166 506v-327q0 -117 4 -179h-60q4 62 4 179v327q0 119 -4 179h60q-4 -60 -4 -179zM-30 528l57 170h46l-60 -170h-43z" />
    <glyph glyph-name="Omicrontonos" unicode="&#x38c;" horiz-adv-x="802" 
d="M59 343q0 146 102 250t247 104t247.5 -104t102.5 -250t-102.5 -250t-247.5 -104t-247 104t-102 250zM114 343q0 -128 86 -218.5t208 -90.5t208.5 90.5t86.5 218.5t-86.5 218t-208.5 90t-208 -90.5t-86 -217.5zM-15 528l57 170h46l-60 -170h-43z" />
    <glyph glyph-name="Upsilontonos" unicode="&#x38e;" horiz-adv-x="660" 
d="M405 0h-58q3 46 3 178v145l-157 232q-49 72 -95 130h71q20 -37 61 -99l148 -215l140 207q52 78 67 107h69q-50 -63 -97 -134l-155 -228v-145q0 -132 3 -178zM-17 528l57 170h46l-60 -170h-43z" />
    <glyph glyph-name="Omegatonos" unicode="&#x38f;" horiz-adv-x="825" 
d="M51 -3v49q60 -4 139 -4h70q-78 43 -130.5 124t-52.5 179q0 145 99 246.5t242 101.5t243 -101.5t100 -246.5q0 -100 -52.5 -179.5t-131.5 -123.5h60q88 0 150 4v-49q-47 3 -157 3h-122v47q81 36 140 115.5t59 181.5q0 124 -84.5 213.5t-204.5 89.5t-203.5 -89t-83.5 -214
q0 -102 56.5 -180.5t142.5 -116.5v-47h-132q-102 0 -147 -3zM-15 528l57 170h46l-60 -170h-43z" />
    <glyph glyph-name="iotadieresistonos" unicode="&#x390;" horiz-adv-x="197" 
d="M166 35v-34q-19 -12 -42 -12q-30 0 -42 26.5t-12 84.5v241q0 67 -3 101h56q-3 -34 -3 -104v-242q0 -66 23 -66q18 0 23 5zM-24 567q0 12 8.5 20t20.5 8q13 0 21.5 -8t8.5 -20t-8.5 -20t-21.5 -8q-12 0 -20.5 8t-8.5 20zM176 567q0 12 9 20t21 8t21 -8t9 -20t-9 -20
t-21 -8t-21 8t-9 20zM50 504l72 138h47l-76 -138h-43z" />
    <glyph glyph-name="Alpha" unicode="&#x391;" horiz-adv-x="619" 
d="M619 0h-69q-14 42 -50 126l-59 140h-272l-57 -139q-39 -94 -48 -127h-64q29 55 70 152l230 546h16l231 -546q42 -95 72 -152zM423 309l-118 289l-118 -289h236z" />
    <glyph glyph-name="Beta" unicode="&#x392;" 
d="M210 0h-138q5 52 5 179v319q0 147 -4 187h122q82 0 131.5 -45.5t49.5 -114.5q0 -49 -26 -86.5t-59 -49.5q67 -19 104.5 -70t37.5 -119q0 -86 -62 -143t-161 -57zM129 361v-317h78q74 0 123 44t49 112q0 72 -45 116.5t-115 44.5h-90zM129 643v-242h88q45 0 75.5 35
t30.5 85q0 53 -37.5 87.5t-94.5 34.5h-62z" />
    <glyph glyph-name="Gamma" unicode="&#x393;" horiz-adv-x="432" 
d="M72 0q4 62 4 179v327q0 119 -4 179h186q72 0 149 5v-53q-124 4 -149 4h-129v-462q0 -86 3 -179h-60z" />
    <glyph glyph-name="uni0394" unicode="&#x394;" horiz-adv-x="597" 
d="M597 0h-597q29 52 69 152l223 548h12l225 -548q23 -57 68 -152zM296 599l-217 -553h435z" />
    <glyph glyph-name="Epsilon" unicode="&#x395;" horiz-adv-x="435" 
d="M129 348v-304h94q123 0 168 3v-50q-45 3 -168 3h-151q4 110 4 179v328q0 118 -4 178h143q121 0 168 3v-50q-41 4 -168 4h-86v-250h88q105 0 152 3v-50q-46 3 -152 3h-88z" />
    <glyph glyph-name="Zeta" unicode="&#x396;" horiz-adv-x="527" 
d="M401 534l-293 -490h227q119 0 164 3v-50q-45 3 -164 3h-311q28 41 94 152l294 490h-200q-131 0 -171 -4v50q45 -3 171 -3h283q-35 -48 -94 -151z" />
    <glyph glyph-name="Eta" unicode="&#x397;" horiz-adv-x="669" 
d="M132 0h-58q3 42 3 145v361q0 138 -3 179h58q-3 -41 -3 -179v-113h411v113q0 137 -3 179h59q-3 -66 -3 -179v-362q0 -102 3 -144h-59q3 42 3 145v204h-411v-205q0 -102 3 -144z" />
    <glyph glyph-name="Theta" unicode="&#x398;" horiz-adv-x="787" 
d="M220 319v51q46 -4 104 -4h144q64 0 104 4v-51q-33 3 -104 3h-144q-69 0 -104 -3zM45 343q0 146 101.5 250t246.5 104t247.5 -104t102.5 -250t-102.5 -250t-247.5 -104t-246.5 104t-101.5 250zM99 343q0 -128 86 -218.5t208 -90.5t209 90.5t87 218.5q0 127 -87 217.5
t-209 90.5t-208 -90.5t-86 -217.5z" />
    <glyph glyph-name="Iota" unicode="&#x399;" horiz-adv-x="215" 
d="M133 506v-327q0 -117 4 -179h-60q4 62 4 179v327q0 119 -4 179h60q-4 -60 -4 -179z" />
    <glyph glyph-name="Kappa" unicode="&#x39a;" horiz-adv-x="533" 
d="M181 353l246 -252q39 -41 106 -101h-85q-32 41 -69 79l-250 258v-158q0 -86 3 -179h-59q3 46 3 179v327q0 134 -3 179h59q-3 -90 -3 -179v-148l199 217q64 69 96 110h71q-40 -37 -115 -118z" />
    <glyph glyph-name="Lambda" unicode="&#x39b;" horiz-adv-x="625" 
d="M67 0h-67q25 41 71 152l232 549h14l234 -549q45 -105 74 -152h-72q-10 33 -49 125l-196 468l-195 -470q-31 -77 -46 -123z" />
    <glyph glyph-name="Mu" unicode="&#x39c;" horiz-adv-x="802" 
d="M95 0h-59q16 97 26 181l65 518h14l263 -612l265 612h17l51 -544q9 -92 21 -155h-64q0 46 -8 143l-36 420l-243 -574h-12l-240 573l-47 -405q-12 -111 -13 -157z" />
    <glyph glyph-name="Nu" unicode="&#x39d;" horiz-adv-x="686" 
d="M130 0h-57q3 42 3 145v364q0 111 -3 192h13q23 -32 73 -92l400 -496v393q0 116 -3 179h57q-3 -66 -3 -179v-377q0 -83 3 -141h-13q-24 33 -68 87l-404 502l-2 -433q0 -88 4 -144z" />
    <glyph glyph-name="Xi" unicode="&#x39e;" horiz-adv-x="502" 
d="M44 -4v54q42 -4 125 -4h152q75 0 137 4v-54q-62 4 -137 4h-153q-69 0 -124 -4zM52 636v53q61 -4 138 -4h123q72 0 136 6v-55q-40 4 -136 4h-123q-77 0 -138 -4zM75 343v53q57 -4 119 -4q20 0 57 0.5t57 0.5q19 0 118 3v-53q-66 4 -118 4h-114q-62 0 -119 -4z" />
    <glyph glyph-name="Omicron" unicode="&#x39f;" horiz-adv-x="787" 
d="M45 343q0 146 101.5 250t246.5 104t247.5 -104t102.5 -250t-102.5 -250t-247.5 -104t-246.5 104t-101.5 250zM99 343q0 -128 86 -218.5t208 -90.5t209 90.5t87 218.5q0 127 -87 217.5t-209 90.5t-208 -90.5t-86 -217.5z" />
    <glyph glyph-name="Pi" unicode="&#x3a0;" horiz-adv-x="628" 
d="M73 685h481q-3 -32 -3 -125v-377q0 -126 5 -183h-60q3 48 3 181v460h-370v-462q0 -133 3 -179h-59q4 62 4 179v331q0 101 -4 175z" />
    <glyph glyph-name="Rho" unicode="&#x3a1;" horiz-adv-x="449" 
d="M129 280v-101q0 -133 3 -179h-59q4 41 4 179v352q0 114 -4 154h126q99 0 158 -57t59 -145q0 -86 -62.5 -144.5t-157.5 -58.5h-67zM129 644v-323h66q71 0 119 49.5t48 113.5q0 68 -45.5 114t-122.5 46h-65z" />
    <glyph glyph-name="Sigma" unicode="&#x3a3;" horiz-adv-x="541" 
d="M14 0v7q55 60 82 92l212 251l-204 238l-79 91v6h338q86 0 131 3v-50q-60 4 -132 4h-243l248 -291l-260 -307h281q85 0 131 3v-50q-46 3 -131 3h-374z" />
    <glyph glyph-name="Tau" unicode="&#x3a4;" horiz-adv-x="605" 
d="M192 685h219q125 0 171 3v-50q-62 4 -171 4h-81q-1 -37 -1 -129v-334q0 -148 3 -179h-59q3 46 3 179v334q0 74 -3 129h-81q-107 0 -169 -4v50q47 -3 169 -3z" />
    <glyph glyph-name="Upsilon" unicode="&#x3a5;" horiz-adv-x="556" 
d="M308 0h-58q3 93 3 178v145l-158 232q-46 69 -94 130h70q22 -38 62 -99l147 -215l141 207q48 72 67 107h68q-44 -56 -96 -134l-155 -228v-145q0 -132 3 -178z" />
    <glyph glyph-name="Phi" unicode="&#x3a6;" horiz-adv-x="720" 
d="M332 713h55q-1 -11 -2 -36t-1 -32q129 -8 211 -92t82 -210q0 -124 -82 -208.5t-211 -92.5q0 -8 1 -33t2 -36h-55q2 16 4 69q-129 7 -210.5 91.5t-81.5 209.5q0 127 81.5 210.5t210.5 91.5q-2 51 -4 68zM336 88v513q-105 -8 -172.5 -80t-67.5 -177q0 -106 67.5 -177
t172.5 -79zM384 601v-513q105 8 172.5 79t67.5 177q0 105 -67.5 177t-172.5 80z" />
    <glyph glyph-name="Chi" unicode="&#x3a7;" horiz-adv-x="486" 
d="M70 0h-69q42 56 94 141l120 201l-117 195q-48 83 -97 148h72q32 -60 70 -122l101 -172l102 172l68 122h69q-34 -43 -97 -147l-115 -191l117 -197q52 -86 99 -150h-71l-74 128l-100 171l-110 -184q-42 -75 -62 -115z" />
    <glyph glyph-name="Psi" unicode="&#x3a8;" horiz-adv-x="636" 
d="M348 0h-58q4 62 4 181v63q-104 10 -173 83t-69 185q0 108 -12 173h56q7 -50 7 -173q0 -90 54.5 -151.5t136.5 -71.5v224q0 132 -4 172h58q-3 -45 -3 -172v-224q80 11 134.5 72t54.5 151q0 75 6 173h58q-14 -71 -14 -173q0 -113 -68 -185.5t-171 -82.5v-63q0 -135 3 -181z
" />
    <glyph glyph-name="uni03A9" unicode="&#x3a9;" horiz-adv-x="812" 
d="M38 -3v49q60 -4 139 -4h71q-79 43 -131.5 124t-52.5 179q0 146 99.5 247t242.5 101q142 0 242.5 -101.5t100.5 -246.5q0 -100 -53 -179.5t-132 -123.5h61q88 0 150 4v-49q-47 3 -157 3h-123v47q82 35 141 115t59 182q0 124 -84.5 213.5t-204.5 89.5t-204 -89t-84 -214
q0 -102 57 -180.5t143 -116.5v-47h-133q-102 0 -147 -3z" />
    <glyph glyph-name="Iotadieresis" unicode="&#x3aa;" horiz-adv-x="215" 
d="M133 506v-327q0 -117 4 -179h-60q4 62 4 179v327q0 119 -4 179h60q-4 -60 -4 -179zM-13 778q0 13 9.5 22.5t23.5 9.5t23 -9t9 -23q0 -13 -9.5 -23t-22.5 -10t-23 10t-10 23zM162 778q0 13 9.5 22.5t23.5 9.5t23.5 -9.5t9.5 -22.5t-10 -23t-23 -10t-23 10t-10 23z" />
    <glyph glyph-name="Upsilondieresis" unicode="&#x3ab;" horiz-adv-x="556" 
d="M308 0h-58q3 93 3 178v145l-158 232q-46 69 -94 130h70q22 -38 62 -99l147 -215l141 207q48 72 67 107h68q-44 -56 -96 -134l-155 -228v-145q0 -132 3 -178zM157 778q0 13 10 22.5t24 9.5q13 0 22.5 -9t9.5 -23q0 -13 -9.5 -23t-22.5 -10t-23.5 10t-10.5 23zM333 778
q0 13 9.5 22.5t23.5 9.5t23 -9t9 -23q0 -13 -9.5 -23t-22.5 -10t-23 10t-10 23z" />
    <glyph glyph-name="alphatonos" unicode="&#x3ac;" horiz-adv-x="518" 
d="M498 36v-36q-18 -11 -41 -11q-34 0 -47 27t-15 88q-48 -115 -157 -115q-82 0 -138.5 68t-56.5 163t56 162t139 67q108 0 156 -114q1 45 9 107h49q-13 -76 -13 -170v-148q0 -53 9.5 -73t28.5 -20q11 0 21 5zM392 219q0 78 -42 132.5t-103 54.5q-64 0 -108 -54.5
t-44 -131.5q0 -78 44.5 -133t108.5 -55q60 0 102 54t42 133zM221 505l95 133h52l-100 -133h-47z" />
    <glyph glyph-name="epsilontonos" unicode="&#x3ad;" horiz-adv-x="367" 
d="M336 85v-55l-24.5 -10t-33 -13t-38 -9.5t-49.5 -4.5q-69 0 -111 35t-42 92q0 78 91 109q-81 33 -81 102q0 51 41 84.5t109 33.5q45 0 81.5 -14t39.5 -14v-59q-41 45 -116 45q-50 0 -77.5 -22t-27.5 -55q0 -38 32 -59t83 -21q47 0 63 4v-49q-16 3 -66 3q-58 0 -90 -22.5
t-32 -61.5q0 -40 29.5 -64t81.5 -24q82 0 137 49zM168 505l96 133h52l-101 -133h-47z" />
    <glyph glyph-name="etatonos" unicode="&#x3ae;" 
d="M125 0h-57q3 45 3 104v265q0 46 -3 73h49q3 -21 3 -56v-29q16 40 53.5 66t84.5 26q72 0 111.5 -45t39.5 -130v-415v-117h-57q7 56 7 117v415q0 67 -30.5 100t-81.5 33t-88.5 -42.5t-37.5 -106.5v-154q0 -64 4 -104zM220 505l96 133h52l-101 -133h-47z" />
    <glyph glyph-name="iotatonos" unicode="&#x3af;" horiz-adv-x="197" 
d="M166 35v-34q-19 -12 -42 -12q-30 0 -42 26.5t-12 84.5v241q0 67 -3 101h56q-3 -34 -3 -104v-242q0 -66 23 -66q18 0 23 5zM69 505l96 133h52l-100 -133h-48z" />
    <glyph glyph-name="upsilondieresistonos" unicode="&#x3b0;" horiz-adv-x="474" 
d="M66 442h50q6 -48 4 -99l-5 -182q-1 -58 33 -91.5t83 -33.5q69 0 106.5 58t37.5 149q0 106 -51 199h53q48 -85 48 -199q0 -110 -51 -180t-142 -70q-72 0 -120 45t-46 121l4 184q0 65 -4 99zM108 567q0 12 8.5 20t20.5 8t21 -8t9 -20t-9 -20t-21 -8t-20.5 8t-8.5 20z
M308 567q0 12 8.5 20t20.5 8q13 0 21.5 -8t8.5 -20t-8.5 -20t-21.5 -8q-12 0 -20.5 8t-8.5 20zM182 504l71 138h48l-76 -138h-43z" />
    <glyph glyph-name="alpha" unicode="&#x3b1;" horiz-adv-x="518" 
d="M498 36v-36q-18 -11 -41 -11q-34 0 -47 27t-15 88q-48 -115 -157 -115q-82 0 -138.5 68t-56.5 163t56 162t139 67q108 0 156 -114q1 45 9 107h49q-13 -76 -13 -170v-148q0 -53 9.5 -73t28.5 -20q11 0 21 5zM392 219q0 78 -42 132.5t-103 54.5q-64 0 -108 -54.5
t-44 -131.5q0 -78 44.5 -133t108.5 -55q60 0 102 54t42 133z" />
    <glyph glyph-name="beta" unicode="&#x3b2;" horiz-adv-x="523" 
d="M251 -10q-72 0 -132 34q3 -279 3 -283h-51v785q0 98 52 153t128 55q70 0 116 -44.5t46 -112.5q0 -66 -39 -114t-94 -65q87 -4 141 -60.5t54 -135.5q0 -90 -63 -151t-161 -61zM191 360v45q68 2 120.5 50.5t52.5 117.5q0 52 -33 84.5t-81 32.5q-55 0 -91.5 -42t-36.5 -122
v-450q51 -43 129 -43q72 0 122.5 49.5t50.5 119.5q0 71 -51.5 116t-121.5 45q-33 0 -60 -3z" />
    <glyph glyph-name="gamma" unicode="&#x3b3;" horiz-adv-x="477" 
d="M383 442h53q-25 -135 -64.5 -226.5t-119.5 -212.5q-7 -87 -42 -261h-54q46 175 46 265q0 137 -130 342q-34 55 -72 93h72q156 -239 167 -384q98 156 134 318q9 46 10 66z" />
    <glyph glyph-name="delta" unicode="&#x3b4;" horiz-adv-x="497" 
d="M437 680v-58q-95 77 -221 77q-45 0 -76.5 -14.5t-31.5 -43.5q0 -36 67.5 -100.5t149.5 -125.5q70 -52 100 -98.5t30 -109.5q0 -89 -60.5 -151t-146.5 -62q-87 0 -147 62t-60 151q0 92 66 152.5t153 51.5q-86 64 -145 128.5t-59 106.5q0 46 45.5 70t112.5 24q29 0 55 -3
t54 -12t39.5 -13t42.5 -18t32 -14zM92 208q0 -70 46 -120t110 -50t110 50t46 120t-46 119.5t-110 49.5t-110 -49.5t-46 -119.5z" />
    <glyph glyph-name="epsilon" unicode="&#x3b5;" horiz-adv-x="367" 
d="M336 85v-55l-24.5 -10t-33 -13t-38 -9.5t-49.5 -4.5q-69 0 -111 35t-42 92q0 78 91 109q-81 33 -81 102q0 51 41 84.5t109 33.5q45 0 81.5 -14t39.5 -14v-59q-41 45 -116 45q-50 0 -77.5 -22t-27.5 -55q0 -38 32 -59t83 -21q47 0 63 4v-49q-16 3 -66 3q-58 0 -90 -22.5
t-32 -61.5q0 -40 29.5 -64t81.5 -24q82 0 137 49z" />
    <glyph glyph-name="zeta" unicode="&#x3b6;" horiz-adv-x="370" 
d="M356 733v-46q-261 -267 -261 -463q0 -52 11 -85.5t33.5 -50t45 -24t56.5 -14.5q11 -2 17 -3q56 -12 82 -35t26 -72q0 -65 -50 -147h-48q51 78 51 137q0 30 -17.5 45.5t-55.5 24.5q-6 1 -18 4q-29 6 -43 9.5t-37.5 12t-35.5 17t-27 24.5t-22 35.5t-12.5 48t-5.5 64.5
q0 194 236 449q-172 0 -201 6v45q43 -12 144 -12h97z" />
    <glyph glyph-name="eta" unicode="&#x3b7;" 
d="M125 0h-57q3 45 3 104v265q0 46 -3 73h49q3 -21 3 -56v-29q16 40 53.5 66t84.5 26q72 0 111.5 -45t39.5 -130v-415v-117h-57q7 56 7 117v415q0 67 -30.5 100t-81.5 33t-88.5 -42.5t-37.5 -106.5v-154q0 -64 4 -104z" />
    <glyph glyph-name="theta" unicode="&#x3b8;" horiz-adv-x="498" 
d="M248 725q92 0 145 -103.5t53 -263.5q0 -159 -53 -262t-145 -103q-91 0 -143.5 103.5t-52.5 261.5q0 159 52.5 263t143.5 104zM101 378h296q-3 134 -42 218.5t-107 84.5q-67 0 -105.5 -84.5t-41.5 -218.5zM397 337h-296q3 -132 42.5 -216t104.5 -84q68 0 107 83t42 217z
" />
    <glyph glyph-name="iota" unicode="&#x3b9;" horiz-adv-x="197" 
d="M166 35v-34q-19 -12 -42 -12q-30 0 -42 26.5t-12 84.5v241q0 67 -3 101h56q-3 -34 -3 -104v-242q0 -66 23 -66q18 0 23 5z" />
    <glyph glyph-name="kappa" unicode="&#x3ba;" horiz-adv-x="423" 
d="M423 0h-77q-16 21 -66 71l-156 154q93 114 140 156q41 40 61.5 54t45.5 14q23 0 36 -13q-23 -6 -45 -22t-59 -51q-47 -44 -123 -133l139 -135q65 -65 104 -95zM127 0h-56q3 33 3 104v231q0 61 -4 107h51q3 -34 3 -107v-231q0 -74 3 -104z" />
    <glyph glyph-name="lambda" unicode="&#x3bb;" horiz-adv-x="424" 
d="M-48 680v48l19 5.5t22.5 5t25.5 1.5q57 0 98.5 -45.5t82.5 -150.5l172 -430q31 -77 51 -114h-70q-9 42 -26 89l-110 284l-141 -334q-10 -21 -15 -39h-60q18 27 28 48l165 378l-40 103q-37 93 -69.5 129.5t-77.5 36.5q-27 0 -55 -15z" />
    <glyph glyph-name="uni03BC" unicode="&#x3bc;" horiz-adv-x="484" 
d="M453 35v-34q-24 -12 -43 -12q-23 0 -36 19.5t-14 76.5q-17 -40 -49 -66t-78 -26q-82 0 -119 62q5 -67 5 -213q0 -41 3 -101h-54q3 33 3 104v493q0 59 -3 104h56q-3 -45 -3 -104v-168q2 -133 119 -133q54 0 85.5 43t31.5 96v162q0 59 -3 104h56q-3 -45 -3 -104v-241
q0 -38 5.5 -52.5t19.5 -14.5t21 5z" />
    <glyph glyph-name="nu" unicode="&#x3bd;" horiz-adv-x="420" 
d="M1 442h68q8 -40 28 -91l110 -288q57 73 86.5 147.5t29.5 132.5q0 60 -17 99h60q-1 -9 3 -37.5t4 -60.5q0 -152 -173 -359h-11l-141 353q-23 61 -47 104z" />
    <glyph glyph-name="xi" unicode="&#x3be;" horiz-adv-x="410" 
d="M329 -207h-48q49 84 49 138q0 36 -25.5 50t-77.5 18q-36 3 -63 10.5t-54 24t-41.5 48.5t-14.5 78q0 66 40.5 118.5t104.5 73.5q-58 19 -92.5 62t-34.5 106q0 74 55 124t135 52q28 1 60 -4t35 -5v-47q-47 16 -88 14q-61 -1 -104.5 -41t-43.5 -95q0 -60 43 -101.5
t104 -41.5q46 0 78 13v-47q-69 0 -110 -13q-60 -18 -96.5 -63t-36.5 -100q0 -109 140 -122q33 -3 53 -7.5t41 -14.5t31 -30.5t10 -51.5q0 -10 -1 -19.5t-3.5 -19.5l-4.5 -18t-6 -18l-6.5 -16.5t-7.5 -16l-7 -13.5l-7 -13.5z" />
    <glyph glyph-name="omicron" unicode="&#x3bf;" horiz-adv-x="532" 
d="M41 221q0 94 66 161t158 67q94 0 160 -66.5t66 -161.5t-66 -161.5t-160 -66.5q-92 0 -158 67t-66 161zM90 221q0 -76 51 -130t124 -54t125 54t52 130t-52 130t-125 54t-124 -54t-51 -130z" />
    <glyph glyph-name="pi" unicode="&#x3c0;" horiz-adv-x="526" 
d="M509 445v-47q-38 2 -59 2h-52q-7 -131 -7 -266q0 -100 11 -134h-54q-6 33 -6 129q0 145 7 271h-152l-18 -400h-48l18 400q-99 0 -131 -9v40q31 11 118 11h315q28 0 58 3z" />
    <glyph glyph-name="rho" unicode="&#x3c1;" horiz-adv-x="521" 
d="M61 -108v309q0 119 56 183.5t153 64.5q92 0 150.5 -66t58.5 -162q0 -95 -59.5 -161.5t-147.5 -66.5q-100 0 -160 67v-162q0 -114 16 -156h-55q-12 45 -12 150zM112 201v-90q57 -74 157 -74q68 0 113.5 53.5t45.5 130.5t-44.5 130.5t-113.5 53.5q-73 0 -115.5 -52.5
t-42.5 -151.5z" />
    <glyph glyph-name="uni03C2" unicode="&#x3c2;" horiz-adv-x="408" 
d="M328 -190h-48q43 72 43 118q0 29 -18 46.5t-63 27.5q-93 19 -147 68t-54 148q0 97 65.5 164t159.5 67q22 0 59 -6t44 -7v-60q-39 29 -103 29q-74 0 -124.5 -53t-50.5 -130q0 -141 168 -176q64 -14 88 -38.5t24 -70.5q0 -52 -43 -127z" />
    <glyph glyph-name="sigma" unicode="&#x3c3;" horiz-adv-x="553" 
d="M527 448v-44q-39 -4 -120 -4h-47q41 -30 68 -76.5t27 -103.5q0 -94 -61 -160.5t-148 -66.5q-86 0 -145.5 66.5t-59.5 162.5t58.5 159t159.5 63h148q81 0 120 4zM300 400h-50q-67 0 -113.5 -52t-46.5 -126q0 -76 45.5 -130.5t110.5 -54.5q66 0 112 54t46 131
q0 51 -29 98.5t-75 79.5z" />
    <glyph glyph-name="tau" unicode="&#x3c4;" horiz-adv-x="406" 
d="M390 445v-47q-19 2 -70 2h-95q-7 -196 -7 -305q0 -66 23 -66q13 0 20 4v-34q-18 -10 -38 -10q-30 0 -42.5 22t-12.5 83q0 180 7 306h-20q-114 0 -139 -10v41q31 11 118 11h186q42 0 70 3z" />
    <glyph glyph-name="upsilon" unicode="&#x3c5;" horiz-adv-x="474" 
d="M66 442h50q6 -48 4 -99l-5 -182q-1 -58 33 -91.5t83 -33.5q69 0 106.5 58t37.5 149q0 106 -51 199h53q48 -85 48 -199q0 -110 -51 -180t-142 -70q-72 0 -120 45t-46 121l4 184q0 65 -4 99z" />
    <glyph glyph-name="phi" unicode="&#x3c6;" horiz-adv-x="613" 
d="M332 -224h-51q3 34 3 106v111q-105 6 -174.5 69t-69.5 167q0 103 70 166t174 70v68q0 81 -3 105h50q-2 -48 -2 -105v-68q103 -7 173 -70.5t70 -165.5q0 -104 -70 -167t-173 -69v-111q0 -72 3 -106zM329 421v-385q80 5 136.5 56.5t56.5 136.5t-56.5 136t-136.5 56zM284 36
v385q-81 -5 -137.5 -56t-56.5 -136t56.5 -136.5t137.5 -56.5z" />
    <glyph glyph-name="chi" unicode="&#x3c7;" horiz-adv-x="415" 
d="M62 -258h-63q41 62 87 156l98 195l-99 196q-45 89 -82 153h64q21 -54 58 -127l87 -169l79 162q41 81 63 134h60q-28 -46 -80 -148l-99 -199l87 -176q71 -141 93 -177h-66q-15 43 -70 153l-73 145l-84 -172q-49 -98 -60 -126z" />
    <glyph glyph-name="psi" unicode="&#x3c8;" horiz-adv-x="616" 
d="M334 -190h-51q2 44 2 97v87q-87 8 -135.5 59.5t-66.5 166.5q-24 156 -46 222h57q11 -45 39 -216q16 -98 53 -138t99 -50v390q0 58 -2 104h51q-3 -35 -3 -104v-390q61 10 99 52t55 136q31 186 38 216h57q-8 -26 -15.5 -58t-11.5 -54t-10 -58.5t-8 -49.5q-19 -112 -68 -166
t-136 -62v-87q0 -67 3 -97z" />
    <glyph glyph-name="omega" unicode="&#x3c9;" horiz-adv-x="698" 
d="M322 337h55q-3 -38 -3 -77v-83q0 -64 29 -102.5t75 -38.5q52 0 87.5 53t35.5 122q0 117 -94 231h61q24 -35 39 -61t29.5 -73.5t14.5 -98.5q0 -90 -48 -154t-123 -64q-102 0 -132 107q-29 -107 -132 -107q-76 0 -122.5 60t-46.5 157q0 126 86 234h57q-93 -105 -93 -231
q0 -75 34.5 -125t88.5 -50q46 0 75 38.5t29 102.5v84q0 52 -2 76z" />
    <glyph glyph-name="iotadieresis" unicode="&#x3ca;" horiz-adv-x="197" 
d="M166 35v-34q-19 -12 -42 -12q-30 0 -42 26.5t-12 84.5v241q0 67 -3 101h56q-3 -34 -3 -104v-242q0 -66 23 -66q18 0 23 5zM-22 577q0 13 9 21.5t22 8.5t22 -8.5t9 -21.5t-9 -21.5t-22 -8.5t-22 8.5t-9 21.5zM152 577q0 13 9 21.5t22 8.5t21.5 -8.5t8.5 -21.5t-8.5 -21.5
t-21.5 -8.5t-22 8.5t-9 21.5z" />
    <glyph glyph-name="upsilondieresis" unicode="&#x3cb;" horiz-adv-x="474" 
d="M66 442h50q6 -48 4 -99l-5 -182q-1 -58 33 -91.5t83 -33.5q69 0 106.5 58t37.5 149q0 106 -51 199h53q48 -85 48 -199q0 -110 -51 -180t-142 -70q-72 0 -120 45t-46 121l4 184q0 65 -4 99zM110 577q0 13 9 21.5t22 8.5t21.5 -8.5t8.5 -21.5t-8.5 -21.5t-21.5 -8.5
t-22 8.5t-9 21.5zM284 577q0 13 9 21.5t22 8.5t21.5 -8.5t8.5 -21.5t-8.5 -21.5t-21.5 -8.5t-22 8.5t-9 21.5z" />
    <glyph glyph-name="omicrontonos" unicode="&#x3cc;" horiz-adv-x="532" 
d="M41 221q0 94 66 161t158 67q94 0 160 -66.5t66 -161.5t-66 -161.5t-160 -66.5q-92 0 -158 67t-66 161zM90 221q0 -76 51 -130t124 -54t125 54t52 130t-52 130t-125 54t-124 -54t-51 -130zM235 505l96 133h52l-101 -133h-47z" />
    <glyph glyph-name="upsilontonos" unicode="&#x3cd;" horiz-adv-x="474" 
d="M66 442h50q6 -48 4 -99l-5 -182q-1 -58 33 -91.5t83 -33.5q69 0 106.5 58t37.5 149q0 106 -51 199h53q48 -85 48 -199q0 -110 -51 -180t-142 -70q-72 0 -120 45t-46 121l4 184q0 65 -4 99zM200 505l96 133h52l-101 -133h-47z" />
    <glyph glyph-name="omegatonos" unicode="&#x3ce;" horiz-adv-x="698" 
d="M322 337h55q-3 -38 -3 -77v-83q0 -64 29 -102.5t75 -38.5q52 0 87.5 53t35.5 122q0 117 -94 231h61q24 -35 39 -61t29.5 -73.5t14.5 -98.5q0 -90 -48 -154t-123 -64q-102 0 -132 107q-29 -107 -132 -107q-76 0 -122.5 60t-46.5 157q0 126 86 234h57q-93 -105 -93 -231
q0 -75 34.5 -125t88.5 -50q46 0 75 38.5t29 102.5v84q0 52 -2 76zM324 505l96 133h52l-101 -133h-47z" />
    <glyph glyph-name="uni03D1" unicode="&#x3d1;" horiz-adv-x="459" 
d="M31 204h56l22.5 -46.5t24 -48t23.5 -36t31.5 -29.5t37.5 -9q59 0 97 78t43 189q-154 1 -238 69t-84 169q0 72 50 128.5t121 56.5q100 0 152 -97.5t52 -258.5q0 -172 -54 -274.5t-141 -102.5q-31 0 -55.5 12t-43.5 36.5t-32 47.5t-31 59t-31 57zM369 345q4 146 -36.5 242
t-119.5 96q-52 0 -85.5 -43.5t-33.5 -97.5q0 -83 72.5 -139.5t202.5 -57.5z" />
    <glyph glyph-name="uni03D7" unicode="&#x3d7;" horiz-adv-x="507" 
d="M180 230l131 -146q44 -50 94 -50q47 0 84 30v-55q-18 -11 -57.5 -45l-74.5 -61.5t-91 -50.5t-113 -23q-128 0 -208 101v92q65 -146 208 -146q56 0 109.5 25.5t96 59t49.5 36.5q-73 -13 -139 64l-145 164v-121q0 -74 3 -104h-56q3 33 3 104v231q0 61 -4 107h51
q3 -34 3 -107v-108q106 120 123 137q41 43 69 64t51 21q27 0 40 -13q-41 -9 -105 -73q-59 -58 -122 -133z" />
    <glyph glyph-name="uni03D9" unicode="&#x3d9;" horiz-adv-x="531" 
d="M240 -75v69q-84 10 -142 75t-58 152q0 94 66 161t159 67t159 -67t66 -161q0 -87 -58 -152t-142 -75v-69q0 -26 2 -80h-54q2 54 2 80zM90 221q0 -77 51 -130.5t124 -53.5t124.5 54t51.5 130t-51.5 130t-124.5 54t-124 -54t-51 -130z" />
    <glyph glyph-name="uni03DB" unicode="&#x3db;" horiz-adv-x="405" 
d="M328 -190h-48q43 66 43 117q0 33 -21 50t-66 26q-194 38 -194 216q0 93 57 154.5t157 75.5q45 6 60 23t15 72h46q-1 -74 -24 -100.5t-85 -35.5q-84 -13 -129.5 -62.5t-45.5 -124.5q0 -141 166 -174q59 -12 86 -36t27 -74q0 -46 -44 -127z" />
    <glyph glyph-name="uni03DD" unicode="&#x3dd;" horiz-adv-x="446" 
d="M122 -155h-57q11 44 11 130v330q0 73 -4 137h120q62 0 158 3v-50q-48 3 -158 3h-65v-210h81q69 0 117 3v-49q-48 3 -117 3h-81v-171q0 -76 -5 -129z" />
    <glyph glyph-name="uni03E1" unicode="&#x3e1;" horiz-adv-x="524" 
d="M82 323l-20 43q29 11 102 47l159 78q-54 74 -121.5 121t-118.5 46l65 30q41 -11 89.5 -44.5t104.5 -99t96 -148.5q56 -117 68.5 -228t-16.5 -184l-62 -28q33 52 34 141t-20 155l-167 -83q-60 -28 -101 -51l-21 43q31 13 102 47l175 85q-36 93 -81 160l-167 -80z" />
    <glyph glyph-name="uni0400" unicode="&#x400;" horiz-adv-x="435" 
d="M129 348v-304h94q123 0 168 3v-50q-45 3 -168 3h-151q4 110 4 179v328q0 118 -4 178h143q121 0 168 3v-50q-41 4 -168 4h-86v-250h88q105 0 152 3v-50q-46 3 -152 3h-88zM131 838l128 -103h-57l-138 103h67z" />
    <glyph glyph-name="uni0401" unicode="&#x401;" horiz-adv-x="435" 
d="M129 348v-304h94q123 0 168 3v-50q-45 3 -168 3h-151q4 110 4 179v328q0 118 -4 178h143q121 0 168 3v-50q-41 4 -168 4h-86v-250h88q105 0 152 3v-50q-46 3 -152 3h-88zM108 778q0 13 9.5 22.5t23.5 9.5q13 0 22.5 -9t9.5 -23q0 -13 -9.5 -23t-22.5 -10t-23 10t-10 23z
M283 778q0 13 9.5 22.5t23.5 9.5t23 -9t9 -23q0 -13 -9.5 -23t-22.5 -10t-23 10t-10 23z" />
    <glyph glyph-name="uni0402" unicode="&#x402;" horiz-adv-x="665" 
d="M569 184q0 77 -45.5 132.5t-127.5 55.5q-70 0 -121 -29v-166q0 -136 4 -177h-60q3 46 3 179v463h-62q-84 0 -144 -4v50q45 -3 144 -3h249q106 0 151 3v-50q-60 4 -153 4h-132v-255q48 30 126 30q108 0 165 -68t57 -163q0 -110 -72 -183.5t-179 -103.5v50q85 26 141 84
t56 151z" />
    <glyph glyph-name="uni0403" unicode="&#x403;" horiz-adv-x="432" 
d="M72 0q4 62 4 179v327q0 119 -4 179h186q72 0 149 5v-53q-124 4 -149 4h-129v-462q0 -86 3 -179h-60zM199 735l127 103h68l-138 -103h-57z" />
    <glyph glyph-name="uni0404" unicode="&#x404;" horiz-adv-x="641" 
d="M596 84v-62q-94 -33 -191 -33q-168 0 -264 98t-96 256q0 156 97 255t263 99q18 0 34 -1t31.5 -3t26 -3.5t26.5 -5.5l22 -5.5t23 -6.5t21 -6v-66q-64 50 -183 50q-135 0 -217 -77t-88 -198h246q134 0 181 3v-50q-47 3 -181 3h-248q2 -130 85 -213t222 -83q128 0 190 49z
" />
    <glyph glyph-name="uni0405" unicode="&#x405;" horiz-adv-x="460" 
d="M49 16v89q17 -32 64 -54.5t99 -22.5q65 0 102.5 38.5t37.5 100.5q0 45 -29.5 80t-71 60l-83 51.5t-71 68.5t-29.5 97q0 82 52.5 128.5t137.5 46.5q32 0 77 -13t59 -15v-87q-12 32 -50 52.5t-85 20.5q-62 0 -99 -33.5t-37 -94.5q0 -44 29.5 -79t71.5 -60l83.5 -52t71 -69
t29.5 -97q0 -83 -53 -135t-145 -52q-31 0 -58.5 5t-57 14t-45.5 12z" />
    <glyph glyph-name="uni0406" unicode="&#x406;" horiz-adv-x="215" 
d="M133 506v-327q0 -117 4 -179h-60q4 62 4 179v327q0 119 -4 179h60q-4 -60 -4 -179z" />
    <glyph glyph-name="uni0407" unicode="&#x407;" horiz-adv-x="215" 
d="M133 506v-327q0 -117 4 -179h-60q4 62 4 179v327q0 119 -4 179h60q-4 -60 -4 -179zM-13 778q0 13 9.5 22.5t23.5 9.5t23 -9t9 -23q0 -13 -9.5 -23t-22.5 -10t-23 10t-10 23zM162 778q0 13 9.5 22.5t23.5 9.5t23.5 -9.5t9.5 -22.5t-10 -23t-23 -10t-23 10t-10 23z" />
    <glyph glyph-name="uni0408" unicode="&#x408;" horiz-adv-x="212" 
d="M134 506v-505q0 -84 -44.5 -130.5t-112.5 -46.5q-13 0 -26 2t-27.5 6t-21.5 5v64q25 -32 73 -32q45 0 76 36t31 94v507q0 119 -4 179h59q-3 -45 -3 -179z" />
    <glyph glyph-name="uni0409" unicode="&#x409;" horiz-adv-x="833" 
d="M65 0h-65q30 54 66 152l209 548h22l106 -277h145q124 0 185 -53.5t61 -150.5q0 -94 -63.5 -156.5t-166.5 -62.5h-55q-7 25 -45 125l-182 474l-175 -475q-35 -93 -42 -124zM420 381l133 -339h10q73 0 124.5 50t51.5 127q0 162 -198 162h-121z" />
    <glyph glyph-name="uni040A" unicode="&#x40a;" horiz-adv-x="883" 
d="M127 506v-113h355v113q0 109 -5 179h60q-4 -176 -4 -179v-84h66q114 0 179.5 -58.5t65.5 -151.5t-65.5 -152.5t-178.5 -59.5h-123q5 47 5 145v204h-355v-205q0 -60 3 -144h-58q4 56 4 145v361q0 125 -4 179h58q-3 -81 -3 -179zM533 377v-333h63q91 0 142.5 45.5
t51.5 121.5q0 74 -51.5 120t-142.5 46h-63z" />
    <glyph glyph-name="uni040B" unicode="&#x40b;" horiz-adv-x="685" 
d="M564 216q0 81 -39.5 119.5t-100.5 38.5q-76 0 -149 -46v-148q0 -118 4 -180h-62q6 62 6 179v463h-74q-73 0 -133 -4v51q60 -4 133 -4h258q99 0 159 4v-52q-39 5 -159 5h-132v-268q78 43 158 43t132 -48.5t52 -148.5v-115q0 -69 3 -105h-59q3 46 3 216z" />
    <glyph glyph-name="uni040C" unicode="&#x40c;" horiz-adv-x="530" 
d="M406 838l-137 -103h-57l127 103h67zM173 336h-44v-157q0 -86 3 -179h-60q4 62 4 179v327q0 119 -4 179h60q-3 -90 -3 -179v-129h46q178 192 257 308h75q-13 -12 -40.5 -45l-94.5 -110l-152 -170l135 -158l90 -106.5l48.5 -56.5t36.5 -39h-82q-47 73 -275 336z" />
    <glyph glyph-name="uni040D" unicode="&#x40d;" horiz-adv-x="687" 
d="M615 0h-59q3 42 3 144v437l-367 -463q-65 -80 -104 -135h-16q4 77 4 146v377q0 69 -5 179h62q-4 -84 -4 -179v-401l366 461q67 83 102 135h17q-3 -83 -3 -192v-364q0 -89 4 -145zM264 838l128 -103h-57l-138 103h67z" />
    <glyph glyph-name="uni040E" unicode="&#x40e;" horiz-adv-x="567" 
d="M221 0h-66q28 45 48 83l64 123l-207 377l-60 102h68q10 -26 39 -79l188 -345l175 349q23 46 31 75h66q-36 -62 -53 -94l-258 -509q-35 -81 -35 -82zM181 840q5 -39 35.5 -64.5t76.5 -25.5q47 0 77 25.5t35 64.5h45q-5 -54 -48 -89.5t-109 -35.5q-65 0 -108.5 35.5
t-49.5 89.5h46z" />
    <glyph glyph-name="uni040F" unicode="&#x40f;" horiz-adv-x="616" 
d="M540 502v-377q0 -80 4 -125h-207l-8 -177h-48l1 177h-209q3 111 3 176v330q0 129 -5 179h62q-4 -60 -4 -179v-463h359v460q0 118 -4 182h61q-5 -53 -5 -183z" />
    <glyph glyph-name="uni0410" unicode="&#x410;" horiz-adv-x="619" 
d="M619 0h-69q-14 42 -50 126l-59 140h-272l-57 -139q-39 -94 -48 -127h-64q29 55 70 152l230 546h16l231 -546q42 -95 72 -152zM423 309l-118 289l-118 -289h236z" />
    <glyph glyph-name="uni0411" unicode="&#x411;" horiz-adv-x="482" 
d="M72 685h146q91 0 157 3v-46q-62 3 -157 3h-89v-235h87q96 0 156.5 -58.5t60.5 -146.5t-60.5 -146.5t-158.5 -58.5h-143q5 52 5 179v326q0 131 -4 180zM129 370v-330h81q75 0 122.5 48t47.5 116t-48 117t-122 49h-81z" />
    <glyph glyph-name="uni0412" unicode="&#x412;" 
d="M210 0h-138q5 52 5 179v319q0 147 -4 187h122q82 0 131.5 -45.5t49.5 -114.5q0 -49 -26 -86.5t-59 -49.5q67 -19 104.5 -70t37.5 -119q0 -86 -62 -143t-161 -57zM129 361v-317h78q74 0 123 44t49 112q0 72 -45 116.5t-115 44.5h-90zM129 643v-242h88q45 0 75.5 35
t30.5 85q0 53 -37.5 87.5t-94.5 34.5h-62z" />
    <glyph glyph-name="uni0413" unicode="&#x413;" horiz-adv-x="432" 
d="M72 0q4 62 4 179v327q0 119 -4 179h186q72 0 149 5v-53q-124 4 -149 4h-129v-462q0 -86 3 -179h-60z" />
    <glyph glyph-name="uni0414" unicode="&#x414;" horiz-adv-x="701" 
d="M685 46l-17 -223h-47l10 177h-560l1 -177h-45l-9 223q13 -2 59 -2q8 16 46 105l220 551h16l218 -551q33 -78 46 -105q47 0 62 2zM561 44l-212 559l-215 -559h427z" />
    <glyph glyph-name="uni0415" unicode="&#x415;" horiz-adv-x="435" 
d="M129 348v-304h94q123 0 168 3v-50q-45 3 -168 3h-151q4 110 4 179v328q0 118 -4 178h143q121 0 168 3v-50q-41 4 -168 4h-86v-250h88q105 0 152 3v-50q-46 3 -152 3h-88z" />
    <glyph glyph-name="uni0416" unicode="&#x416;" horiz-adv-x="835" 
d="M75 0h-75q19 19 62 72l112 139.5l121 148.5l-130 156.5l-98.5 119t-44.5 49.5h73q70 -105 250 -311h45v132q0 134 -3 179h59q-4 -60 -4 -179v-132h49q131 147 252 311h71q-25 -25 -64.5 -72.5l-100 -120.5l-109.5 -130l136 -167l100 -126.5t59 -68.5h-78
q-130 180 -263 335h-52v-156q0 -117 4 -179h-59q3 46 3 179v156h-49q-189 -220 -266 -335z" />
    <glyph glyph-name="uni0417" unicode="&#x417;" horiz-adv-x="472" 
d="M122 329v53q15 -5 79 -5q62 0 106 38.5t44 103.5q0 56 -40 92.5t-104 36.5q-80 0 -140 -47v61q8 2 54 16.5t89 14.5q89 0 142 -48t53 -124q0 -62 -35.5 -105.5t-88.5 -57.5q61 -16 100 -61.5t39 -111.5q0 -84 -55.5 -138t-154.5 -54q-42 0 -75.5 8.5t-60 20.5t-38.5 15
v68h1q27 -28 75 -47.5t93 -19.5q76 0 118.5 42t42.5 106q0 68 -49 108t-117 40q-45 0 -78 -5z" />
    <glyph glyph-name="uni0418" unicode="&#x418;" horiz-adv-x="687" 
d="M615 0h-59q3 42 3 144v437l-367 -463q-65 -80 -104 -135h-16q4 77 4 146v377q0 69 -5 179h62q-4 -84 -4 -179v-401l366 461q67 83 102 135h17q-3 -83 -3 -192v-364q0 -89 4 -145z" />
    <glyph glyph-name="uni0419" unicode="&#x419;" horiz-adv-x="687" 
d="M615 0h-59q3 42 3 144v437l-367 -463q-65 -80 -104 -135h-16q4 77 4 146v377q0 69 -5 179h62q-4 -84 -4 -179v-401l366 461q67 83 102 135h17q-3 -83 -3 -192v-364q0 -89 4 -145zM236 840q5 -39 36 -64.5t77 -25.5t76.5 25.5t35.5 64.5h45q-5 -54 -48 -89.5t-109 -35.5
q-65 0 -108.5 35.5t-49.5 89.5h45z" />
    <glyph glyph-name="uni041A" unicode="&#x41a;" horiz-adv-x="530" 
d="M173 336h-44v-157q0 -86 3 -179h-60q4 62 4 179v327q0 119 -4 179h60q-3 -90 -3 -179v-129h46q178 192 257 308h75q-13 -12 -40.5 -45l-94.5 -110l-152 -170l135 -158l90 -106.5l48.5 -56.5t36.5 -39h-82q-47 73 -275 336z" />
    <glyph glyph-name="uni041B" unicode="&#x41b;" horiz-adv-x="625" 
d="M67 0h-67q25 41 71 152l232 549h14l234 -549q45 -105 74 -152h-72q-10 33 -49 125l-196 468l-195 -470q-31 -77 -46 -123z" />
    <glyph glyph-name="uni041C" unicode="&#x41c;" horiz-adv-x="802" 
d="M95 0h-59q16 97 26 181l65 518h14l263 -612l265 612h17l51 -544q9 -92 21 -155h-64q0 46 -8 143l-36 420l-243 -574h-12l-240 573l-47 -405q-12 -111 -13 -157z" />
    <glyph glyph-name="uni041D" unicode="&#x41d;" horiz-adv-x="669" 
d="M132 0h-58q3 42 3 145v361q0 138 -3 179h58q-3 -41 -3 -179v-113h411v113q0 137 -3 179h59q-3 -66 -3 -179v-362q0 -102 3 -144h-59q3 42 3 145v204h-411v-205q0 -102 3 -144z" />
    <glyph glyph-name="uni041E" unicode="&#x41e;" horiz-adv-x="787" 
d="M45 343q0 146 101.5 250t246.5 104t247.5 -104t102.5 -250t-102.5 -250t-247.5 -104t-246.5 104t-101.5 250zM99 343q0 -128 86 -218.5t208 -90.5t209 90.5t87 218.5q0 127 -87 217.5t-209 90.5t-208 -90.5t-86 -217.5z" />
    <glyph glyph-name="uni041F" unicode="&#x41f;" horiz-adv-x="628" 
d="M73 685h481q-3 -32 -3 -125v-377q0 -126 5 -183h-60q3 48 3 181v460h-370v-462q0 -133 3 -179h-59q4 62 4 179v331q0 101 -4 175z" />
    <glyph glyph-name="uni0420" unicode="&#x420;" horiz-adv-x="449" 
d="M129 280v-101q0 -133 3 -179h-59q4 41 4 179v352q0 114 -4 154h126q99 0 158 -57t59 -145q0 -86 -62.5 -144.5t-157.5 -58.5h-67zM129 644v-323h66q71 0 119 49.5t48 113.5q0 68 -45.5 114t-122.5 46h-65z" />
    <glyph glyph-name="uni0421" unicode="&#x421;" horiz-adv-x="628" 
d="M601 91v-64q-102 -38 -191 -38q-152 0 -258.5 103.5t-106.5 250.5t106.5 250.5t258.5 103.5q14 0 28.5 -1t25.5 -2t25.5 -4l22 -4.5t23 -5.5t19.5 -5.5t21 -6.5t19 -6v-65q-67 53 -181 53q-130 0 -222 -89.5t-92 -217.5t92 -218t222 -90q122 0 188 56z" />
    <glyph glyph-name="uni0422" unicode="&#x422;" horiz-adv-x="605" 
d="M192 685h219q125 0 171 3v-50q-62 4 -171 4h-81q-1 -37 -1 -129v-334q0 -148 3 -179h-59q3 46 3 179v334q0 74 -3 129h-81q-107 0 -169 -4v50q47 -3 169 -3z" />
    <glyph glyph-name="uni0423" unicode="&#x423;" horiz-adv-x="567" 
d="M221 0h-66q28 45 48 83l64 123l-207 377l-60 102h68q10 -26 39 -79l188 -345l175 349q23 46 31 75h66q-36 -62 -53 -94l-258 -509q-35 -81 -35 -82z" />
    <glyph glyph-name="uni0424" unicode="&#x424;" horiz-adv-x="720" 
d="M388 -25h-58q0 12 1 32t1.5 36.5t0.5 31.5q-128 5 -210 78t-82 195t82 194.5t210 78.5q0 39 -3 90h58q-3 -51 -3 -90q128 -5 211 -78t83 -195t-83 -195t-211 -78q0 -1 3 -100zM385 576v-456q104 3 173.5 64.5t69.5 163.5t-69.5 163t-173.5 65zM333 120v456
q-104 -5 -172 -66t-68 -162q0 -102 68 -162.5t172 -65.5z" />
    <glyph glyph-name="uni0425" unicode="&#x425;" horiz-adv-x="486" 
d="M70 0h-69q42 56 94 141l120 201l-117 195q-48 83 -97 148h72q32 -60 70 -122l101 -172l102 172l68 122h69q-34 -43 -97 -147l-115 -191l117 -197q52 -86 99 -150h-71l-74 128l-100 171l-110 -184q-42 -75 -62 -115z" />
    <glyph glyph-name="uni0426" unicode="&#x426;" horiz-adv-x="617" 
d="M533 44h47l-13 -221h-47l5 177h-32h-421q4 74 4 176v330q0 104 -5 179h62q-4 -60 -4 -179v-463h351v460q0 139 -4 182h61q-5 -53 -5 -183v-377q0 -55 1 -81z" />
    <glyph glyph-name="uni0427" unicode="&#x427;" horiz-adv-x="556" 
d="M108 488q0 -77 44.5 -118t112.5 -41q95 0 162 37v214q0 70 -3 105h58q-3 -35 -3 -105v-475q0 -59 4 -105h-59q3 36 3 105v216q-80 -37 -170 -37t-145.5 49.5t-55.5 147.5v99q0 70 -3 105h57q-2 -46 -2 -105v-92z" />
    <glyph glyph-name="uni0428" unicode="&#x428;" horiz-adv-x="830" 
d="M757 0h-685q4 69 4 163v339q0 128 -5 183h59q-4 -43 -4 -181v-462h265v460q0 128 -5 183h58q-3 -32 -3 -181v-462h262v464q0 59 -4 179h59q-5 -75 -5 -179v-330q0 -62 4 -176z" />
    <glyph glyph-name="uni0429" unicode="&#x429;" horiz-adv-x="830" 
d="M747 44h49l-12 -207h-45l2 163h-32h-636q3 78 3 163v339q0 139 -4 183h58q-4 -64 -4 -181v-460h260v458q0 134 -3 183h56q-3 -32 -3 -181v-460h259v462q0 119 -4 179h59q-5 -75 -5 -179v-330q0 -46 2 -132z" />
    <glyph glyph-name="uni042A" unicode="&#x42a;" horiz-adv-x="599" 
d="M249 442h79q105 0 165 -63t60 -159q0 -93 -63 -156.5t-162 -63.5h-136q5 52 5 179v326q0 61 -2 137h-44q-95 0 -135 -4v50q45 -3 135 -3h42h46h13q-3 -30 -3 -179v-64zM249 44h74q75 0 125 51.5t50 124.5q0 76 -48 126.5t-127 50.5h-74v-353z" />
    <glyph glyph-name="uni042B" unicode="&#x42b;" horiz-adv-x="633" 
d="M560 0h-57q3 31 3 179v327q0 149 -3 179h57q-3 -45 -3 -179v-327q0 -133 3 -179zM127 397v-353h72q75 0 125.5 51.5t50.5 124.5q0 76 -48 126.5t-128 50.5h-72zM72 685h59q-4 -60 -4 -179v-64h78q105 0 164.5 -63t59.5 -159q0 -93 -62.5 -156.5t-162.5 -63.5h-133
q5 52 5 179v326q0 120 -4 180z" />
    <glyph glyph-name="uni042C" unicode="&#x42c;" horiz-adv-x="492" 
d="M129 397v-353h87q74 0 124.5 51.5t50.5 124.5q0 76 -48 126.5t-127 50.5h-87zM72 685h60q-3 -45 -3 -179v-64h93q105 0 164.5 -63t59.5 -159q0 -93 -62.5 -156.5t-162.5 -63.5h-150q5 52 5 179v326q0 120 -4 180z" />
    <glyph glyph-name="uni042D" unicode="&#x42d;" horiz-adv-x="636" 
d="M535 330h-241q-128 0 -173 -3v52q45 -3 173 -3h241q-8 114 -92 193t-206 79q-113 0 -181 -54v62q95 37 183 37q155 0 252.5 -101t97.5 -249q0 -149 -97.5 -249.5t-252.5 -100.5q-85 0 -190 38v63q70 -56 188 -56q126 0 211 85.5t87 206.5z" />
    <glyph glyph-name="uni042E" unicode="&#x42e;" horiz-adv-x="932" 
d="M129 363h111q7 139 98.5 234.5t221.5 95.5q135 0 229.5 -102.5t94.5 -247.5t-94.5 -247.5t-229.5 -102.5q-128 0 -220 94.5t-100 231.5h-111v-140q0 -86 3 -179h-60q4 62 4 179v327q0 119 -4 179h60q-3 -90 -3 -179v-143zM560 39q113 0 191.5 89t78.5 215
q0 127 -78.5 215.5t-191.5 88.5q-112 0 -190 -88.5t-78 -215.5q0 -126 78 -215t190 -89z" />
    <glyph glyph-name="uni042F" unicode="&#x42f;" horiz-adv-x="502" 
d="M431 0h-62q5 39 5 171v124h-64q-32 0 -49 2q-35 -50 -101.5 -156.5t-90.5 -140.5h-69q36 41 112 158t99 149q-51 16 -91.5 61t-40.5 123q0 86 57.5 140t160.5 54h134q-5 -50 -5 -179v-335q0 -119 5 -171zM374 336v307h-78q-78 0 -121 -44.5t-43 -107.5q0 -69 46 -112
t115 -43h81z" />
    <glyph glyph-name="uni0430" unicode="&#x430;" horiz-adv-x="426" 
d="M398 35v-34q-18 -12 -44 -12q-45 0 -48 54q-37 -54 -116 -54q-69 0 -109 35.5t-40 91.5q0 55 40.5 92t110.5 37q37 0 68.5 -14.5t43.5 -36.5v68q0 146 -122 146q-70 0 -110 -45v57q8 2 27.5 10t42 13.5t48.5 5.5q81 0 121.5 -47t40.5 -147v-188q0 -37 25 -37q13 0 21 5z
M92 118q0 -40 28.5 -65.5t79.5 -25.5q44 0 75.5 26.5t31.5 64.5q0 37 -31.5 63.5t-75.5 26.5q-51 0 -79.5 -26t-28.5 -64z" />
    <glyph glyph-name="uni0431" unicode="&#x431;" horiz-adv-x="515" 
d="M465 700v-51q-4 -1 -168 -37q-101 -23 -154 -97t-58 -214q16 57 64.5 92t114.5 35q88 0 149 -61t61 -149q0 -94 -59.5 -159.5t-145.5 -65.5q-32 0 -61 7t-60 27t-53 52t-36.5 86.5t-14.5 125.5q0 148 62.5 242t185.5 126q25 7 86 19.5t87 21.5zM97 224q0 -77 50.5 -132
t120.5 -55q65 0 111 52.5t46 127.5q0 69 -48.5 117.5t-116.5 48.5q-67 0 -115 -47t-48 -112z" />
    <glyph glyph-name="uni0432" unicode="&#x432;" horiz-adv-x="414" 
d="M119 442h98q67 0 102 -29t35 -79q0 -36 -19.5 -60t-47.5 -32q82 -27 82 -114q0 -59 -42.5 -93.5t-113.5 -34.5h-141q3 60 3 114v201q0 65 -1 93h-44q13 12 26 34h16h47zM123 405v-153h99q30 0 56.5 22.5t26.5 55.5q0 35 -22.5 55t-68.5 20h-91zM123 37h88q49 0 78.5 25.5
t29.5 66.5q0 38 -24.5 63t-62.5 25h-109v-180z" />
    <glyph glyph-name="uni0433" unicode="&#x433;" horiz-adv-x="336" 
d="M119 442h73q98 0 128 3v-49q-45 3 -128 3h-67v-239q0 -98 4 -160h-58q4 62 4 160v105q0 67 -2 143h-44q16 15 26 34h16h48z" />
    <glyph glyph-name="uni0434" unicode="&#x434;" horiz-adv-x="531" 
d="M506 43l-13 -188h-43l8 145h-384l3 -145h-44l-7 188q24 -3 56 -3l152 371q5 13 1 31h47l167 -402q41 0 57 3zM394 40l-133 334l-133 -334h266z" />
    <glyph glyph-name="uni0435" unicode="&#x435;" horiz-adv-x="487" 
d="M410 75v-56q-2 0 -49.5 -13.5t-100.5 -13.5q-94 0 -156.5 65.5t-62.5 161.5q0 100 59.5 164.5t146.5 64.5q49 0 89.5 -21.5t63.5 -53.5t35 -64.5t12 -59.5q0 -2 -0.5 -5.5t-0.5 -4.5h-353q-7 -81 43 -143t130 -62q87 0 144 41zM97 277h295q-5 49 -45.5 90.5t-99.5 41.5
q-55 0 -95.5 -37.5t-54.5 -94.5z" />
    <glyph glyph-name="uni0436" unicode="&#x436;" horiz-adv-x="579" 
d="M395 227l107 -140q45 -57 77 -87h-69q-14 25 -44 64l-108 146h-44v-91q0 -89 3 -119h-52q1 21 1 119v91h-42l-114 -149q-31 -40 -43 -61h-67q32 29 72 81l113 146l-91 125q-50 67 -75 90h63q11 -22 45 -66l95 -131h44v78q0 26 -0.5 69t-0.5 50h52q-3 -60 -3 -119v-78h46
l95 134q17 21 43 63h59q-26 -26 -70 -86z" />
    <glyph glyph-name="uni0437" unicode="&#x437;" horiz-adv-x="382" 
d="M163 211q-44 0 -66 -4v46q16 -4 63 -4q51 0 83 21.5t32 60.5q0 34 -27 57t-77 23q-77 0 -116 -43v53q2 0 39 14t82 14q68 0 108.5 -33.5t40.5 -84.5q0 -71 -81 -101q92 -33 92 -109q0 -58 -42.5 -93.5t-111.5 -35.5q-33 0 -59.5 6t-54 18t-30.5 13v51h2q52 -48 134 -48
q52 0 82 26t30 66t-32.5 63.5t-90.5 23.5z" />
    <glyph glyph-name="uni0438" unicode="&#x438;" horiz-adv-x="481" 
d="M410 327v-232q0 -59 2 -95h-51q2 36 2 94v249l-195 -257q-53 -69 -76 -103h-20q3 58 3 97v245q0 56 -2 83h-40q13 12 26 34h12h51h3q-3 -42 -3 -117v-242l198 258q40 52 77 109h15q-2 -70 -2 -123z" />
    <glyph glyph-name="uni0439" unicode="&#x439;" horiz-adv-x="481" 
d="M336 612h40q0 -46 -37.5 -78.5t-91.5 -32.5q-53 0 -90 32.5t-37 78.5h40q0 -31 25.5 -53t61.5 -22q37 0 63 22t26 53zM410 327v-232q0 -59 2 -95h-51q2 36 2 94v249l-195 -257q-53 -69 -76 -103h-20q3 58 3 97v245q0 56 -2 83h-40q13 12 26 34h12h51h3q-3 -42 -3 -117
v-242l198 258q40 52 77 109h15q-2 -70 -2 -123z" />
    <glyph glyph-name="uni043A" unicode="&#x43a;" horiz-adv-x="397" 
d="M186 230l129 -146q44 -50 82 -84h-70q-26 33 -51 61l-133 149h-18v-91q0 -89 3 -119h-56q3 32 3 119v204q0 61 -1 85h-45q16 15 26 34h17h46h10q-3 -60 -3 -119v-78h20l116 134q37 39 52 63h63q-31 -28 -81 -85z" />
    <glyph glyph-name="uni043B" unicode="&#x43b;" horiz-adv-x="423" 
d="M330 80l-123 290l-120 -290q-19 -47 -29 -80h-58q21 36 45 97l132 308q8 20 3 37h45l150 -345q37 -81 48 -97h-63q-11 36 -30 80z" />
    <glyph glyph-name="uni043C" unicode="&#x43c;" horiz-adv-x="574" 
d="M452 448h27l35 -330q8 -86 14 -118h-54q-4 72 -8 109l-22 231l-150 -347h-15l-151 348l-27 -230q-10 -85 -11 -111h-52q8 39 19 118l43 330h27l162 -375z" />
    <glyph glyph-name="uni043D" unicode="&#x43d;" horiz-adv-x="484" 
d="M413 327v-234q0 -39 3 -93h-54q3 27 3 93v128h-242v-128q0 -57 2 -93h-53q3 54 3 93v234q0 35 -2 81h-43q16 15 26 34h16h47h6q0 -6 -1 -47.5t-1 -67.5v-69h242v69q0 75 -3 115h54q-3 -84 -3 -115z" />
    <glyph glyph-name="uni043E" unicode="&#x43e;" horiz-adv-x="532" 
d="M41 221q0 94 66 161t158 67q94 0 160 -66.5t66 -161.5t-66 -161.5t-160 -66.5q-92 0 -158 67t-66 161zM90 221q0 -76 51 -130t124 -54t125 54t52 130t-52 130t-125 54t-124 -54t-51 -130z" />
    <glyph glyph-name="uni043F" unicode="&#x43f;" horiz-adv-x="471" 
d="M404 344v-226q0 -97 2 -118h-53v118v282h-228v-283q0 -98 2 -117h-54q0 6 1 48.5t1 68.5v196q0 63 -1 95h-45q16 15 26 34h18h46h287q-2 -21 -2 -98z" />
    <glyph glyph-name="uni0440" unicode="&#x440;" horiz-adv-x="560" 
d="M129 -256h-58q4 40 4 104v560h-45q10 10 26 34h69v-106q26 52 72 82.5t103 30.5q91 0 155 -67t64 -161q0 -95 -64 -161.5t-155 -66.5q-58 0 -105 28t-70 80v-253q0 -64 4 -104zM122 221q0 -77 50.5 -131t121.5 -54q72 0 123 54t51 130q0 77 -51.5 131.5t-124.5 54.5
q-70 0 -120 -54.5t-50 -130.5z" />
    <glyph glyph-name="uni0441" unicode="&#x441;" horiz-adv-x="411" 
d="M91 220q0 -76 51 -129.5t123 -53.5q70 0 106 28v-59q-9 -1 -30.5 -5t-39 -6t-38.5 -2q-93 0 -157.5 66t-64.5 161t64.5 162t157.5 67q27 0 60.5 -5.5t45.5 -6.5v-61q-41 29 -104 29q-72 0 -123 -54.5t-51 -130.5z" />
    <glyph glyph-name="uni0442" unicode="&#x442;" horiz-adv-x="389" 
d="M118 442h154q61 0 101 2v-46q-40 2 -101 2h-53v-88v-195q0 -89 3 -117h-56q3 57 3 117v195v88h-51q-64 0 -102 -2v46q38 -2 102 -2z" />
    <glyph glyph-name="uni0443" unicode="&#x443;" horiz-adv-x="427" 
d="M1 442h64q6 -18 35 -80l126 -243q73 152 107 235q14 34 34 88h60q-11 -20 -50 -107q-67 -158 -132 -279q-51 -97 -164 -273q-16 -26 -30.5 -35.5t-38.5 -9.5q-10 0 -17 4q31 41 61 86q94 145 143 235l-142 276q-35 68 -56 103z" />
    <glyph glyph-name="uni0444" unicode="&#x444;" horiz-adv-x="607" 
d="M328 560v-112q111 -7 175 -70t64 -157t-64 -157t-175 -69v-99q0 -71 3 -104h-55q3 33 3 104v99q-111 7 -174.5 69.5t-63.5 156.5q0 93 63.5 156.5t174.5 70.5v160h-45q6 6 15 18.5t11 15.5h71q-3 -28 -3 -82zM328 408v-375q90 6 139.5 58t49.5 130q0 77 -49.5 128.5
t-139.5 58.5zM279 33v375q-89 -7 -138.5 -59t-49.5 -128q0 -77 49.5 -129t138.5 -59z" />
    <glyph glyph-name="uni0445" unicode="&#x445;" horiz-adv-x="354" 
d="M66 0h-63q24 32 72 106l74 114l-73 117q-32 53 -69 105h64q17 -38 46 -83l62 -101l63 101q35 58 47 83h61q-28 -36 -72 -105l-72 -116l73 -114q35 -58 73 -107h-63q-15 31 -34 60l-78 123l-50 -78q-42 -67 -61 -105z" />
    <glyph glyph-name="uni0446" unicode="&#x446;" horiz-adv-x="482" 
d="M401 40h46l-10 -185h-41l2 145h-16h-310q3 32 3 91v317h-45q16 15 26 34h19h45h6q-1 -11 -1 -118v-282h226v284q0 96 -2 116h54q-2 -40 -2 -116v-286z" />
    <glyph glyph-name="uni0447" unicode="&#x447;" horiz-adv-x="416" 
d="M347 0h-55q2 48 2 113v79q-55 -23 -109 -23q-65 0 -101 36t-36 102v43q0 39 -1 58h-43q13 12 26 34h15h48h7q-2 -33 -2 -92v-36q0 -49 26 -76t73 -27q49 0 97 21v114q0 60 -3 96h55q-2 -48 -2 -96v-231q0 -77 3 -115z" />
    <glyph glyph-name="uni0448" unicode="&#x448;" horiz-adv-x="625" 
d="M554 327v-198q0 -73 3 -129h-484q2 66 2 121v205q0 26 -2 82h-44q16 15 26 34h17h47h7q-2 -38 -2 -117v-285h166v285q0 96 -2 117h53q-2 -22 -2 -117v-285h167v287q0 87 -3 115h54q-3 -57 -3 -115z" />
    <glyph glyph-name="uni0449" unicode="&#x449;" horiz-adv-x="635" 
d="M555 40h48l-10 -185h-41l2 145h-17h-464q2 66 2 121v205q0 26 -2 82h-44q16 15 26 34h17h47h7q-2 -38 -2 -117v-285h166v285q0 96 -2 117h53q-2 -22 -2 -117v-285h167v287q0 87 -3 115h54q-3 -57 -3 -115v-198q0 -59 1 -89z" />
    <glyph glyph-name="uni044A" unicode="&#x44a;" horiz-adv-x="451" 
d="M187 294h74q73 0 116 -42.5t43 -105.5q0 -62 -42 -104t-115 -42h-129q3 30 3 114v208v77q-81 0 -121 -1v45q47 -1 142 -1h32q-3 -56 -3 -120v-28zM187 37h73q52 0 80.5 31t28.5 77q0 47 -30 79.5t-85 32.5h-67v-220z" />
    <glyph glyph-name="uni044B" unicode="&#x44b;" horiz-adv-x="513" 
d="M69 442h53q-3 -60 -3 -120v-28h60q73 0 116.5 -42.5t43.5 -105.5t-42.5 -104.5t-116.5 -41.5h-112q3 30 3 114v208q0 83 -2 120zM119 257v-220h58q53 0 82 31.5t29 77.5q0 45 -30.5 78t-83.5 33h-55zM445 0h-54q3 33 3 104v234q0 70 -3 104h54q-3 -34 -3 -104v-234
q0 -74 3 -104z" />
    <glyph glyph-name="uni044C" unicode="&#x44c;" horiz-adv-x="394" 
d="M69 442h54q-3 -60 -3 -119v-29h77q76 0 120 -42.5t44 -105.5q0 -62 -43 -104t-116 -42h-134q3 30 3 114v208q0 83 -2 120zM120 257v-220h77q54 0 83.5 31t29.5 77t-31.5 79t-87.5 33h-71z" />
    <glyph glyph-name="uni044D" unicode="&#x44d;" horiz-adv-x="433" 
d="M44 16v60q44 -41 128 -41q71 0 117 50.5t48 122.5h-138q-89 0 -110 -1v45q32 -3 110 -3h138q-4 61 -49 109.5t-116 48.5q-83 0 -126 -38v58q11 2 34 9t43.5 10.5t48.5 3.5q94 0 157.5 -64.5t63.5 -163.5q0 -100 -63 -164.5t-158 -64.5q-20 0 -39 2.5t-30 5t-30.5 8
t-28.5 7.5z" />
    <glyph glyph-name="uni044E" unicode="&#x44e;" horiz-adv-x="684" 
d="M125 239h100q5 90 63 150.5t144 60.5q89 0 149 -66.5t60 -161.5t-60 -162t-149 -67q-84 0 -142 59.5t-65 149.5h-100v-86q0 -59 3 -116h-56q3 57 3 116v211q0 33 -2 81h-43q16 15 25 34h17h47h9q-3 -57 -3 -115v-88zM432 35q69 0 114 54.5t45 132.5t-45 131.5t-114 53.5
t-114 -53.5t-45 -131.5t45 -132.5t114 -54.5z" />
    <glyph glyph-name="uni044F" unicode="&#x44f;" horiz-adv-x="394" 
d="M274 114v70h-85q-28 -37 -67.5 -102.5t-53.5 -81.5h-63q28 28 72 94.5t69 97.5q-38 7 -69.5 41.5t-31.5 80.5q0 53 40.5 90.5t110.5 37.5h130q-3 -31 -3 -117v-211q0 -84 3 -114h-55q3 30 3 114zM274 219v186h-77q-48 0 -75 -26t-27 -65q0 -38 29 -66.5t73 -28.5h77z" />
    <glyph glyph-name="uni0450" unicode="&#x450;" horiz-adv-x="487" 
d="M410 75v-56q-2 0 -49.5 -13.5t-100.5 -13.5q-94 0 -156.5 65.5t-62.5 161.5q0 100 59.5 164.5t146.5 64.5q49 0 89.5 -21.5t63.5 -53.5t35 -64.5t12 -59.5q0 -2 -0.5 -5.5t-0.5 -4.5h-353q-7 -81 43 -143t130 -62q87 0 144 41zM97 277h295q-5 49 -45.5 90.5t-99.5 41.5
q-55 0 -95.5 -37.5t-54.5 -94.5zM180 653l95 -148h-46l-102 148h53z" />
    <glyph glyph-name="uni0451" unicode="&#x451;" horiz-adv-x="487" 
d="M410 75v-56q-2 0 -49.5 -13.5t-100.5 -13.5q-94 0 -156.5 65.5t-62.5 161.5q0 100 59.5 164.5t146.5 64.5q49 0 89.5 -21.5t63.5 -53.5t35 -64.5t12 -59.5q0 -2 -0.5 -5.5t-0.5 -4.5h-353q-7 -81 43 -143t130 -62q87 0 144 41zM97 277h295q-5 49 -45.5 90.5t-99.5 41.5
q-55 0 -95.5 -37.5t-54.5 -94.5zM130 577q0 13 9 21.5t22 8.5t21.5 -8.5t8.5 -21.5t-8.5 -21.5t-21.5 -8.5t-22 8.5t-9 21.5zM304 577q0 13 9 21.5t22 8.5t21.5 -8.5t8.5 -21.5t-8.5 -21.5t-21.5 -8.5t-22 8.5t-9 21.5z" />
    <glyph glyph-name="uni0452" unicode="&#x452;" horiz-adv-x="499" 
d="M127 0h-56q3 36 3 105v436h-72v38h72v122h-45q6 5 14.5 18t10.5 15h73q-3 -39 -3 -116v-39h179v-38h-179v-117q47 21 109 21q93 0 151 -64t58 -166q0 -213 -236 -296l-1 50q183 71 183 244q0 83 -46.5 136.5t-116.5 53.5q-56 0 -101 -21v-277q0 -69 3 -105z" />
    <glyph glyph-name="uni0453" unicode="&#x453;" horiz-adv-x="336" 
d="M309 653l-102 -148h-46l96 148h52zM119 442h73q98 0 128 3v-49q-45 3 -128 3h-67v-239q0 -98 4 -160h-58q4 62 4 160v105q0 67 -2 143h-44q16 15 26 34h16h48z" />
    <glyph glyph-name="uni0454" unicode="&#x454;" horiz-adv-x="428" 
d="M217 208h-122q2 -71 51 -121.5t120 -50.5q81 0 122 38v-59q-10 -2 -28.5 -7.5t-29 -7.5t-29.5 -4.5t-39 -2.5q-96 0 -158.5 64.5t-62.5 164.5q0 99 63 163.5t158 64.5q23 0 42 -2t28 -4t26 -6.5t26 -6.5v-59q-38 36 -119 36q-72 0 -118 -48t-52 -111h122q79 0 119 2v-44
q-20 1 -119 1z" />
    <glyph glyph-name="uni0455" unicode="&#x455;" horiz-adv-x="355" 
d="M46 14v70q13 -22 51 -39t72 -17q41 0 65 20.5t24 54.5q0 29 -20.5 51t-50 37.5t-58.5 33t-49.5 46t-20.5 67.5q0 49 34.5 80t97.5 31q25 0 45 -5t36 -11.5t24 -8.5v-66q-10 22 -43 37t-60 15q-41 0 -62 -19t-21 -50q0 -30 20.5 -52t50 -37.5l59 -32.5t50 -45.5
t20.5 -67.5q0 -52 -38 -85t-101 -33q-22 0 -44 4t-51 13t-30 9z" />
    <glyph glyph-name="uni0456" unicode="&#x456;" horiz-adv-x="196" 
d="M128 0h-56q3 33 3 105v303h-45q13 12 26 34h72q-3 -34 -3 -104v-233q0 -75 3 -105zM66 576q0 14 9 23.5t23 9.5t23.5 -9.5t9.5 -23.5t-9.5 -23t-23.5 -9t-23 9t-9 23z" />
    <glyph glyph-name="uni0457" unicode="&#x457;" horiz-adv-x="196" 
d="M128 0h-56q3 33 3 105v303h-45q7 5 26 34h72q-3 -34 -3 -104v-233q0 -75 3 -105zM-18 577q0 13 9 21.5t22 8.5t21.5 -8.5t8.5 -21.5t-8.5 -21.5t-21.5 -8.5t-22 8.5t-9 21.5zM156 577q0 13 9 21.5t22 8.5t21.5 -8.5t8.5 -21.5t-8.5 -21.5t-21.5 -8.5t-22 8.5t-9 21.5z
" />
    <glyph glyph-name="uni0458" unicode="&#x458;" horiz-adv-x="196" 
d="M-68 -254v50q17 -15 49 -15q43 0 68.5 36t25.5 102v489h-46q8 8 27 34h72q-3 -37 -3 -104v-420q0 -84 -33.5 -131.5t-100.5 -47.5q-18 0 -38 3.5t-21 3.5zM65 576q0 14 9 23.5t23 9.5t23.5 -9.5t9.5 -23.5t-9.5 -23t-23.5 -9q-13 0 -22.5 9t-9.5 23z" />
    <glyph glyph-name="uni0459" unicode="&#x459;" horiz-adv-x="599" 
d="M311 71l-117 293l-115 -293q-20 -57 -24 -71h-55q8 13 38 88l127 316q7 18 1 38h45l62 -148h115q85 0 132 -38.5t47 -112.5q0 -66 -47 -104.5t-118 -38.5h-64q-18 49 -27 71zM517 143q0 51 -33.5 82t-102.5 31h-93l91 -220h23q52 0 83.5 31t31.5 76z" />
    <glyph glyph-name="uni045A" unicode="&#x45a;" horiz-adv-x="637" 
d="M383 294h60q67 0 115 -39t48 -107q0 -67 -44.5 -107.5t-119.5 -40.5h-112q3 48 3 94v126h-208v-127q0 -61 3 -93h-56q3 54 3 94v233q0 35 -2 81h-44q16 15 26 34h17h47h9q-3 -27 -3 -112v-72h208v72q0 72 -3 112h56q-3 -42 -3 -112v-36zM383 36h52q61 0 90.5 31.5
t29.5 79.5q0 45 -32.5 77.5t-87.5 32.5h-52v-221z" />
    <glyph glyph-name="uni045B" unicode="&#x45b;" horiz-adv-x="476" 
d="M413 0h-56q3 69 3 104v155q0 68 -31 108t-86 40q-57 0 -89 -41.5t-32 -105.5v-156q0 -70 3 -104h-56q3 34 3 104v437h-70v38h70v122h-44q6 5 13.5 17t11.5 16h72q-3 -37 -3 -104v-51h174v-38h-174v-173q18 38 54 59.5t82 21.5q74 0 113 -52.5t39 -138.5v-154
q0 -70 3 -104z" />
    <glyph glyph-name="uni045C" unicode="&#x45c;" horiz-adv-x="397" 
d="M331 653l-102 -148h-46l96 148h52zM186 230l129 -146q44 -50 82 -84h-70q-26 33 -51 61l-133 149h-18v-91q0 -89 3 -119h-56q3 32 3 119v204q0 61 -1 85h-45q16 15 26 34h17h46h10q-3 -60 -3 -119v-78h20l116 134q37 39 52 63h63q-31 -28 -81 -85z" />
    <glyph glyph-name="uni045D" unicode="&#x45d;" horiz-adv-x="481" 
d="M278 505h-45l-102 148h52zM410 327v-232q0 -59 2 -95h-51q2 36 2 94v249l-195 -257q-53 -69 -76 -103h-20q3 58 3 97v245q0 56 -2 83h-40q13 12 26 34h12h51h3q-3 -42 -3 -117v-242l198 258q40 52 77 109h15q-2 -70 -2 -123z" />
    <glyph glyph-name="uni045E" unicode="&#x45e;" horiz-adv-x="427" 
d="M1 442h64q6 -18 35 -80l126 -243q73 152 107 235q14 34 34 88h60q-11 -20 -50 -107q-67 -158 -132 -279q-51 -97 -164 -273q-16 -26 -30.5 -35.5t-38.5 -9.5q-10 0 -17 4q31 41 61 86q94 145 143 235l-142 276q-35 68 -56 103zM134 612q0 -31 25.5 -53t61.5 -22
q37 0 63 22t26 53h40q0 -46 -37.5 -78.5t-91.5 -32.5q-53 0 -90 32.5t-37 78.5h40z" />
    <glyph glyph-name="uni045F" unicode="&#x45f;" horiz-adv-x="474" 
d="M403 326v-198q0 -14 0.5 -65t0.5 -63h-136l-6 -145h-41l2 145h-151q3 32 3 96v228l-2 84h-44q16 15 26 34h17h47h7q-1 -11 -1 -118v-284h228v286q0 96 -2 116h54q-2 -40 -2 -116z" />
    <glyph glyph-name="uni0462" unicode="&#x462;" horiz-adv-x="629" 
d="M274 422h96q99 0 158.5 -60t59.5 -151t-62 -151t-161 -60h-149q5 52 5 179v399h-110q-70 0 -93 -2v48q31 -4 93 -4h110v6q0 53 -2 84h58q-3 -46 -3 -85v-5h181q64 0 106 4v-48q-46 2 -106 2h-181v-156zM274 41h84q72 0 123.5 49t51.5 120q0 74 -49 122t-130 48h-80v-339z
" />
    <glyph glyph-name="uni0463" unicode="&#x463;" 
d="M192 281h66q88 0 135 -35.5t47 -105.5q0 -69 -47.5 -104.5t-134.5 -35.5h-120q4 62 4 174v228h-125v40h125v59q0 35 -2 93h55q-3 -44 -3 -93v-59h180v-40h-180v-121zM192 38h68q63 0 96 27t33 75t-33 75.5t-96 27.5h-68v-205z" />
    <glyph glyph-name="uni0472" unicode="&#x472;" horiz-adv-x="788" 
d="M393 697q145 0 247.5 -104t102.5 -250t-102.5 -250t-247.5 -104t-246.5 104t-101.5 250t101.5 250t246.5 104zM100 369h588q-10 119 -94.5 200.5t-200.5 81.5q-115 0 -199 -81.5t-94 -200.5zM689 328h-590q6 -123 91 -208.5t203 -85.5t204 85.5t92 208.5z" />
    <glyph glyph-name="uni0473" unicode="&#x473;" horiz-adv-x="532" 
d="M265 449q94 0 160 -66.5t66 -161.5t-66 -161.5t-160 -66.5q-92 0 -158 67t-66 161t66 161t158 67zM90 245h351q-9 69 -59.5 116t-116.5 47q-67 0 -117 -47t-58 -116zM442 210h-353q5 -75 55 -125.5t121 -50.5q70 0 121 51t56 125z" />
    <glyph glyph-name="uni0474" unicode="&#x474;" horiz-adv-x="655" 
d="M-1 685h70q12 -41 45 -124l194 -476q72 208 176 478q30 76 55 103t63 27q21 0 33 -6v-54q-18 9 -37 9q-17 0 -33 -23t-43 -93q-116 -286 -209 -543h-12l-231 551q-45 109 -71 151z" />
    <glyph glyph-name="uni0475" unicode="&#x475;" horiz-adv-x="450" 
d="M91 363l116 -280l25 72l37.5 104.5l31.5 84.5q39 105 103 105q19 0 29 -5v-51q-14 8 -34 8q-18 0 -31 -18t-31 -61q-11 -25 -62 -161t-64 -176h-12l-149 354q-26 62 -52 103h66q8 -30 27 -79z" />
    <glyph glyph-name="uni0490" unicode="&#x490;" horiz-adv-x="437" 
d="M380 810h43l-12 -173q-62 4 -149 4h-133v-462q0 -86 3 -179h-60q4 62 4 179v327q0 119 -4 179h293z" />
    <glyph glyph-name="uni0491" unicode="&#x491;" horiz-adv-x="351" 
d="M289 551h41l-10 -154q-46 3 -129 3h-66v-241q0 -97 4 -159h-58q4 62 4 159v105q0 68 -2 144h-44q16 15 26 34h16h48h158z" />
    <glyph glyph-name="uni0492" unicode="&#x492;" horiz-adv-x="434" 
d="M268 641h-130v-268h199v-39h-199v-155q0 -86 3 -179h-59q4 62 4 179v155h-67v39h67v133q0 119 -4 179h186q72 0 149 5v-53q-124 4 -149 4z" />
    <glyph glyph-name="uni0493" unicode="&#x493;" horiz-adv-x="338" 
d="M193 399h-67v-153h108v-38h-108v-48q0 -98 4 -160h-58q4 62 4 160v48h-56v38h56v19q0 67 -2 143h-42q16 16 25 34h15h49h72q98 0 129 3v-49q-46 3 -129 3z" />
    <glyph glyph-name="uni0496" unicode="&#x496;" horiz-adv-x="872" 
d="M796 44h61l-12 -207h-46l3 163h-32h-13q-130 180 -263 335h-52v-156q0 -117 4 -179h-59q3 46 3 179v156h-49q-189 -220 -266 -335h-75q19 19 62 72l112 139.5l121 148.5l-130 156.5l-98.5 119t-44.5 49.5h73q70 -105 250 -311h45v132q0 134 -3 179h59q-4 -60 -4 -179
v-132h49q131 147 252 311h71q-25 -25 -64.5 -72.5l-100 -120.5l-109.5 -130z" />
    <glyph glyph-name="uni0497" unicode="&#x497;" horiz-adv-x="622" 
d="M540 40h64l-9 -185h-41l2 145h-17h-29q-14 25 -44 64l-108 146h-44v-91q0 -89 3 -119h-52q1 21 1 119v91h-42l-114 -149q-31 -40 -43 -61h-67q32 29 72 81l113 146l-91 125q-50 67 -75 90h63q11 -22 45 -66l95 -131h44v78q0 26 -0.5 69t-0.5 50h52q-3 -60 -3 -119v-78h46
l95 134q17 21 43 63h59q-26 -26 -70 -86l-92 -129l107 -140l21.5 -26.5t16.5 -20.5z" />
    <glyph glyph-name="uni0498" unicode="&#x498;" horiz-adv-x="475" 
d="M67 601v61q8 2 54 16.5t89 14.5q89 0 142 -48t53 -124q0 -62 -35.5 -105.5t-88.5 -57.5q61 -16 100 -61.5t39 -111.5q0 -72 -42 -123.5t-119 -64.5l-30 -46q29 -2 48.5 -20t19.5 -51t-23.5 -53.5t-59.5 -20.5q-28 0 -51 13v40q5 -8 19 -15t30 -7q20 0 33 11.5t13 30.5
q0 20 -14.5 32t-38.5 12q-21 0 -31 -6l48 76h-12q-42 0 -75.5 8.5t-60 20.5t-38.5 15v68h1q27 -28 75 -47.5t93 -19.5q76 0 118.5 42t42.5 106q0 68 -49 108t-117 40q-45 0 -78 -5v53q15 -5 79 -5q62 0 106 38.5t44 103.5q0 56 -40 92.5t-104 36.5q-80 0 -140 -47z" />
    <glyph glyph-name="uni0499" unicode="&#x499;" horiz-adv-x="382" 
d="M55 368v53q2 0 39 14t82 14q68 0 108.5 -33.5t40.5 -84.5q0 -71 -81 -101q92 -33 92 -109q0 -52 -34.5 -86t-92.5 -41l-28 -43q29 -2 48 -20t19 -51t-23 -53.5t-59 -20.5q-32 0 -51 13v40q13 -22 49 -22q20 0 32.5 11.5t12.5 30.5q0 20 -14.5 32t-37.5 12t-31 -6l47 75
q-30 1 -54.5 7t-51 17.5t-29.5 12.5v51h2q52 -48 134 -48q52 0 82 26t30 66t-32.5 63.5t-90.5 23.5q-44 0 -66 -4v46q16 -4 63 -4q51 0 83 21.5t32 60.5q0 34 -27 57t-77 23q-77 0 -116 -43z" />
    </font>
</defs>
</svg>
