<?xml version="1.0" standalone="no"?>
<!DOCTYPE svg PUBLIC "-//W3C//DTD SVG 1.1//EN" "http://www.w3.org/Graphics/SVG/1.1/DTD/svg11.dtd" >
<svg>
<metadata>
Created by FontForge 20090622 at Thu Aug 23 09:58:27 2018
 By deploy user
Copyright (c) 2012 by Hannes von Doehren. All rights reserved.
</metadata>
<defs>
<font id="PlutoSansCondRegular" horiz-adv-x="577" >
  <font-face 
    font-family="Pluto Sans Cond Regular"
    font-weight="400"
    font-stretch="condensed"
    units-per-em="1000"
    panose-1="2 0 0 0 0 0 0 0 0 0"
    ascent="750"
    descent="-250"
    x-height="523"
    cap-height="680"
    bbox="-133 -260 1059 907"
    underline-thickness="50"
    underline-position="0"
    unicode-range="U+0020-U+FB02"
  />
<missing-glyph horiz-adv-x="612" 
d="M50 720h512v-720h-512v720zM266 283h48q0 26 14 47t34 36l40 29.5t34 36t14 48.5q0 51 -36.5 85t-101.5 34q-39 0 -67 -14.5t-41.5 -37t-19 -43.5t-5.5 -41h47q0 40 21 66.5t65 26.5q41 0 64 -21.5t23 -54.5q0 -23 -21 -45t-45.5 -38t-45.5 -46t-21 -68zM255 194v-71h68
v71h-68z" />
    <glyph glyph-name=".notdef" horiz-adv-x="612" 
d="M50 720h512v-720h-512v720zM266 283h48q0 26 14 47t34 36l40 29.5t34 36t14 48.5q0 51 -36.5 85t-101.5 34q-39 0 -67 -14.5t-41.5 -37t-19 -43.5t-5.5 -41h47q0 40 21 66.5t65 26.5q41 0 64 -21.5t23 -54.5q0 -23 -21 -45t-45.5 -38t-45.5 -46t-21 -68zM255 194v-71h68
v71h-68z" />
    <glyph glyph-name=".null" horiz-adv-x="0" 
 />
    <glyph glyph-name=".null" horiz-adv-x="0" 
 />
    <glyph glyph-name="nonmarkingreturn" horiz-adv-x="333" 
 />
    <glyph glyph-name="space" unicode=" " horiz-adv-x="205" 
 />
    <glyph glyph-name="exclam" unicode="!" horiz-adv-x="252" 
d="M90 211l-13 469h97l-14 -469h-70zM63 56q0 68 63 68q30 0 47 -18t17 -50q0 -33 -17 -50.5t-47 -17.5q-63 0 -63 68z" />
    <glyph glyph-name="quotedbl" unicode="&#x22;" horiz-adv-x="392" 
d="M144 680l-5 -246h-68l-4 246h77zM326 680l-5 -246h-69l-3 246h77z" />
    <glyph glyph-name="numbersign" unicode="#" horiz-adv-x="600" 
d="M297 8l32 150h-141l-33 -158h-73v8l32 150h-75v74h91l46 216h-73v75h89l34 157h72v-8l-32 -149h140l34 157h72v-8l-32 -149h82v-75h-98l-46 -216h80v-74h-96l-33 -158h-72v8zM250 448l-46 -216h140l46 216h-140z" />
    <glyph glyph-name="dollar" unicode="$" horiz-adv-x="528" 
d="M232 -129v120q-52 3 -101 19t-79 35l23 92q71 -52 157 -57v227l-57 18q-132 39 -132 167q0 74 49.5 128.5t139.5 65.5v83h60v-80q104 -4 184 -50l-29 -88q-64 44 -155 47v-215l38 -12q79 -25 117 -66t38 -108q0 -83 -52 -138.5t-141 -65.5v-122h-60zM384 191
q0 37 -22.5 59.5t-69.5 37.5v-204q42 9 67 36.5t25 70.5zM140 498q0 -69 78 -92l14 -5v193q-92 -18 -92 -96z" />
    <glyph glyph-name="percent" unicode="%" horiz-adv-x="757" 
d="M187 8l301 672h83v-8l-300 -672h-84v8zM35 513q0 82 42.5 129.5t111.5 47.5q68 0 111 -47.5t43 -129.5q0 -83 -42.5 -129t-111.5 -46t-111.5 46t-42.5 129zM107 513q0 -50 22.5 -76.5t59.5 -26.5t59 26.5t22 76.5t-22 76.5t-59 26.5t-59.5 -26.5t-22.5 -76.5zM414 165
q0 83 42.5 130t110.5 47q69 0 112 -47t43 -130q0 -82 -43 -128.5t-112 -46.5q-68 0 -110.5 46.5t-42.5 128.5zM486 165q0 -50 22 -76t59 -26q38 0 60 26t22 76t-22 76.5t-60 26.5q-37 0 -59 -26.5t-22 -76.5z" />
    <glyph glyph-name="ampersand" unicode="&#x26;" horiz-adv-x="646" 
d="M616 11v-15h-113l-56 64q-86 -70 -194 -70q-91 0 -144.5 49t-53.5 131q0 110 136 181q-39 44 -58 82t-19 87q0 73 48.5 121.5t134.5 48.5q83 0 132.5 -46t49.5 -124q0 -115 -131 -179l-23 -11l128 -140q60 82 90 193l73 -49q-36 -121 -105 -208zM273 76q60 0 118 47
l-147 168q-44 -23 -67 -47t-23 -62q0 -48 32 -77t87 -29zM208 513q0 -52 64 -124l40 19q73 33 73 105q0 39 -25.5 65.5t-62.5 26.5q-41 0 -65 -25.5t-24 -66.5z" />
    <glyph glyph-name="quotesingle" unicode="'" horiz-adv-x="210" 
d="M144 680l-5 -246h-68l-4 246h77z" />
    <glyph glyph-name="parenleft" unicode="(" horiz-adv-x="270" 
d="M133 261q0 -138 31.5 -247t71.5 -173l-56 -34q-47 55 -89.5 175.5t-42.5 279.5t42.5 279t89.5 175l56 -34q-40 -65 -71.5 -173.5t-31.5 -247.5z" />
    <glyph glyph-name="parenright" unicode=")" horiz-adv-x="270" 
d="M136 261q0 139 -31 247.5t-71 173.5l55 34q48 -55 90.5 -175t42.5 -279t-42.5 -279.5t-90.5 -175.5l-55 34q39 63 70.5 172.5t31.5 247.5z" />
    <glyph glyph-name="asterisk" unicode="*" horiz-adv-x="435" 
d="M95 383l66 109l-114 30l21 67l116 -39l-5 130h77l-5 -131l116 40l21 -67l-117 -32l69 -107l-58 -36l-65 112l-64 -112z" />
    <glyph glyph-name="plus" unicode="+" horiz-adv-x="493" 
d="M285 535v-193h162v-79h-162v-193h-77v193h-162v79h162v193h77z" />
    <glyph glyph-name="comma" unicode="," horiz-adv-x="247" 
d="M68 -148l38 136q-46 9 -46 64q0 34 16.5 52t46.5 18t47 -19.5t17 -50.5q0 -45 -21.5 -115t-42.5 -108z" />
    <glyph glyph-name="hyphen" unicode="-" horiz-adv-x="466" 
d="M67 342h332v-79h-332v79z" />
    <glyph glyph-name="period" unicode="." horiz-adv-x="248" 
d="M60 56q0 32 16.5 50t46.5 18q31 0 48 -18t17 -50q0 -33 -17 -50.5t-48 -17.5q-63 0 -63 68z" />
    <glyph glyph-name="slash" unicode="/" horiz-adv-x="442" 
d="M29 8l301 672h83v-8l-300 -672h-84v8z" />
    <glyph glyph-name="zero" unicode="0" horiz-adv-x="610" 
d="M55 339q0 162 63 256.5t186 94.5q124 0 187.5 -94.5t63.5 -256.5q0 -161 -63.5 -255t-187.5 -94q-123 0 -186 94t-63 255zM149 339q0 -120 37.5 -188.5t117.5 -68.5q157 0 157 257q0 261 -157 261q-80 0 -117.5 -69.5t-37.5 -191.5z" />
    <glyph glyph-name="one" unicode="1" horiz-adv-x="428" 
d="M18 534l249 146h73v-680h-97v565l-188 -106z" />
    <glyph glyph-name="two" unicode="2" horiz-adv-x="550" 
d="M62 0v75l229 217q49 45 71.5 85.5t22.5 90.5q0 60 -31 96t-90 36q-61 0 -93 -44t-34 -118l-88 16q2 108 59.5 172t160.5 64q104 0 159.5 -60.5t55.5 -154.5q0 -65 -28 -118t-92 -114l-165 -157h301v-86h-438z" />
    <glyph glyph-name="three" unicode="3" horiz-adv-x="546" 
d="M121 394h143q52 0 80.5 29.5t28.5 72.5q0 53 -38 81.5t-96 28.5q-88 0 -163 -47l-23 84q89 47 192 47q109 0 167.5 -47t58.5 -135q0 -55 -28.5 -98t-74.5 -55q124 -38 124 -170q0 -91 -65.5 -143t-181.5 -52q-89 0 -193 45l25 83q85 -44 165 -44q65 0 108 33.5t43 91.5
q0 108 -129 108h-143v87z" />
    <glyph glyph-name="four" unicode="4" horiz-adv-x="607" 
d="M572 141h-113v-141h-97v141h-333v66l302 473h128v-465h113v-74zM127 215h235v370z" />
    <glyph glyph-name="five" unicode="5" horiz-adv-x="540" 
d="M80 335l-4 5l25 340h370v-86h-289l-12 -185h81q238 0 238 -190q0 -115 -68 -172t-178 -57q-106 0 -200 47l25 83q83 -46 166 -46q66 0 111.5 35t45.5 107q0 119 -152 119h-159z" />
    <glyph glyph-name="six" unicode="6" horiz-adv-x="591" 
d="M329 606q-88 0 -132 -69t-46 -188q68 104 180 104q100 0 155.5 -58.5t55.5 -163.5q0 -108 -63.5 -174.5t-162.5 -66.5q-124 0 -193 95t-69 256q0 158 69.5 253.5t194.5 95.5q62 0 116 -19t83 -41l-29 -80q-25 22 -68.5 39t-90.5 17zM314 372q-98 0 -157 -114
q13 -83 52.5 -130.5t102.5 -47.5q58 0 96 43.5t38 107.5q0 68 -36 104.5t-96 36.5z" />
    <glyph glyph-name="seven" unicode="7" horiz-adv-x="479" 
d="M104 9l243 585h-316v86h425v-71l-245 -609h-107v9z" />
    <glyph glyph-name="eight" unicode="8" horiz-adv-x="591" 
d="M296 -10q-114 0 -178 52t-64 143q0 138 132 170q-52 12 -82 54.5t-30 98.5q0 87 58 134.5t164 47.5q105 0 163 -47.5t58 -134.5q0 -56 -29.5 -98.5t-82.5 -54.5q133 -32 133 -170q0 -90 -64.5 -142.5t-177.5 -52.5zM296 318q-72 0 -108 -32.5t-36 -86.5q0 -58 40 -93.5
t104 -35.5q63 0 103.5 35.5t40.5 93.5q0 54 -36 86.5t-108 32.5zM296 611q-58 0 -92 -29t-34 -83q0 -47 31 -79t95 -32q63 0 94 32t31 79q0 54 -34 83t-91 29z" />
    <glyph glyph-name="nine" unicode="9" horiz-adv-x="591" 
d="M261 74q88 0 132 68.5t46 186.5q-70 -102 -178 -102q-100 0 -156.5 59t-56.5 163q0 108 64 174.5t163 66.5q124 0 193 -95t69 -256q0 -158 -69.5 -253.5t-194.5 -95.5q-62 0 -115.5 18.5t-83.5 41.5l28 80q26 -22 69 -39t90 -17zM277 308q97 0 156 112
q-13 83 -52.5 131.5t-101.5 48.5q-58 0 -96.5 -43.5t-38.5 -107.5q0 -68 36.5 -104.5t96.5 -36.5z" />
    <glyph glyph-name="colon" unicode=":" horiz-adv-x="260" 
d="M66 471q0 32 16.5 49.5t45.5 17.5q64 0 64 -67t-64 -67q-29 0 -45.5 17.5t-16.5 49.5zM66 54q0 32 16.5 49.5t45.5 17.5q64 0 64 -67t-64 -67q-29 0 -45.5 17.5t-16.5 49.5z" />
    <glyph glyph-name="semicolon" unicode=";" horiz-adv-x="263" 
d="M78 -146l37 133q-45 9 -45 63q0 33 16.5 51t45.5 18t46 -19.5t17 -49.5q0 -45 -21 -113.5t-42 -105.5zM67 471q0 32 16.5 49.5t45.5 17.5q64 0 64 -67t-64 -67q-29 0 -45.5 17.5t-16.5 49.5z" />
    <glyph glyph-name="less" unicode="&#x3c;" horiz-adv-x="504" 
d="M40 262v78l393 199h7v-76l-322 -161l322 -159v-77h-7z" />
    <glyph glyph-name="equal" unicode="=" horiz-adv-x="541" 
d="M71 482h399v-78h-399v78zM71 201h399v-78h-399v78z" />
    <glyph glyph-name="greater" unicode="&#x3e;" horiz-adv-x="504" 
d="M464 340v-78l-392 -196h-7v77l322 159l-322 161v76h7z" />
    <glyph glyph-name="question" unicode="?" horiz-adv-x="412" 
d="M216 211h-79q-9 25 -9 50q0 24 11 43.5t37 47.5l56 66q23 26 32 47.5t9 54.5q0 38 -24 63t-66 25q-73 0 -119 -74l-29 75q65 81 170 81q77 0 121.5 -46.5t44.5 -121.5q0 -81 -67 -154l-61 -70q-18 -19 -24 -30.5t-6 -29.5q0 -12 3 -27zM115 56q0 68 63 68q31 0 47.5 -18
t16.5 -50q0 -68 -64 -68q-63 0 -63 68z" />
    <glyph glyph-name="at" unicode="@" horiz-adv-x="854" 
d="M614 491v-349q0 -35 7 -48.5t29 -13.5q39 0 68.5 61.5t29.5 174.5q0 156 -84 245.5t-228 89.5q-143 0 -231 -102t-88 -286t86.5 -286.5t232.5 -102.5q84 0 153 40l23 -62q-80 -46 -176 -46q-179 0 -284 122t-105 335q0 206 108.5 331t280.5 125t277 -109t105 -288
q0 -158 -55.5 -234.5t-143.5 -76.5q-39 0 -59 13.5t-32 43.5q-41 -56 -130 -56q-85 0 -137 67.5t-52 174.5q0 108 52 176.5t137 68.5q86 0 123 -48v40h93zM303 254q0 -71 34 -115.5t90 -44.5q58 0 94 47v230q-31 45 -94 45q-56 0 -90 -45t-34 -117z" />
    <glyph glyph-name="A" unicode="A" horiz-adv-x="617" 
d="M18 0l237 680h112l228 -680h-98l-49 153h-282l-51 -153h-97zM311 582l-119 -355h232z" />
    <glyph glyph-name="B" unicode="B" horiz-adv-x="606" 
d="M87 0v680h229q95 0 146.5 -44.5t51.5 -133.5q0 -110 -95 -148q141 -29 141 -170q0 -87 -53 -135.5t-152 -48.5h-268zM185 302v-216h158q115 0 115 104q0 112 -129 112h-144zM185 594v-201h115q55 0 85 26t30 75q0 100 -111 100h-119z" />
    <glyph glyph-name="C" unicode="C" horiz-adv-x="610" 
d="M51 340q0 162 81.5 256t212.5 94q136 0 223 -110l-52 -66q-73 84 -164 84q-94 0 -147.5 -67.5t-53.5 -190.5t53.5 -191t147.5 -68q90 0 164 85l52 -66q-87 -110 -223 -110q-131 0 -212.5 94t-81.5 256z" />
    <glyph glyph-name="D" unicode="D" horiz-adv-x="678" 
d="M87 0v680h240q132 0 215.5 -90t83.5 -251q0 -160 -83.5 -249.5t-215.5 -89.5h-240zM185 86h130q97 0 154 66t57 187q0 122 -57 188.5t-154 66.5h-130v-508z" />
    <glyph glyph-name="E" unicode="E" horiz-adv-x="589" 
d="M539 0h-452v680h452v-87h-358v-198h296v-86h-296v-223h358v-86z" />
    <glyph glyph-name="F" unicode="F" horiz-adv-x="557" 
d="M476 264h-295v-264h-94v680h435v-87h-341v-242h295v-87z" />
    <glyph glyph-name="G" unicode="G" horiz-adv-x="661" 
d="M580 604l-42 -78q-78 72 -169 72q-98 0 -158 -69t-60 -190q0 -122 59.5 -190t154.5 -68q86 0 145 47v164h-177v85h269v-305q-41 -35 -109.5 -58.5t-134.5 -23.5q-132 0 -220 94.5t-88 254.5q0 161 88 256t220 95q131 0 222 -86z" />
    <glyph glyph-name="H" unicode="H" horiz-adv-x="716" 
d="M531 0v299h-346v-299h-98v680h98v-295h346v295h98v-680h-98z" />
    <glyph glyph-name="I" unicode="I" horiz-adv-x="272" 
d="M87 0v680h98v-680h-98z" />
    <glyph glyph-name="J" unicode="J" horiz-adv-x="558" 
d="M22 227l94 9q5 -82 36 -120.5t95 -38.5q132 0 132 165v438h98v-437q0 -118 -59.5 -186t-172.5 -68q-106 0 -162.5 62t-60.5 176z" />
    <glyph glyph-name="K" unicode="K" horiz-adv-x="601" 
d="M87 0v680h98v-302h56l223 302h100v-15l-245 -329l269 -322v-14h-113l-237 292h-53v-292h-98z" />
    <glyph glyph-name="L" unicode="L" horiz-adv-x="514" 
d="M497 0h-410v680h98v-594h312v-86z" />
    <glyph glyph-name="M" unicode="M" horiz-adv-x="812" 
d="M627 0v517l-212 -309h-18l-212 309v-517h-98v680h96l223 -327l223 327h96v-680h-98z" />
    <glyph glyph-name="N" unicode="N" horiz-adv-x="714" 
d="M540 0l-356 516v-516h-97v680h85l356 -517v517h99v-680h-87z" />
    <glyph glyph-name="O" unicode="O" horiz-adv-x="696" 
d="M50 339q0 156 82 253.5t215 97.5t215.5 -97.5t82.5 -253.5q0 -155 -82.5 -252t-215.5 -97q-132 0 -214.5 97t-82.5 252zM147 339q0 -122 55 -189t145 -67q91 0 146.5 67t55.5 189q0 123 -55.5 190.5t-146.5 67.5q-90 0 -145 -67.5t-55 -190.5z" />
    <glyph glyph-name="P" unicode="P" horiz-adv-x="596" 
d="M87 0v680h265q89 0 149 -62t60 -180q0 -109 -61 -174t-148 -65h-167v-199h-98zM332 594h-147v-309h147q54 0 92 42t38 111q0 75 -37 115.5t-93 40.5z" />
    <glyph glyph-name="Q" unicode="Q" horiz-adv-x="696" 
d="M50 339q0 156 82 253.5t215 97.5t215.5 -97.5t82.5 -253.5q0 -122 -52.5 -210.5t-143.5 -121.5q1 -1 12 -13t13.5 -14.5l13.5 -13.5t15 -14.5t14.5 -12t17 -11.5t16.5 -9t18.5 -8t19 -4t21.5 -2q54 0 88 15l11 -81q-46 -19 -106 -19q-48 0 -93.5 24t-73 52.5l-54.5 58
t-38 35.5q-131 1 -212.5 98t-81.5 251zM145 339q0 -122 56 -189t146 -67q91 0 146.5 67t55.5 189q0 123 -55.5 190.5t-146.5 67.5q-90 0 -146 -67.5t-56 -190.5z" />
    <glyph glyph-name="R" unicode="R" horiz-adv-x="611" 
d="M87 0v680h269q89 0 147 -59t58 -159q0 -85 -48 -141t-123 -68l194 -237v-16h-108l-198 251h-93v-251h-98zM332 594h-147v-264h147q57 0 93 35t36 96q0 65 -36 99t-93 34z" />
    <glyph glyph-name="S" unicode="S" horiz-adv-x="538" 
d="M45 45l23 94q34 -23 85 -41t99 -18q60 0 100 29t40 81q0 75 -95 102l-103 30q-142 41 -142 173q0 80 59 137t167 57q115 0 200 -50l-28 -87q-32 20 -79 33.5t-90 13.5q-65 0 -98.5 -28t-33.5 -73q0 -36 20.5 -57t63.5 -34l102 -31q81 -25 119.5 -68.5t38.5 -111.5
q0 -91 -66.5 -148.5t-172.5 -57.5q-57 0 -116.5 17t-92.5 38z" />
    <glyph glyph-name="T" unicode="T" horiz-adv-x="534" 
d="M514 593h-193v-593h-98v593h-202v87h493v-87z" />
    <glyph glyph-name="U" unicode="U" horiz-adv-x="675" 
d="M178 680v-402q0 -198 159 -198q81 0 120.5 53t39.5 146v401h98v-407q0 -125 -65.5 -204.5t-192.5 -79.5q-128 0 -192.5 76t-64.5 208v407h98z" />
    <glyph glyph-name="V" unicode="V" horiz-adv-x="624" 
d="M249 0l-227 680h105l183 -577l191 577h105l-236 -680h-121z" />
    <glyph glyph-name="W" unicode="W" horiz-adv-x="939" 
d="M580 0l-109 335l-117 -335h-105l-227 680h103l185 -570l118 341l-74 229h104l173 -555l185 555h105l-236 -680h-105z" />
    <glyph glyph-name="X" unicode="X" horiz-adv-x="614" 
d="M588 680v-8l-214 -333l214 -331v-8h-113l-169 274l-169 -274h-112v8l213 331l-213 333v8h111l170 -275l170 275h112z" />
    <glyph glyph-name="Y" unicode="Y" horiz-adv-x="595" 
d="M249 0v279l-232 393v8h108l173 -310l172 310h107v-8l-232 -392v-280h-96z" />
    <glyph glyph-name="Z" unicode="Z" horiz-adv-x="534" 
d="M46 71l317 523h-317v86h442v-71l-317 -523h317v-86h-442v71z" />
    <glyph glyph-name="bracketleft" unicode="[" horiz-adv-x="304" 
d="M266 -188h-188v898h188v-79h-110v-740h110v-79z" />
    <glyph glyph-name="backslash" unicode="\" horiz-adv-x="442" 
d="M112 680l301 -672v-8h-84l-300 672v8h83z" />
    <glyph glyph-name="bracketright" unicode="]" horiz-adv-x="303" 
d="M38 710h187v-898h-187v79h110v740h-110v79z" />
    <glyph glyph-name="asciicircum" unicode="^" horiz-adv-x="494" 
d="M209 680h73l159 -275v-8h-89l-106 205l-106 -205h-87v8z" />
    <glyph glyph-name="underscore" unicode="_" horiz-adv-x="559" 
d="M67 -37h425v-79h-425v79z" />
    <glyph glyph-name="grave" unicode="`" horiz-adv-x="510" 
d="M256 598l-84 143h96l70 -143h-82z" />
    <glyph glyph-name="a" unicode="a" horiz-adv-x="517" 
d="M444 0h-95v46q-62 -56 -145 -56q-77 0 -120.5 42.5t-43.5 115.5q0 90 65 136.5t171 46.5q38 0 73 -8v17q0 108 -111 108q-70 0 -137 -32l-17 80q80 36 169 36q92 0 141.5 -50.5t49.5 -144.5v-337zM139 157q0 -42 26.5 -65.5t68.5 -23.5q69 0 115 50v135q-32 8 -68 8
q-63 0 -102.5 -26t-39.5 -78z" />
    <glyph glyph-name="b" unicode="b" 
d="M526 262q0 -128 -56.5 -200t-152.5 -72q-89 0 -143 66v-56h-96v710h96v-241q56 63 143 63q96 0 152.5 -71.5t56.5 -198.5zM428 260q0 87 -38.5 136.5t-104.5 49.5q-33 0 -63 -16.5t-48 -40.5v-257q18 -23 48 -39.5t63 -16.5q66 0 104.5 49.5t38.5 134.5z" />
    <glyph glyph-name="c" unicode="c" horiz-adv-x="507" 
d="M148 262q0 -87 40 -136.5t106 -49.5q72 0 126 59l45 -74q-73 -75 -173 -75q-107 0 -174.5 75t-67.5 201t67.5 200.5t174.5 74.5q100 0 173 -75l-45 -74q-54 59 -128 59q-65 0 -104.5 -49t-39.5 -136z" />
    <glyph glyph-name="d" unicode="d" 
d="M499 710v-710h-96v55q-55 -65 -141 -65q-96 0 -153.5 72.5t-57.5 199.5t57.5 198.5t153.5 71.5q83 0 141 -62v240h96zM149 260q0 -85 38.5 -134.5t103.5 -49.5q67 0 112 55v259q-19 24 -49 40t-63 16q-66 0 -104 -49.5t-38 -136.5z" />
    <glyph glyph-name="e" unicode="e" horiz-adv-x="532" 
d="M469 229h-324q7 -160 154 -160q75 0 139 57l38 -74q-76 -66 -191 -66q-117 0 -176 75t-59 199q0 122 63.5 199.5t169.5 77.5q99 0 148.5 -59.5t49.5 -152.5q0 -46 -12 -96zM150 306h240q3 15 3 32q0 52 -28.5 83.5t-81.5 31.5q-60 0 -95 -40t-38 -107z" />
    <glyph glyph-name="f" unicode="f" horiz-adv-x="397" 
d="M38 416v78h85v56q0 170 150 170q65 0 112 -36l-24 -83q-37 32 -73 32q-69 0 -69 -79v-60h147v-78h-147v-416h-96v416h-85z" />
    <glyph glyph-name="g" unicode="g" 
d="M52 280q0 115 57.5 183.5t152.5 68.5q90 0 141 -58v49h96v-493q0 -114 -60 -171t-156 -57q-93 0 -179 49l22 86q78 -51 146 -51q58 0 94.5 31t36.5 101v73q-54 -61 -141 -61q-95 0 -152.5 68.5t-57.5 181.5zM150 280q0 -75 38 -119.5t104 -44.5q59 0 111 56v215
q-48 59 -110 59q-66 0 -104.5 -44.5t-38.5 -121.5z" />
    <glyph glyph-name="h" unicode="h" horiz-adv-x="583" 
d="M509 0h-96v309q0 132 -111 132q-47 0 -80.5 -30t-47.5 -74v-337h-96v710h96v-261q53 83 163 83q172 0 172 -205v-327z" />
    <glyph glyph-name="i" unicode="i" horiz-adv-x="252" 
d="M67 672q0 54 60 54q58 0 58 -54q0 -55 -58 -55q-60 0 -60 55zM174 0h-96v523h96v-523z" />
    <glyph glyph-name="j" unicode="j" horiz-adv-x="252" 
d="M60 -197l-57 65q38 26 56.5 59.5t18.5 88.5v507h96v-503q0 -83 -29.5 -133.5t-84.5 -83.5zM67 672q0 54 59 54t59 -54q0 -55 -59 -55t-59 55z" />
    <glyph glyph-name="k" unicode="k" horiz-adv-x="512" 
d="M473 523v-16l-208 -230l222 -261v-16h-114l-199 242v-242h-96v710h96v-410l193 223h106z" />
    <glyph glyph-name="l" unicode="l" horiz-adv-x="293" 
d="M80 710h97v-578q0 -32 10.5 -45t31.5 -13q27 0 54 18l6 -77q-44 -25 -94 -25q-53 0 -79 27.5t-26 90.5v602z" />
    <glyph glyph-name="m" unicode="m" horiz-adv-x="885" 
d="M811 0h-96v315q0 66 -25 96t-81 30q-80 0 -112 -93q0 -2 0.5 -7t0.5 -8v-333h-96v315q0 126 -107 126q-91 0 -121 -98v-343h-96v523h96v-72q51 81 157 81q112 0 149 -94q49 94 157 94q91 0 132.5 -49.5t41.5 -149.5v-333z" />
    <glyph glyph-name="n" unicode="n" horiz-adv-x="583" 
d="M509 0h-97v309q0 132 -110 132q-47 0 -80.5 -30t-47.5 -74v-337h-96v523h96v-74q53 83 163 83q172 0 172 -205v-327z" />
    <glyph glyph-name="o" unicode="o" horiz-adv-x="575" 
d="M50 260q0 128 64.5 202.5t172.5 74.5t173 -74t65 -203q0 -127 -65 -200.5t-173 -73.5t-172.5 73.5t-64.5 200.5zM145 260q0 -87 38.5 -135.5t103.5 -48.5t103.5 48.5t38.5 135.5q0 89 -38.5 138t-103.5 49t-103.5 -49t-38.5 -138z" />
    <glyph glyph-name="p" unicode="p" 
d="M78 -188v711h96v-55q54 65 140 65q96 0 154 -72.5t58 -199.5t-58 -198.5t-154 -71.5q-84 0 -140 63v-242h-96zM428 264q0 85 -38.5 134t-104.5 49q-33 0 -63 -16t-48 -39v-260q17 -22 47.5 -38t63.5 -16q66 0 104.5 49.5t38.5 136.5z" />
    <glyph glyph-name="q" unicode="q" 
d="M51 260q0 128 56.5 200t152.5 72q87 0 143 -67v58h96v-711h-96v241q-58 -63 -143 -63q-96 0 -152.5 71.5t-56.5 198.5zM149 263q0 -87 38.5 -137t104.5 -50q65 0 111 56v257q-19 24 -48.5 40t-62.5 16q-66 0 -104.5 -48.5t-38.5 -133.5z" />
    <glyph glyph-name="r" unicode="r" horiz-adv-x="397" 
d="M175 0h-97v523h97v-80q37 89 120 89q48 0 82 -26l-17 -89q-34 24 -74 24q-78 0 -111 -112v-329z" />
    <glyph glyph-name="s" unicode="s" horiz-adv-x="455" 
d="M397 497l-24 -83q-68 34 -134 34q-43 0 -65.5 -18t-22.5 -49q0 -26 17 -40t56 -26l60 -19q124 -40 124 -143q0 -68 -53 -115.5t-138 -47.5q-94 0 -170 40l20 87q74 -45 146 -45q45 0 71.5 20t26.5 53q0 29 -18.5 45.5t-56.5 28.5l-59 19q-63 19 -94 52.5t-31 87.5
q0 67 48.5 110.5t133.5 43.5q41 0 88.5 -10.5t74.5 -24.5z" />
    <glyph glyph-name="t" unicode="t" horiz-adv-x="426" 
d="M210 445v-287q0 -82 70 -82q51 0 98 36l25 -78q-70 -44 -145 -44q-67 0 -105.5 38.5t-38.5 117.5v299h-82v78h88l11 133h79v-133h171v-78h-171z" />
    <glyph glyph-name="u" unicode="u" horiz-adv-x="582" 
d="M73 523h97v-309q0 -132 109 -132q48 0 81.5 30t47.5 74v337h97v-523h-97v74q-53 -83 -163 -83q-172 0 -172 205v327z" />
    <glyph glyph-name="v" unicode="v" horiz-adv-x="552" 
d="M420 523h105l-187 -523h-124l-188 523h105l145 -432z" />
    <glyph glyph-name="w" unicode="w" horiz-adv-x="864" 
d="M731 523h105l-166 -523h-121l-117 405l-121 -405h-121l-159 523h105l118 -430l121 430h118l114 -430z" />
    <glyph glyph-name="x" unicode="x" horiz-adv-x="513" 
d="M481 523v-8l-158 -255l158 -252v-8h-106l-119 206l-118 -206h-106v8l156 252l-156 255v8h104l120 -209l121 209h104z" />
    <glyph glyph-name="y" unicode="y" horiz-adv-x="532" 
d="M28 -168l15 74q37 -22 80 -22q35 0 55.5 21t36.5 68l11 36l-207 514h107l143 -416l133 415q16 0 49 0.5t49 0.5l-201 -569q-27 -77 -65 -114.5t-105 -37.5q-58 0 -101 30z" />
    <glyph glyph-name="z" unicode="z" horiz-adv-x="459" 
d="M49 71l239 373h-239v79h361v-71l-239 -374h239v-78h-361v71z" />
    <glyph glyph-name="braceleft" unicode="{" horiz-adv-x="289" 
d="M219 -124h23v-71h-39q-63 0 -93.5 32t-30.5 87q0 36 24 114.5t24 120.5q0 36 -20.5 52.5t-66.5 16.5v61q87 0 87 73q0 42 -24 120t-24 113q0 52 31 83.5t93 31.5h39v-71h-23q-32 0 -48 -18t-16 -46t24 -106t24 -119q0 -76 -68 -92q68 -16 68 -93q0 -41 -24 -118.5
t-24 -105.5q0 -29 16 -47t48 -18z" />
    <glyph glyph-name="bar" unicode="|" horiz-adv-x="232" 
d="M78 -188v898h76v-898h-76z" />
    <glyph glyph-name="braceright" unicode="}" horiz-adv-x="289" 
d="M86 -195h-40v71h25q31 0 47 18t16 47q0 28 -24 105.5t-24 118.5q0 78 69 93q-69 15 -69 92q0 41 24 119t24 106t-16 46t-47 18h-25v71h40q62 0 93 -31.5t31 -83.5q0 -35 -23.5 -113t-23.5 -120q0 -73 86 -73v-61q-46 0 -66 -16.5t-20 -52.5q0 -42 23.5 -120.5
t23.5 -114.5q0 -55 -30.5 -87t-93.5 -32z" />
    <glyph glyph-name="asciitilde" unicode="~" horiz-adv-x="457" 
d="M363 360l37 -44q-11 -42 -36.5 -67.5t-59.5 -25.5q-21 0 -42 12.5t-36 28t-34 28t-37 12.5q-20 0 -37.5 -17t-23.5 -47l-35 47q8 38 33 64t60 26t82 -40t68 -40q41 0 61 63z" />
    <glyph glyph-name="uni00A0" unicode="&#xa0;" horiz-adv-x="205" 
 />
    <glyph glyph-name="exclamdown" unicode="&#xa1;" horiz-adv-x="240" 
d="M155 314l13 -469h-96l13 469h70zM183 469q0 -32 -16.5 -50t-46.5 -18t-47 18t-17 50q0 33 17 50.5t47 17.5q63 0 63 -68z" />
    <glyph glyph-name="cent" unicode="&#xa2;" horiz-adv-x="528" 
d="M408 626l-25 -107q42 -17 82 -57l-45 -74q-30 32 -58 44l-84 -356h16q72 0 126 59l45 -74q-73 -75 -173 -75q-18 0 -35 3l-29 -125l-57 16l29 123q-70 28 -110 95.5t-40 163.5q0 126 67.5 200.5t174.5 74.5q13 0 33 -2l26 108zM148 262q0 -122 74 -167l83 351q-5 1 -13 1
q-65 0 -104.5 -49t-39.5 -136z" />
    <glyph glyph-name="sterling" unicode="&#xa3;" horiz-adv-x="554" 
d="M409 316h-167q17 -107 12 -166q8 -6 30.5 -27t42 -35t35.5 -14q35 0 49 36t12 108h82q13 -228 -120 -228q-27 0 -54 16.5t-58 45t-39 34.5q-17 -47 -41 -71.5t-65 -24.5q-40 0 -62.5 27.5t-22.5 72.5q0 43 24.5 70.5t63.5 27.5q24 0 42 -11q1 42 -20 139h-82v62h69
q-11 66 -11 116q0 87 45 141.5t132 54.5q53 0 99.5 -22.5t72.5 -49.5l-30 -84q-59 66 -126 66q-47 0 -71.5 -35t-24.5 -93q0 -38 7 -94h176v-62zM138 131q-18 0 -29.5 -12t-11.5 -33q0 -40 29 -40q35 0 43 73q-14 12 -31 12z" />
    <glyph glyph-name="currency" unicode="&#xa4;" horiz-adv-x="533" 
d="M84 302q0 55 30 96l-53 54l56 56l56 -57q38 27 90 27q55 0 95 -29l58 59l56 -56l-59 -58q29 -40 29 -92q0 -51 -28 -92l58 -57l-56 -56l-58 58q-40 -28 -95 -28q-52 0 -91 25l-55 -55l-56 56l53 53q-30 41 -30 96zM155 302q0 -47 30 -78t78 -31t78 31t30 78
q0 46 -30.5 77.5t-77.5 31.5t-77.5 -31.5t-30.5 -77.5z" />
    <glyph glyph-name="yen" unicode="&#xa5;" horiz-adv-x="526" 
d="M445 139h-135v-139h-98v139h-134v61h134v65h-134v62h112l-154 345v8h100l125 -320l129 320h100v-8l-159 -345h114v-62h-135v-65h135v-61z" />
    <glyph glyph-name="brokenbar" unicode="&#xa6;" horiz-adv-x="237" 
d="M157 -188h-77v347h77v-347zM80 710h77v-335h-77v335z" />
    <glyph glyph-name="section" unicode="&#xa7;" horiz-adv-x="549" 
d="M67 -51l22 80q92 -45 185 -45q56 0 89 18.5t33 52.5q0 16 -7 27t-24 19t-32.5 12.5t-44.5 11.5l-101 23q-68 16 -98.5 49t-30.5 91q0 89 79 135q-78 32 -78 112q0 66 58.5 110.5t160.5 44.5q111 0 203 -43l-27 -80q-95 44 -184 44q-56 0 -86.5 -21t-30.5 -52
q0 -26 20 -38.5t57 -20.5l108 -21q75 -16 114.5 -56.5t39.5 -100.5q0 -89 -81 -134q81 -36 81 -109q0 -71 -61.5 -113t-161.5 -42q-60 0 -115 14t-87 32zM305 385l-56 11q-53 -6 -79.5 -34t-26.5 -64q0 -33 17.5 -51.5t59.5 -28.5l74 -18q50 4 79.5 28t29.5 64q0 74 -98 93z
" />
    <glyph glyph-name="dieresis" unicode="&#xa8;" horiz-adv-x="510" 
d="M92 670q0 52 56 52q55 0 55 -52q0 -26 -15 -39t-40 -13q-56 0 -56 52zM307 670q0 52 57 52q54 0 54 -52t-54 -52q-57 0 -57 52z" />
    <glyph glyph-name="copyright" unicode="&#xa9;" horiz-adv-x="801" 
d="M50 339q0 151 100 251t249 100q151 0 251 -100t100 -251q0 -149 -100 -249t-251 -100q-149 0 -249 100t-100 249zM108 339q0 -126 83 -209.5t208 -83.5q127 0 210 83.5t83 209.5q0 127 -83 211t-210 84q-125 0 -208 -84t-83 -211zM303 339q0 -46 30 -75t79 -29
q58 0 94 36l33 -56q-56 -51 -135 -51q-76 0 -126.5 49.5t-50.5 125.5q0 77 50.5 126t126.5 49q81 0 135 -51l-33 -55q-36 36 -94 36q-49 0 -79 -29.5t-30 -75.5z" />
    <glyph glyph-name="ordfeminine" unicode="&#xaa;" horiz-adv-x="426" 
d="M305 338q-41 0 -54 39q-37 -39 -86 -39q-46 0 -73 28.5t-27 73.5q0 57 40.5 87t110.5 30q12 0 30 -2v13q0 33 -13.5 47t-41.5 14q-49 0 -86 -25l-13 61q47 22 114 22q58 0 82 -28t24 -85v-148q0 -16 4.5 -23t17.5 -7q9 0 28 13l4 -55q-28 -16 -61 -16zM84 255h264v-57
h-264v57zM181 395q33 0 65 25v86q-17 5 -38 5q-37 0 -61 -15.5t-24 -47.5q0 -25 15.5 -39t42.5 -14z" />
    <glyph glyph-name="guillemotleft" unicode="&#xab;" horiz-adv-x="469" 
d="M47 292v20l137 201h7l35 -23l-98 -188l98 -188l-35 -23h-7zM236 292v20l137 201h8l35 -23l-97 -188l97 -188l-35 -23h-8z" />
    <glyph glyph-name="logicalnot" unicode="&#xac;" horiz-adv-x="543" 
d="M392 130v193h-323v79h400l-1 -272h-76z" />
    <glyph glyph-name="uni00AD" unicode="&#xad;" horiz-adv-x="466" 
d="M67 342h332v-79h-332v79z" />
    <glyph glyph-name="registered" unicode="&#xae;" horiz-adv-x="801" 
d="M50 339q0 151 100 251t249 100q151 0 251 -100t100 -251q0 -149 -100 -249t-251 -100q-149 0 -249 100t-100 249zM108 339q0 -126 83 -209.5t208 -83.5q127 0 210 83.5t83 209.5q0 127 -83 211t-210 84q-125 0 -208 -84t-83 -211zM263 169v340h157q53 0 88 -29t35 -84
q0 -42 -24.5 -69t-62.5 -36l100 -108v-14h-81l-103 119h-34v-119h-75zM416 447h-78v-105h78q24 0 39.5 14t15.5 38q0 26 -15.5 39.5t-39.5 13.5z" />
    <glyph glyph-name="macron" unicode="&#xaf;" horiz-adv-x="510" 
d="M360 625h-211v69h211v-69z" />
    <glyph glyph-name="degree" unicode="&#xb0;" horiz-adv-x="408" 
d="M50 513q0 82 43 129.5t111 47.5q69 0 111.5 -47.5t42.5 -129.5q0 -83 -42.5 -129t-111.5 -46t-111.5 46t-42.5 129zM117 513q0 -53 23.5 -81t63.5 -28t63.5 28t23.5 81t-23.5 81t-63.5 28t-63.5 -28t-23.5 -81z" />
    <glyph glyph-name="plusminus" unicode="&#xb1;" horiz-adv-x="549" 
d="M313 646v-193h162v-79h-162v-142h-76v142h-162v79h162v193h76zM75 148h400v-79h-400v79z" />
    <glyph glyph-name="twosuperior" unicode="&#xb2;" horiz-adv-x="294" 
d="M42 458v43l110 99q43 37 43 79q0 25 -13.5 41.5t-38.5 16.5q-28 0 -42.5 -19.5t-14.5 -52.5l-51 9q1 53 30 84.5t80 31.5q52 0 79 -29.5t27 -76.5q0 -63 -59 -114l-71 -62h137v-50h-216z" />
    <glyph glyph-name="threesuperior" unicode="&#xb3;" horiz-adv-x="287" 
d="M68 650h68q23 0 35.5 13t12.5 32q0 45 -57 45q-43 0 -80 -20l-12 49q45 21 97 21t80.5 -23.5t28.5 -66.5q0 -54 -48 -71q58 -15 58 -82q0 -44 -31 -69t-88 -25q-48 0 -98 20l14 48q38 -19 81 -19q29 0 46.5 14.5t17.5 39.5q0 45 -57 45h-68v49z" />
    <glyph glyph-name="acute" unicode="&#xb4;" horiz-adv-x="510" 
d="M338 741l-84 -143h-82l70 143h96z" />
    <glyph glyph-name="mu" unicode="&#xb5;" horiz-adv-x="552" 
d="M175 523v-280q0 -83 24 -123t81 -40q78 0 115 88v355h96v-523h-96v54q-51 -64 -150 -64q-40 0 -70 12v-190h-97v711h97z" />
    <glyph glyph-name="paragraph" unicode="&#xb6;" horiz-adv-x="495" 
d="M195 -188v461h-50q-51 0 -83 33t-32 92q0 58 32.5 91.5t82.5 33.5h126v-711h-76zM338 -188v711h75v-711h-75z" />
    <glyph glyph-name="periodcentered" unicode="&#xb7;" horiz-adv-x="254" 
d="M63 297q0 32 16.5 50t46.5 18q31 0 48 -18t17 -50q0 -33 -17 -50.5t-48 -17.5q-63 0 -63 68z" />
    <glyph glyph-name="cedilla" unicode="&#xb8;" horiz-adv-x="510" 
d="M187 -96l23 98h41l-15 -65q14 4 25 4q34 0 53.5 -18t19.5 -47q0 -35 -26 -54.5t-67 -19.5q-36 0 -65 12l9 36q31 -11 53 -11q48 0 48 36q0 31 -44 31q-30 0 -53 -7z" />
    <glyph glyph-name="onesuperior" unicode="&#xb9;" horiz-adv-x="231" 
d="M15 711l123 73h40v-327h-55v262l-86 -51z" />
    <glyph glyph-name="ordmasculine" unicode="&#xba;" horiz-adv-x="441" 
d="M66 513q0 83 42.5 130t111.5 47t111.5 -46.5t42.5 -130.5t-42 -129.5t-112 -45.5q-69 0 -111.5 45.5t-42.5 129.5zM129 513q0 -56 24.5 -85.5t66.5 -29.5t67 29.5t25 85.5t-25 86t-67 30t-66.5 -30t-24.5 -86zM89 255h264v-57h-264v57z" />
    <glyph glyph-name="guillemotright" unicode="&#xbb;" horiz-adv-x="468" 
d="M232 312v-20l-136 -201h-8l-35 23l98 188l-98 188l35 23h8zM421 312v-20l-135 -201h-8l-35 23l97 188l-98 188l36 23h8z" />
    <glyph glyph-name="onequarter" unicode="&#xbc;" horiz-adv-x="705" 
d="M143 8l313 672h57v-8l-313 -672h-57v8zM668 64h-51v-64h-56v64h-157v39l140 224h73v-219h51v-44zM461 108h100v162zM28 611l123 73h40v-327h-55v262l-86 -51z" />
    <glyph glyph-name="onehalf" unicode="&#xbd;" horiz-adv-x="689" 
d="M143 8l313 672h57v-8l-313 -672h-57v8zM431 0v44l111 98q42 38 42 79q0 26 -13.5 42.5t-38.5 16.5q-28 0 -42.5 -20t-14.5 -53l-51 9q2 53 30.5 84.5t79.5 31.5q52 0 79 -29.5t27 -76.5q0 -64 -59 -114l-71 -62h138v-50h-217zM28 611l123 73h40v-327h-55v262l-86 -51z
" />
    <glyph glyph-name="threequarters" unicode="&#xbe;" horiz-adv-x="756" 
d="M196 8l313 672h57v-8l-313 -672h-57v8zM722 64h-51v-64h-56v64h-157v39l140 224h73v-219h51v-44zM515 108h100v162zM78 550h68q23 0 35.5 13t12.5 32q0 45 -57 45q-43 0 -80 -20l-12 49q45 21 97 21t80.5 -23.5t28.5 -66.5q0 -54 -48 -71q58 -15 58 -82q0 -44 -31 -69
t-88 -25q-48 0 -98 20l14 48q38 -19 81 -19q29 0 46.5 14.5t17.5 39.5q0 45 -57 45h-68v49z" />
    <glyph glyph-name="questiondown" unicode="&#xbf;" horiz-adv-x="404" 
d="M191 314h80q8 -22 8 -50q0 -24 -11 -43.5t-36 -47.5l-57 -66q-41 -48 -41 -102q0 -38 24.5 -63t66.5 -25q74 0 118 74l29 -75q-63 -81 -170 -81q-76 0 -120.5 46.5t-44.5 121.5q0 80 66 154l62 70q17 20 23 31t6 29q0 12 -3 27zM292 469q0 -68 -62 -68q-31 0 -48 18
t-17 50q0 33 17 50.5t48 17.5q62 0 62 -68z" />
    <glyph glyph-name="Agrave" unicode="&#xc0;" horiz-adv-x="617" 
d="M18 0l237 680h112l228 -680h-98l-49 153h-282l-51 -153h-97zM311 582l-119 -355h232zM274 755l-84 143h96l70 -143h-82z" />
    <glyph glyph-name="Aacute" unicode="&#xc1;" horiz-adv-x="617" 
d="M18 0l237 680h112l228 -680h-98l-49 153h-282l-51 -153h-97zM311 582l-119 -355h232zM422 898l-84 -143h-82l70 143h96z" />
    <glyph glyph-name="Acircumflex" unicode="&#xc2;" horiz-adv-x="617" 
d="M18 0l237 680h112l228 -680h-98l-49 153h-282l-51 -153h-97zM311 582l-119 -355h232zM371 755l-61 92l-62 -92h-75l89 143h96l89 -143h-76z" />
    <glyph glyph-name="Atilde" unicode="&#xc3;" horiz-adv-x="617" 
d="M18 0l237 680h112l228 -680h-98l-49 153h-282l-51 -153h-97zM311 582l-119 -355h232zM186 772l-29 41q12 31 36.5 53t52.5 22q32 0 70 -32t57 -32q39 0 59 47l30 -39q-33 -77 -89 -77q-29 0 -69 32.5t-58 32.5q-35 0 -60 -48z" />
    <glyph glyph-name="Adieresis" unicode="&#xc4;" horiz-adv-x="617" 
d="M18 0l237 680h112l228 -680h-98l-49 153h-282l-51 -153h-97zM311 582l-119 -355h232zM148 827q0 52 56 52q55 0 55 -52q0 -26 -15 -39t-40 -13q-56 0 -56 52zM363 827q0 52 57 52q54 0 54 -52t-54 -52q-57 0 -57 52z" />
    <glyph glyph-name="Aring" unicode="&#xc5;" horiz-adv-x="617" 
d="M213 743q0 41 28.5 69.5t69.5 28.5t69.5 -28.5t28.5 -69.5q0 -47 -37 -77l223 -666h-98l-49 153h-282l-51 -153h-97l232 666q-37 29 -37 77zM311 582l-119 -355h232zM257 743q0 -23 15.5 -38.5t38.5 -15.5q22 0 37.5 16t15.5 38t-15.5 37.5t-37.5 15.5t-38 -15.5
t-16 -37.5z" />
    <glyph glyph-name="AE" unicode="&#xc6;" horiz-adv-x="905" 
d="M404 0v153h-224l-76 -153h-103l346 680h508v-87h-358v-201h295v-80h-295v-226h358v-86h-451zM218 227h186v362z" />
    <glyph glyph-name="Ccedilla" unicode="&#xc7;" horiz-adv-x="610" 
d="M275 -96l21 90q-111 18 -177.5 109.5t-66.5 236.5q0 162 81.5 256t212.5 94q136 0 223 -110l-52 -66q-73 84 -164 84q-94 0 -147.5 -67.5t-53.5 -190.5t53.5 -191t147.5 -68q90 0 164 85l52 -66q-87 -110 -223 -110h-10l-12 -53q14 4 25 4q34 0 53.5 -18t19.5 -47
q0 -35 -26 -54.5t-67 -19.5q-36 0 -65 12l9 36q31 -11 53 -11q48 0 48 36q0 31 -44 31q-30 0 -53 -7z" />
    <glyph glyph-name="Egrave" unicode="&#xc8;" horiz-adv-x="589" 
d="M539 0h-452v680h452v-87h-358v-198h296v-86h-296v-223h358v-86zM281 755l-84 143h96l70 -143h-82z" />
    <glyph glyph-name="Eacute" unicode="&#xc9;" horiz-adv-x="589" 
d="M539 0h-452v680h452v-87h-358v-198h296v-86h-296v-223h358v-86zM429 898l-84 -143h-82l70 143h96z" />
    <glyph glyph-name="Ecircumflex" unicode="&#xca;" horiz-adv-x="589" 
d="M539 0h-452v680h452v-87h-358v-198h296v-86h-296v-223h358v-86zM376 755l-61 92l-62 -92h-75l89 143h96l89 -143h-76z" />
    <glyph glyph-name="Edieresis" unicode="&#xcb;" horiz-adv-x="589" 
d="M539 0h-452v680h452v-87h-358v-198h296v-86h-296v-223h358v-86zM152 827q0 52 56 52q55 0 55 -52q0 -26 -15 -39t-40 -13q-56 0 -56 52zM367 827q0 52 57 52q54 0 54 -52t-54 -52q-57 0 -57 52z" />
    <glyph glyph-name="Igrave" unicode="&#xcc;" horiz-adv-x="272" 
d="M87 0v680h98v-680h-98zM102 755l-84 143h96l70 -143h-82z" />
    <glyph glyph-name="Iacute" unicode="&#xcd;" horiz-adv-x="272" 
d="M87 0v680h98v-680h-98zM259 898l-84 -143h-82l70 143h96z" />
    <glyph glyph-name="Icircumflex" unicode="&#xce;" horiz-adv-x="272" 
d="M87 0v680h98v-680h-98zM197 755l-61 92l-62 -92h-75l89 143h96l89 -143h-76z" />
    <glyph glyph-name="Idieresis" unicode="&#xcf;" horiz-adv-x="272" 
d="M87 0v680h98v-680h-98zM-28 827q0 52 56 52q55 0 55 -52q0 -26 -15 -39t-40 -13q-56 0 -56 52zM187 827q0 52 57 52q54 0 54 -52t-54 -52q-57 0 -57 52z" />
    <glyph glyph-name="Eth" unicode="&#xd0;" horiz-adv-x="682" 
d="M316 314h-277v53h277v-53zM91 0v680h240q132 0 215.5 -90t83.5 -251q0 -160 -83.5 -249.5t-215.5 -89.5h-240zM189 86h130q97 0 154.5 66t57.5 187q0 122 -57.5 188.5t-154.5 66.5h-130v-508z" />
    <glyph glyph-name="Ntilde" unicode="&#xd1;" horiz-adv-x="714" 
d="M540 0l-356 516v-516h-97v680h85l356 -517v517h99v-680h-87zM237 772l-29 41q12 31 36.5 53t52.5 22q32 0 70 -32t57 -32q39 0 59 47l30 -39q-33 -77 -89 -77q-30 0 -70 32.5t-57 32.5q-35 0 -60 -48z" />
    <glyph glyph-name="Ograve" unicode="&#xd2;" horiz-adv-x="696" 
d="M50 339q0 156 82 253.5t215 97.5t215.5 -97.5t82.5 -253.5q0 -155 -82.5 -252t-215.5 -97q-132 0 -214.5 97t-82.5 252zM147 339q0 -122 55 -189t145 -67q91 0 146.5 67t55.5 189q0 123 -55.5 190.5t-146.5 67.5q-90 0 -145 -67.5t-55 -190.5zM311 755l-84 143h96
l70 -143h-82z" />
    <glyph glyph-name="Oacute" unicode="&#xd3;" horiz-adv-x="696" 
d="M50 339q0 156 82 253.5t215 97.5t215.5 -97.5t82.5 -253.5q0 -155 -82.5 -252t-215.5 -97q-132 0 -214.5 97t-82.5 252zM147 339q0 -122 55 -189t145 -67q91 0 146.5 67t55.5 189q0 123 -55.5 190.5t-146.5 67.5q-90 0 -145 -67.5t-55 -190.5zM469 898l-84 -143h-82
l70 143h96z" />
    <glyph glyph-name="Ocircumflex" unicode="&#xd4;" horiz-adv-x="696" 
d="M50 339q0 156 82 253.5t215 97.5t215.5 -97.5t82.5 -253.5q0 -155 -82.5 -252t-215.5 -97q-132 0 -214.5 97t-82.5 252zM147 339q0 -122 55 -189t145 -67q91 0 146.5 67t55.5 189q0 123 -55.5 190.5t-146.5 67.5q-90 0 -145 -67.5t-55 -190.5zM408 755l-61 92l-62 -92
h-75l89 143h96l89 -143h-76z" />
    <glyph glyph-name="Otilde" unicode="&#xd5;" horiz-adv-x="696" 
d="M50 339q0 156 82 253.5t215 97.5t215.5 -97.5t82.5 -253.5q0 -155 -82.5 -252t-215.5 -97q-132 0 -214.5 97t-82.5 252zM147 339q0 -122 55 -189t145 -67q91 0 146.5 67t55.5 189q0 123 -55.5 190.5t-146.5 67.5q-90 0 -145 -67.5t-55 -190.5zM224 772l-29 41
q12 31 36.5 53t52.5 22q32 0 70 -32t57 -32q39 0 59 47l30 -39q-33 -77 -89 -77q-29 0 -69 32.5t-58 32.5q-35 0 -60 -48z" />
    <glyph glyph-name="Odieresis" unicode="&#xd6;" horiz-adv-x="696" 
d="M50 339q0 156 82 253.5t215 97.5t215.5 -97.5t82.5 -253.5q0 -155 -82.5 -252t-215.5 -97q-132 0 -214.5 97t-82.5 252zM147 339q0 -122 55 -189t145 -67q91 0 146.5 67t55.5 189q0 123 -55.5 190.5t-146.5 67.5q-90 0 -145 -67.5t-55 -190.5zM185 827q0 52 56 52
q55 0 55 -52q0 -26 -15 -39t-40 -13q-56 0 -56 52zM400 827q0 52 57 52q54 0 54 -52t-54 -52q-57 0 -57 52z" />
    <glyph glyph-name="multiply" unicode="&#xd7;" horiz-adv-x="463" 
d="M400 439l-114 -136l114 -137l-55 -56l-113 137l-115 -137l-55 56l116 137l-116 136l55 56l115 -137l113 137z" />
    <glyph glyph-name="Oslash" unicode="&#xd8;" horiz-adv-x="695" 
d="M50 339q0 156 82 253.5t215 97.5q97 0 171 -55l31 45h70v-8l-56 -81q82 -96 82 -252q0 -155 -82.5 -252t-215.5 -97q-94 0 -163 49l-27 -39h-72v8l51 74q-86 97 -86 257zM147 339q0 -111 45 -176l273 395q-51 39 -118 39q-90 0 -145 -67.5t-55 -190.5zM549 339
q0 104 -42 171l-270 -394q47 -33 110 -33q91 0 146.5 67t55.5 189z" />
    <glyph glyph-name="Ugrave" unicode="&#xd9;" horiz-adv-x="675" 
d="M178 680v-402q0 -198 159 -198q81 0 120.5 53t39.5 146v401h98v-407q0 -125 -65.5 -204.5t-192.5 -79.5q-128 0 -192.5 76t-64.5 208v407h98zM301 755l-84 143h96l70 -143h-82z" />
    <glyph glyph-name="Uacute" unicode="&#xda;" horiz-adv-x="675" 
d="M178 680v-402q0 -198 159 -198q81 0 120.5 53t39.5 146v401h98v-407q0 -125 -65.5 -204.5t-192.5 -79.5q-128 0 -192.5 76t-64.5 208v407h98zM458 898l-84 -143h-82l70 143h96z" />
    <glyph glyph-name="Ucircumflex" unicode="&#xdb;" horiz-adv-x="675" 
d="M178 680v-402q0 -198 159 -198q81 0 120.5 53t39.5 146v401h98v-407q0 -125 -65.5 -204.5t-192.5 -79.5q-128 0 -192.5 76t-64.5 208v407h98zM398 755l-61 92l-62 -92h-75l89 143h96l89 -143h-76z" />
    <glyph glyph-name="Udieresis" unicode="&#xdc;" horiz-adv-x="675" 
d="M178 680v-402q0 -198 159 -198q81 0 120.5 53t39.5 146v401h98v-407q0 -125 -65.5 -204.5t-192.5 -79.5q-128 0 -192.5 76t-64.5 208v407h98zM175 827q0 52 56 52q55 0 55 -52q0 -26 -15 -39t-40 -13q-56 0 -56 52zM390 827q0 52 57 52q54 0 54 -52t-54 -52q-57 0 -57 52
z" />
    <glyph glyph-name="Yacute" unicode="&#xdd;" horiz-adv-x="595" 
d="M249 0v279l-232 393v8h108l173 -310l172 310h107v-8l-232 -392v-280h-96zM418 898l-84 -143h-82l70 143h96z" />
    <glyph glyph-name="Thorn" unicode="&#xde;" horiz-adv-x="596" 
d="M87 0v680h97v-103h167q91 0 150 -57t59 -173q0 -107 -60.5 -167t-148.5 -60h-167v-120h-97zM330 491h-146v-285h146q57 0 94.5 36.5t37.5 104.5q0 73 -37 108.5t-95 35.5z" />
    <glyph glyph-name="germandbls" unicode="&#xdf;" horiz-adv-x="588" 
d="M300 720q89 0 142 -57.5t53 -133.5q0 -41 -17.5 -78.5t-35 -62t-17.5 -33.5q0 -7 18.5 -25l40 -39t40 -58.5t18.5 -77.5q0 -74 -46 -119.5t-122 -45.5q-75 0 -129 29l13 79q38 -24 82 -24q42 0 69.5 25.5t27.5 69.5q0 38 -28.5 73t-56.5 61.5t-28 44.5q0 16 18 42
t36.5 59t18.5 67q0 52 -30 85t-75 33q-56 0 -87 -49t-31 -133v-452h-96v453q0 132 62.5 199.5t159.5 67.5z" />
    <glyph glyph-name="agrave" unicode="&#xe0;" horiz-adv-x="517" 
d="M444 0h-95v46q-62 -56 -145 -56q-77 0 -120.5 42.5t-43.5 115.5q0 90 65 136.5t171 46.5q38 0 73 -8v17q0 108 -111 108q-70 0 -137 -32l-17 80q80 36 169 36q92 0 141.5 -50.5t49.5 -144.5v-337zM139 157q0 -42 26.5 -65.5t68.5 -23.5q69 0 115 50v135q-32 8 -68 8
q-63 0 -102.5 -26t-39.5 -78zM237 598l-84 143h96l70 -143h-82z" />
    <glyph glyph-name="aacute" unicode="&#xe1;" horiz-adv-x="517" 
d="M444 0h-95v46q-62 -56 -145 -56q-77 0 -120.5 42.5t-43.5 115.5q0 90 65 136.5t171 46.5q38 0 73 -8v17q0 108 -111 108q-70 0 -137 -32l-17 80q80 36 169 36q92 0 141.5 -50.5t49.5 -144.5v-337zM139 157q0 -42 26.5 -65.5t68.5 -23.5q69 0 115 50v135q-32 8 -68 8
q-63 0 -102.5 -26t-39.5 -78zM381 741l-84 -143h-82l70 143h96z" />
    <glyph glyph-name="acircumflex" unicode="&#xe2;" horiz-adv-x="517" 
d="M444 0h-95v46q-62 -56 -145 -56q-77 0 -120.5 42.5t-43.5 115.5q0 90 65 136.5t171 46.5q38 0 73 -8v17q0 108 -111 108q-70 0 -137 -32l-17 80q80 36 169 36q92 0 141.5 -50.5t49.5 -144.5v-337zM139 157q0 -42 26.5 -65.5t68.5 -23.5q69 0 115 50v135q-32 8 -68 8
q-63 0 -102.5 -26t-39.5 -78zM330 598l-61 92l-62 -92h-75l89 143h96l89 -143h-76z" />
    <glyph glyph-name="atilde" unicode="&#xe3;" horiz-adv-x="517" 
d="M444 0h-95v46q-62 -56 -145 -56q-77 0 -120.5 42.5t-43.5 115.5q0 90 65 136.5t171 46.5q38 0 73 -8v17q0 108 -111 108q-70 0 -137 -32l-17 80q80 36 169 36q92 0 141.5 -50.5t49.5 -144.5v-337zM139 157q0 -42 26.5 -65.5t68.5 -23.5q69 0 115 50v135q-32 8 -68 8
q-63 0 -102.5 -26t-39.5 -78zM143 615l-29 41q12 31 36.5 53t52.5 22q32 0 70 -32t57 -32q39 0 59 47l30 -39q-33 -77 -89 -77q-30 0 -70 32.5t-57 32.5q-35 0 -60 -48z" />
    <glyph glyph-name="adieresis" unicode="&#xe4;" horiz-adv-x="517" 
d="M444 0h-95v46q-62 -56 -145 -56q-77 0 -120.5 42.5t-43.5 115.5q0 90 65 136.5t171 46.5q38 0 73 -8v17q0 108 -111 108q-70 0 -137 -32l-17 80q80 36 169 36q92 0 141.5 -50.5t49.5 -144.5v-337zM139 157q0 -42 26.5 -65.5t68.5 -23.5q69 0 115 50v135q-32 8 -68 8
q-63 0 -102.5 -26t-39.5 -78zM104 670q0 52 56 52q55 0 55 -52q0 -26 -15 -39t-40 -13q-56 0 -56 52zM319 670q0 52 57 52q54 0 54 -52t-54 -52q-57 0 -57 52z" />
    <glyph glyph-name="aring" unicode="&#xe5;" horiz-adv-x="517" 
d="M161 670q0 40 28.5 69t69.5 29t69.5 -29t28.5 -69t-28.5 -69t-69.5 -29t-69.5 29t-28.5 69zM205 670q0 -22 15.5 -38t38.5 -16q22 0 37.5 16t15.5 38t-15.5 37.5t-37.5 15.5t-38 -15.5t-16 -37.5zM444 0h-95v46q-62 -56 -145 -56q-77 0 -120.5 42.5t-43.5 115.5
q0 90 65 136.5t171 46.5q38 0 73 -8v17q0 108 -111 108q-70 0 -137 -32l-17 80q80 36 169 36q92 0 141.5 -50.5t49.5 -144.5v-337zM139 157q0 -42 26.5 -65.5t68.5 -23.5q69 0 115 50v135q-32 8 -68 8q-63 0 -102.5 -26t-39.5 -78z" />
    <glyph glyph-name="ae" unicode="&#xe6;" horiz-adv-x="813" 
d="M751 232h-313q5 -170 141 -170q76 0 141 59l34 -63q-79 -72 -182 -72q-126 0 -173 104q-78 -100 -189 -100q-77 0 -123.5 41.5t-46.5 118.5q0 82 60.5 130t164.5 50q42 1 85 -8q1 65 -25 95.5t-87 30.5q-65 0 -137 -32l-17 80q82 36 177 36q63 0 98 -25.5t52 -73.5
q53 104 165 104q97 0 141.5 -58t44.5 -152q0 -55 -11 -95zM575 464q-62 0 -95.5 -48t-33.5 -114h234q3 17 3 36q0 54 -27.5 90t-80.5 36zM139 156q0 -42 27 -65t68 -23q40 0 70.5 19t45.5 45v120q-36 9 -68 9q-143 -4 -143 -105z" />
    <glyph glyph-name="ccedilla" unicode="&#xe7;" horiz-adv-x="508" 
d="M225 -96l20 86q-89 16 -142 88t-53 184q0 126 67.5 200.5t174.5 74.5q100 0 173 -75l-45 -74q-54 59 -128 59q-65 0 -104.5 -49t-39.5 -136t40 -136.5t106 -49.5q72 0 126 59l45 -74q-73 -75 -173 -75h-7l-11 -49q14 4 25 4q34 0 53.5 -18t19.5 -47q0 -35 -26 -54.5
t-67 -19.5q-36 0 -65 12l9 36q31 -11 53 -11q48 0 48 36q0 31 -44 31q-30 0 -53 -7z" />
    <glyph glyph-name="egrave" unicode="&#xe8;" horiz-adv-x="532" 
d="M469 229h-324q7 -160 154 -160q75 0 139 57l38 -74q-76 -66 -191 -66q-117 0 -176 75t-59 199q0 122 63.5 199.5t169.5 77.5q99 0 148.5 -59.5t49.5 -152.5q0 -46 -12 -96zM150 306h240q3 15 3 32q0 52 -28.5 83.5t-81.5 31.5q-60 0 -95 -40t-38 -107zM262 598l-84 143
h96l70 -143h-82z" />
    <glyph glyph-name="eacute" unicode="&#xe9;" horiz-adv-x="532" 
d="M469 229h-324q7 -160 154 -160q75 0 139 57l38 -74q-76 -66 -191 -66q-117 0 -176 75t-59 199q0 122 63.5 199.5t169.5 77.5q99 0 148.5 -59.5t49.5 -152.5q0 -46 -12 -96zM150 306h240q3 15 3 32q0 52 -28.5 83.5t-81.5 31.5q-60 0 -95 -40t-38 -107zM402 741l-84 -143
h-82l70 143h96z" />
    <glyph glyph-name="ecircumflex" unicode="&#xea;" horiz-adv-x="532" 
d="M469 229h-324q7 -160 154 -160q75 0 139 57l38 -74q-76 -66 -191 -66q-117 0 -176 75t-59 199q0 122 63.5 199.5t169.5 77.5q99 0 148.5 -59.5t49.5 -152.5q0 -46 -12 -96zM150 306h240q3 15 3 32q0 52 -28.5 83.5t-81.5 31.5q-60 0 -95 -40t-38 -107zM349 598l-61 92
l-62 -92h-75l89 143h96l89 -143h-76z" />
    <glyph glyph-name="edieresis" unicode="&#xeb;" horiz-adv-x="532" 
d="M469 229h-324q7 -160 154 -160q75 0 139 57l38 -74q-76 -66 -191 -66q-117 0 -176 75t-59 199q0 122 63.5 199.5t169.5 77.5q99 0 148.5 -59.5t49.5 -152.5q0 -46 -12 -96zM150 306h240q3 15 3 32q0 52 -28.5 83.5t-81.5 31.5q-60 0 -95 -40t-38 -107zM124 670
q0 52 56 52q55 0 55 -52q0 -26 -15 -39t-40 -13q-56 0 -56 52zM339 670q0 52 57 52q54 0 54 -52t-54 -52q-57 0 -57 52z" />
    <glyph glyph-name="igrave" unicode="&#xec;" horiz-adv-x="252" 
d="M99 598l-84 143h96l70 -143h-82zM174 0h-96v523h96v-523z" />
    <glyph glyph-name="iacute" unicode="&#xed;" horiz-adv-x="252" 
d="M245 741l-84 -143h-82l70 143h96zM174 0h-96v523h96v-523z" />
    <glyph glyph-name="icircumflex" unicode="&#xee;" horiz-adv-x="252" 
d="M174 0h-96v523h96v-523zM188 598l-61 92l-62 -92h-75l89 143h96l89 -143h-76z" />
    <glyph glyph-name="idieresis" unicode="&#xef;" horiz-adv-x="252" 
d="M-36 670q0 52 56 52q55 0 55 -52q0 -26 -15 -39t-40 -13q-56 0 -56 52zM179 670q0 52 57 52q54 0 54 -52t-54 -52q-57 0 -57 52zM174 0h-96v523h96v-523z" />
    <glyph glyph-name="eth" unicode="&#xf0;" horiz-adv-x="547" 
d="M413 703l-45 -55q122 -117 122 -307q0 -165 -61.5 -258t-173.5 -93q-88 0 -144.5 66.5t-56.5 174.5q0 101 48 161.5t132 60.5q91 0 158 -92q-6 129 -81 218l-50 -61l-28 26l51 62q-36 33 -78 51l39 63q50 -14 94 -48l46 56zM259 80q55 0 88.5 50.5t42.5 142.5
q-57 99 -130 99q-50 0 -80 -36.5t-30 -105.5q0 -66 30 -108t79 -42z" />
    <glyph glyph-name="ntilde" unicode="&#xf1;" horiz-adv-x="583" 
d="M509 0h-97v309q0 132 -110 132q-47 0 -80.5 -30t-47.5 -74v-337h-96v523h96v-74q53 83 163 83q172 0 172 -205v-327zM177 615l-29 41q12 31 36.5 53t52.5 22q32 0 70 -32t57 -32q39 0 59 47l30 -39q-33 -77 -89 -77q-30 0 -70 32.5t-57 32.5q-35 0 -60 -48z" />
    <glyph glyph-name="ograve" unicode="&#xf2;" horiz-adv-x="575" 
d="M50 260q0 128 64.5 202.5t172.5 74.5t173 -74t65 -203q0 -127 -65 -200.5t-173 -73.5t-172.5 73.5t-64.5 200.5zM145 260q0 -87 38.5 -135.5t103.5 -48.5t103.5 48.5t38.5 135.5q0 89 -38.5 138t-103.5 49t-103.5 -49t-38.5 -138zM251 598l-84 143h96l70 -143h-82z" />
    <glyph glyph-name="oacute" unicode="&#xf3;" horiz-adv-x="575" 
d="M50 260q0 128 64.5 202.5t172.5 74.5t173 -74t65 -203q0 -127 -65 -200.5t-173 -73.5t-172.5 73.5t-64.5 200.5zM145 260q0 -87 38.5 -135.5t103.5 -48.5t103.5 48.5t38.5 135.5q0 89 -38.5 138t-103.5 49t-103.5 -49t-38.5 -138zM409 741l-84 -143h-82l70 143h96z" />
    <glyph glyph-name="ocircumflex" unicode="&#xf4;" horiz-adv-x="575" 
d="M50 260q0 128 64.5 202.5t172.5 74.5t173 -74t65 -203q0 -127 -65 -200.5t-173 -73.5t-172.5 73.5t-64.5 200.5zM145 260q0 -87 38.5 -135.5t103.5 -48.5t103.5 48.5t38.5 135.5q0 89 -38.5 138t-103.5 49t-103.5 -49t-38.5 -138zM349 598l-61 92l-62 -92h-75l89 143h96
l89 -143h-76z" />
    <glyph glyph-name="otilde" unicode="&#xf5;" horiz-adv-x="575" 
d="M50 260q0 128 64.5 202.5t172.5 74.5t173 -74t65 -203q0 -127 -65 -200.5t-173 -73.5t-172.5 73.5t-64.5 200.5zM145 260q0 -87 38.5 -135.5t103.5 -48.5t103.5 48.5t38.5 135.5q0 89 -38.5 138t-103.5 49t-103.5 -49t-38.5 -138zM163 615l-29 41q12 31 36.5 53t52.5 22
q32 0 70 -32t57 -32q39 0 59 47l30 -39q-33 -77 -89 -77q-30 0 -70 32.5t-57 32.5q-35 0 -60 -48z" />
    <glyph glyph-name="odieresis" unicode="&#xf6;" horiz-adv-x="575" 
d="M50 260q0 128 64.5 202.5t172.5 74.5t173 -74t65 -203q0 -127 -65 -200.5t-173 -73.5t-172.5 73.5t-64.5 200.5zM145 260q0 -87 38.5 -135.5t103.5 -48.5t103.5 48.5t38.5 135.5q0 89 -38.5 138t-103.5 49t-103.5 -49t-38.5 -138zM124 670q0 52 56 52q55 0 55 -52
q0 -26 -15 -39t-40 -13q-56 0 -56 52zM339 670q0 52 57 52q54 0 54 -52t-54 -52q-57 0 -57 52z" />
    <glyph glyph-name="divide" unicode="&#xf7;" horiz-adv-x="515" 
d="M57 342h400v-79h-400v79zM197 485q0 64 57 64q27 0 42 -17t15 -47t-15 -46.5t-42 -16.5q-57 0 -57 63zM197 119q0 63 57 63q27 0 42 -16.5t15 -46.5q0 -63 -57 -63t-57 63z" />
    <glyph glyph-name="oslash" unicode="&#xf8;" horiz-adv-x="575" 
d="M50 260q0 128 64.5 202.5t172.5 74.5q82 0 141 -45l22 31h51v-9l-38 -55q62 -75 62 -199q0 -127 -65 -200.5t-173 -73.5q-74 0 -130 36l-15 -22h-51v8l30 44q-71 74 -71 208zM145 260q0 -81 32 -128l198 283q-37 32 -88 32q-65 0 -103.5 -49t-38.5 -138zM429 260
q0 69 -25 116l-193 -278q33 -22 76 -22q65 0 103.5 48.5t38.5 135.5z" />
    <glyph glyph-name="ugrave" unicode="&#xf9;" horiz-adv-x="582" 
d="M73 523h97v-309q0 -132 109 -132q48 0 81.5 30t47.5 74v337h97v-523h-97v74q-53 -83 -163 -83q-172 0 -172 205v327zM252 598l-84 143h96l70 -143h-82z" />
    <glyph glyph-name="uacute" unicode="&#xfa;" horiz-adv-x="582" 
d="M73 523h97v-309q0 -132 109 -132q48 0 81.5 30t47.5 74v337h97v-523h-97v74q-53 -83 -163 -83q-172 0 -172 205v327zM414 741l-84 -143h-82l70 143h96z" />
    <glyph glyph-name="ucircumflex" unicode="&#xfb;" horiz-adv-x="582" 
d="M73 523h97v-309q0 -132 109 -132q48 0 81.5 30t47.5 74v337h97v-523h-97v74q-53 -83 -163 -83q-172 0 -172 205v327zM350 598l-61 92l-62 -92h-75l89 143h96l89 -143h-76z" />
    <glyph glyph-name="udieresis" unicode="&#xfc;" horiz-adv-x="582" 
d="M73 523h97v-309q0 -132 109 -132q48 0 81.5 30t47.5 74v337h97v-523h-97v74q-53 -83 -163 -83q-172 0 -172 205v327zM127 670q0 52 56 52q55 0 55 -52q0 -26 -15 -39t-40 -13q-56 0 -56 52zM342 670q0 52 57 52q54 0 54 -52t-54 -52q-57 0 -57 52z" />
    <glyph glyph-name="yacute" unicode="&#xfd;" horiz-adv-x="532" 
d="M28 -168l15 74q37 -22 80 -22q35 0 55.5 21t36.5 68l11 36l-207 514h107l143 -416l133 415q16 0 49 0.5t49 0.5l-201 -569q-27 -77 -65 -114.5t-105 -37.5q-58 0 -101 30zM386 741l-84 -143h-82l70 143h96z" />
    <glyph glyph-name="thorn" unicode="&#xfe;" 
d="M526 261q0 -127 -58 -198.5t-154 -71.5q-84 0 -140 63v-242h-96v898h96v-242q54 65 140 65q96 0 154 -72.5t58 -199.5zM428 264q0 85 -38.5 134t-104.5 49q-33 0 -63 -16t-48 -39v-260q17 -22 47.5 -38t63.5 -16q66 0 104.5 49.5t38.5 136.5z" />
    <glyph glyph-name="ydieresis" unicode="&#xff;" horiz-adv-x="532" 
d="M28 -168l15 74q37 -22 80 -22q35 0 55.5 21t36.5 68l11 36l-207 514h107l143 -416l133 415q16 0 49 0.5t49 0.5l-201 -569q-27 -77 -65 -114.5t-105 -37.5q-58 0 -101 30zM105 670q0 52 56 52q55 0 55 -52q0 -26 -15 -39t-40 -13q-56 0 -56 52zM320 670q0 52 57 52
q54 0 54 -52t-54 -52q-57 0 -57 52z" />
    <glyph glyph-name="Amacron" unicode="&#x100;" horiz-adv-x="617" 
d="M18 0l237 680h112l228 -680h-98l-49 153h-282l-51 -153h-97zM311 582l-119 -355h232zM416 782h-211v69h211v-69z" />
    <glyph glyph-name="amacron" unicode="&#x101;" horiz-adv-x="517" 
d="M444 0h-95v46q-62 -56 -145 -56q-77 0 -120.5 42.5t-43.5 115.5q0 90 65 136.5t171 46.5q38 0 73 -8v17q0 108 -111 108q-70 0 -137 -32l-17 80q80 36 169 36q92 0 141.5 -50.5t49.5 -144.5v-337zM139 157q0 -42 26.5 -65.5t68.5 -23.5q69 0 115 50v135q-32 8 -68 8
q-63 0 -102.5 -26t-39.5 -78zM370 625h-211v69h211v-69z" />
    <glyph glyph-name="Abreve" unicode="&#x102;" horiz-adv-x="617" 
d="M18 0l237 680h112l228 -680h-98l-49 153h-282l-51 -153h-97zM311 582l-119 -355h232zM190 839l26 40q34 -51 94 -51q61 0 94 51l26 -40q-42 -79 -119 -79q-81 0 -121 79z" />
    <glyph glyph-name="abreve" unicode="&#x103;" horiz-adv-x="517" 
d="M444 0h-95v46q-62 -56 -145 -56q-77 0 -120.5 42.5t-43.5 115.5q0 90 65 136.5t171 46.5q38 0 73 -8v17q0 108 -111 108q-70 0 -137 -32l-17 80q80 36 169 36q92 0 141.5 -50.5t49.5 -144.5v-337zM139 157q0 -42 26.5 -65.5t68.5 -23.5q69 0 115 50v135q-32 8 -68 8
q-63 0 -102.5 -26t-39.5 -78zM143 682l26 40q34 -51 94 -51q61 0 94 51l26 -40q-42 -79 -119 -79q-43 0 -74 23t-47 56z" />
    <glyph glyph-name="Aogonek" unicode="&#x104;" horiz-adv-x="617" 
d="M18 0l237 680h112l228 -680h-28q-33 -2 -55 -22t-22 -52q0 -26 14.5 -40.5t36.5 -14.5q25 0 47 14l10 -47q-34 -16 -70 -16q-38 0 -62 24.5t-24 67.5q0 61 54 88l-48 151h-282l-51 -153h-97zM311 582l-119 -355h232z" />
    <glyph glyph-name="aogonek" unicode="&#x105;" horiz-adv-x="517" 
d="M444 0h-21q-34 -3 -56 -23t-22 -52q0 -26 14.5 -40.5t36.5 -14.5q26 0 47 14l10 -47q-30 -16 -71 -16q-38 0 -62 24.5t-24 67.5q0 59 56 87h-3v46q-62 -56 -145 -56q-77 0 -120.5 42.5t-43.5 115.5q0 90 65 136.5t171 46.5q38 0 73 -8v17q0 108 -111 108q-70 0 -137 -32
l-17 80q80 36 169 36q92 0 141.5 -50.5t49.5 -144.5v-337zM139 157q0 -42 26.5 -65.5t68.5 -23.5q69 0 115 50v135q-32 8 -68 8q-63 0 -102.5 -26t-39.5 -78z" />
    <glyph glyph-name="Cacute" unicode="&#x106;" horiz-adv-x="610" 
d="M51 340q0 162 81.5 256t212.5 94q136 0 223 -110l-52 -66q-73 84 -164 84q-94 0 -147.5 -67.5t-53.5 -190.5t53.5 -191t147.5 -68q90 0 164 85l52 -66q-87 -110 -223 -110q-131 0 -212.5 94t-81.5 256zM468 898l-84 -143h-82l70 143h96z" />
    <glyph glyph-name="cacute" unicode="&#x107;" horiz-adv-x="507" 
d="M148 262q0 -87 40 -136.5t106 -49.5q72 0 126 59l45 -74q-73 -75 -173 -75q-107 0 -174.5 75t-67.5 201t67.5 200.5t174.5 74.5q100 0 173 -75l-45 -74q-54 59 -128 59q-65 0 -104.5 -49t-39.5 -136zM409 741l-84 -143h-82l70 143h96z" />
    <glyph glyph-name="Ccircumflex" unicode="&#x108;" horiz-adv-x="610" 
d="M51 340q0 162 81.5 256t212.5 94q136 0 223 -110l-52 -66q-73 84 -164 84q-94 0 -147.5 -67.5t-53.5 -190.5t53.5 -191t147.5 -68q90 0 164 85l52 -66q-87 -110 -223 -110q-131 0 -212.5 94t-81.5 256zM407 755l-61 92l-62 -92h-75l89 143h96l89 -143h-76z" />
    <glyph glyph-name="ccircumflex" unicode="&#x109;" horiz-adv-x="507" 
d="M148 262q0 -87 40 -136.5t106 -49.5q72 0 126 59l45 -74q-73 -75 -173 -75q-107 0 -174.5 75t-67.5 201t67.5 200.5t174.5 74.5q100 0 173 -75l-45 -74q-54 59 -128 59q-65 0 -104.5 -49t-39.5 -136zM357 598l-61 92l-62 -92h-75l89 143h96l89 -143h-76z" />
    <glyph glyph-name="Cdotaccent" unicode="&#x10a;" horiz-adv-x="610" 
d="M51 340q0 162 81.5 256t212.5 94q136 0 223 -110l-52 -66q-73 84 -164 84q-94 0 -147.5 -67.5t-53.5 -190.5t53.5 -191t147.5 -68q90 0 164 85l52 -66q-87 -110 -223 -110q-131 0 -212.5 94t-81.5 256zM283 829q0 54 60 54q58 0 58 -54q0 -55 -58 -55q-60 0 -60 55z" />
    <glyph glyph-name="cdotaccent" unicode="&#x10b;" horiz-adv-x="507" 
d="M148 262q0 -87 40 -136.5t106 -49.5q72 0 126 59l45 -74q-73 -75 -173 -75q-107 0 -174.5 75t-67.5 201t67.5 200.5t174.5 74.5q100 0 173 -75l-45 -74q-54 59 -128 59q-65 0 -104.5 -49t-39.5 -136zM234 672q0 54 60 54q58 0 58 -54q0 -55 -58 -55q-60 0 -60 55z" />
    <glyph glyph-name="Ccaron" unicode="&#x10c;" horiz-adv-x="610" 
d="M51 340q0 162 81.5 256t212.5 94q136 0 223 -110l-52 -66q-73 84 -164 84q-94 0 -147.5 -67.5t-53.5 -190.5t53.5 -191t147.5 -68q90 0 164 85l52 -66q-87 -110 -223 -110q-131 0 -212.5 94t-81.5 256zM288 898l62 -92l61 92h76l-89 -143h-96l-89 143h75z" />
    <glyph glyph-name="ccaron" unicode="&#x10d;" horiz-adv-x="507" 
d="M148 262q0 -87 40 -136.5t106 -49.5q72 0 126 59l45 -74q-73 -75 -173 -75q-107 0 -174.5 75t-67.5 201t67.5 200.5t174.5 74.5q100 0 173 -75l-45 -74q-54 59 -128 59q-65 0 -104.5 -49t-39.5 -136zM235 741l62 -92l61 92h76l-89 -143h-96l-89 143h75z" />
    <glyph glyph-name="Dcaron" unicode="&#x10e;" horiz-adv-x="678" 
d="M87 0v680h240q132 0 215.5 -90t83.5 -251q0 -160 -83.5 -249.5t-215.5 -89.5h-240zM185 86h130q97 0 154 66t57 187q0 122 -57 188.5t-154 66.5h-130v-508zM235 898l62 -92l61 92h76l-89 -143h-96l-89 143h75z" />
    <glyph glyph-name="dcaron" unicode="&#x10f;" horiz-adv-x="626" 
d="M499 710v-710h-96v55q-55 -65 -141 -65q-96 0 -153.5 72.5t-57.5 199.5t57.5 198.5t153.5 71.5q83 0 141 -62v240h96zM149 260q0 -85 38.5 -134.5t103.5 -49.5q67 0 112 55v259q-19 24 -49 40t-63 16q-66 0 -104 -49.5t-38 -136.5zM581 512l20 68q-46 6 -46 52
q0 27 15 42t39 15q31 0 47.5 -17t16.5 -47q0 -62 -45 -131z" />
    <glyph glyph-name="Dcroat" unicode="&#x110;" horiz-adv-x="682" 
d="M91 367v313h240q132 0 215.5 -90t83.5 -251q0 -160 -83.5 -249.5t-215.5 -89.5h-240v314h-52v53h52zM189 86h130q97 0 154.5 66t57.5 187q0 122 -57.5 188.5t-154.5 66.5h-130v-227h127v-53h-127v-228z" />
    <glyph glyph-name="dcroat" unicode="&#x111;" 
d="M499 710v-68h81v-53h-81v-589h-96v55q-55 -65 -141 -65q-96 0 -153.5 72.5t-57.5 199.5t57.5 198.5t153.5 71.5q83 0 141 -62v119h-101v53h101v68h96zM149 260q0 -85 38.5 -134.5t103.5 -49.5q67 0 112 55v259q-19 24 -49 40t-63 16q-66 0 -104 -49.5t-38 -136.5z" />
    <glyph glyph-name="Emacron" unicode="&#x112;" horiz-adv-x="589" 
d="M539 0h-452v680h452v-87h-358v-198h296v-86h-296v-223h358v-86zM420 782h-211v69h211v-69z" />
    <glyph glyph-name="emacron" unicode="&#x113;" horiz-adv-x="532" 
d="M469 229h-324q7 -160 154 -160q75 0 139 57l38 -74q-76 -66 -191 -66q-117 0 -176 75t-59 199q0 122 63.5 199.5t169.5 77.5q99 0 148.5 -59.5t49.5 -152.5q0 -46 -12 -96zM150 306h240q3 15 3 32q0 52 -28.5 83.5t-81.5 31.5q-60 0 -95 -40t-38 -107zM389 625h-211v69
h211v-69z" />
    <glyph glyph-name="Ebreve" unicode="&#x114;" horiz-adv-x="589" 
d="M539 0h-452v680h452v-87h-358v-198h296v-86h-296v-223h358v-86zM194 839l26 40q34 -51 94 -51q61 0 94 51l26 -40q-42 -79 -119 -79q-81 0 -121 79z" />
    <glyph glyph-name="ebreve" unicode="&#x115;" horiz-adv-x="532" 
d="M469 229h-324q7 -160 154 -160q75 0 139 57l38 -74q-76 -66 -191 -66q-117 0 -176 75t-59 199q0 122 63.5 199.5t169.5 77.5q99 0 148.5 -59.5t49.5 -152.5q0 -46 -12 -96zM150 306h240q3 15 3 32q0 52 -28.5 83.5t-81.5 31.5q-60 0 -95 -40t-38 -107zM168 682l26 40
q34 -51 94 -51q61 0 94 51l26 -40q-42 -79 -119 -79q-81 0 -121 79z" />
    <glyph glyph-name="Edotaccent" unicode="&#x116;" horiz-adv-x="589" 
d="M539 0h-452v680h452v-87h-358v-198h296v-86h-296v-223h358v-86zM254 829q0 54 60 54q58 0 58 -54q0 -55 -58 -55q-60 0 -60 55z" />
    <glyph glyph-name="edotaccent" unicode="&#x117;" horiz-adv-x="532" 
d="M469 229h-324q7 -160 154 -160q75 0 139 57l38 -74q-76 -66 -191 -66q-117 0 -176 75t-59 199q0 122 63.5 199.5t169.5 77.5q99 0 148.5 -59.5t49.5 -152.5q0 -46 -12 -96zM150 306h240q3 15 3 32q0 52 -28.5 83.5t-81.5 31.5q-60 0 -95 -40t-38 -107zM228 672
q0 54 60 54q58 0 58 -54q0 -55 -58 -55q-60 0 -60 55z" />
    <glyph glyph-name="Eogonek" unicode="&#x118;" horiz-adv-x="589" 
d="M539 0h-11q-33 -2 -55 -22t-22 -52q0 -26 14.5 -40.5t36.5 -14.5q25 0 47 14l10 -47q-34 -16 -70 -16q-38 0 -62 24.5t-24 67.5q0 60 51 86h-367v680h452v-87h-358v-198h296v-86h-296v-223h358v-86z" />
    <glyph glyph-name="eogonek" unicode="&#x119;" horiz-adv-x="533" 
d="M470 229h-324q7 -160 154 -160q75 0 139 57l38 -74q-58 -51 -142 -63q-38 -20 -38 -63q0 -26 14.5 -40.5t36.5 -14.5q25 0 47 14l10 -47q-34 -16 -70 -16q-38 0 -62 24.5t-24 67.5q0 44 31 72q-114 2 -171.5 76.5t-57.5 197.5q0 122 63.5 199.5t169.5 77.5
q99 0 148.5 -59.5t49.5 -152.5q0 -46 -12 -96zM151 306h240q3 15 3 32q0 52 -28.5 83.5t-81.5 31.5q-60 0 -95 -40t-38 -107z" />
    <glyph glyph-name="Ecaron" unicode="&#x11a;" horiz-adv-x="589" 
d="M539 0h-452v680h452v-87h-358v-198h296v-86h-296v-223h358v-86zM253 898l62 -92l61 92h76l-89 -143h-96l-89 143h75z" />
    <glyph glyph-name="ecaron" unicode="&#x11b;" horiz-adv-x="532" 
d="M469 229h-324q7 -160 154 -160q75 0 139 57l38 -74q-76 -66 -191 -66q-117 0 -176 75t-59 199q0 122 63.5 199.5t169.5 77.5q99 0 148.5 -59.5t49.5 -152.5q0 -46 -12 -96zM150 306h240q3 15 3 32q0 52 -28.5 83.5t-81.5 31.5q-60 0 -95 -40t-38 -107zM223 741l62 -92
l61 92h76l-89 -143h-96l-89 143h75z" />
    <glyph glyph-name="Gcircumflex" unicode="&#x11c;" horiz-adv-x="661" 
d="M580 604l-42 -78q-78 72 -169 72q-98 0 -158 -69t-60 -190q0 -122 59.5 -190t154.5 -68q86 0 145 47v164h-177v85h269v-305q-41 -35 -109.5 -58.5t-134.5 -23.5q-132 0 -220 94.5t-88 254.5q0 161 88 256t220 95q131 0 222 -86zM420 755l-61 92l-62 -92h-75l89 143h96
l89 -143h-76z" />
    <glyph glyph-name="gcircumflex" unicode="&#x11d;" 
d="M52 280q0 115 57.5 183.5t152.5 68.5q90 0 141 -58v49h96v-493q0 -114 -60 -171t-156 -57q-93 0 -179 49l22 86q78 -51 146 -51q58 0 94.5 31t36.5 101v73q-54 -61 -141 -61q-95 0 -152.5 68.5t-57.5 181.5zM150 280q0 -75 38 -119.5t104 -44.5q59 0 111 56v215
q-48 59 -110 59q-66 0 -104.5 -44.5t-38.5 -121.5zM357 598l-61 92l-62 -92h-75l89 143h96l89 -143h-76z" />
    <glyph glyph-name="Gbreve" unicode="&#x11e;" horiz-adv-x="661" 
d="M580 604l-42 -78q-78 72 -169 72q-98 0 -158 -69t-60 -190q0 -122 59.5 -190t154.5 -68q86 0 145 47v164h-177v85h269v-305q-41 -35 -109.5 -58.5t-134.5 -23.5q-132 0 -220 94.5t-88 254.5q0 161 88 256t220 95q131 0 222 -86zM241 839l26 40q34 -51 94 -51q61 0 94 51
l26 -40q-42 -79 -119 -79q-43 0 -74 23t-47 56z" />
    <glyph glyph-name="gbreve" unicode="&#x11f;" 
d="M52 280q0 115 57.5 183.5t152.5 68.5q90 0 141 -58v49h96v-493q0 -114 -60 -171t-156 -57q-93 0 -179 49l22 86q78 -51 146 -51q58 0 94.5 31t36.5 101v73q-54 -61 -141 -61q-95 0 -152.5 68.5t-57.5 181.5zM150 280q0 -75 38 -119.5t104 -44.5q59 0 111 56v215
q-48 59 -110 59q-66 0 -104.5 -44.5t-38.5 -121.5zM178 682l26 40q34 -51 94 -51q61 0 94 51l26 -40q-42 -79 -119 -79q-81 0 -121 79z" />
    <glyph glyph-name="Gdotaccent" unicode="&#x120;" horiz-adv-x="661" 
d="M580 604l-42 -78q-78 72 -169 72q-98 0 -158 -69t-60 -190q0 -122 59.5 -190t154.5 -68q86 0 145 47v164h-177v85h269v-305q-41 -35 -109.5 -58.5t-134.5 -23.5q-132 0 -220 94.5t-88 254.5q0 161 88 256t220 95q131 0 222 -86zM299 829q0 54 60 54q58 0 58 -54
q0 -55 -58 -55q-60 0 -60 55z" />
    <glyph glyph-name="gdotaccent" unicode="&#x121;" 
d="M52 280q0 115 57.5 183.5t152.5 68.5q90 0 141 -58v49h96v-493q0 -114 -60 -171t-156 -57q-93 0 -179 49l22 86q78 -51 146 -51q58 0 94.5 31t36.5 101v73q-54 -61 -141 -61q-95 0 -152.5 68.5t-57.5 181.5zM150 280q0 -75 38 -119.5t104 -44.5q59 0 111 56v215
q-48 59 -110 59q-66 0 -104.5 -44.5t-38.5 -121.5zM245 672q0 54 60 54q58 0 58 -54q0 -55 -58 -55q-60 0 -60 55z" />
    <glyph glyph-name="Gcommaaccent" unicode="&#x122;" horiz-adv-x="661" 
d="M580 604l-42 -78q-78 72 -169 72q-98 0 -158 -69t-60 -190q0 -122 59.5 -190t154.5 -68q86 0 145 47v164h-177v85h269v-305q-41 -35 -109.5 -58.5t-134.5 -23.5q-132 0 -220 94.5t-88 254.5q0 161 88 256t220 95q131 0 222 -86zM322 -242l20 68q-46 6 -46 52q0 27 15 42
t39 15q31 0 47.5 -17t16.5 -47q0 -62 -45 -131z" />
    <glyph glyph-name="gcommaaccent" unicode="&#x123;" 
d="M52 280q0 115 57.5 183.5t152.5 68.5q90 0 141 -58v49h96v-493q0 -114 -60 -171t-156 -57q-93 0 -179 49l22 86q78 -51 146 -51q58 0 94.5 31t36.5 101v73q-54 -61 -141 -61q-95 0 -152.5 68.5t-57.5 181.5zM150 280q0 -75 38 -119.5t104 -44.5q59 0 111 56v215
q-48 59 -110 59q-66 0 -104.5 -44.5t-38.5 -121.5zM334 772l-19 -68q22 -3 34 -17t12 -35q0 -27 -15.5 -42t-39.5 -15q-30 0 -46.5 17t-16.5 47q0 68 44 131z" />
    <glyph glyph-name="Hcircumflex" unicode="&#x124;" horiz-adv-x="716" 
d="M531 0v299h-346v-299h-98v680h98v-295h346v295h98v-680h-98zM419 755l-61 92l-62 -92h-75l89 143h96l89 -143h-76z" />
    <glyph glyph-name="hcircumflex" unicode="&#x125;" horiz-adv-x="583" 
d="M509 0h-96v309q0 132 -111 132q-47 0 -80.5 -30t-47.5 -74v-337h-96v710h96v-261q53 83 163 83q172 0 172 -205v-327zM363 753l-61 92l-62 -92h-75l89 143h96l89 -143h-76z" />
    <glyph glyph-name="Hbar" unicode="&#x126;" horiz-adv-x="723" 
d="M534 0v299h-345v-299h-98v505h-37v52h37v123h98v-123h345v123h98v-123h42v-52h-42v-505h-98zM189 385h345v120h-345v-120z" />
    <glyph glyph-name="hbar" unicode="&#x127;" horiz-adv-x="583" 
d="M509 0h-96v309q0 132 -111 132q-47 0 -80.5 -30t-47.5 -74v-337h-96v589h-65v53h65v68h96v-68h117v-53h-117v-140q53 83 163 83q172 0 172 -205v-327z" />
    <glyph glyph-name="Itilde" unicode="&#x128;" horiz-adv-x="272" 
d="M87 0v680h98v-680h-98zM13 772l-29 41q12 31 36.5 53t52.5 22q32 0 70 -32t57 -32q39 0 59 47l30 -39q-33 -77 -89 -77q-30 0 -70 32.5t-57 32.5q-35 0 -60 -48z" />
    <glyph glyph-name="itilde" unicode="&#x129;" horiz-adv-x="252" 
d="M2 615l-29 41q12 31 36.5 53t52.5 22q32 0 70 -32t57 -32q39 0 59 47l30 -39q-33 -77 -89 -77q-29 0 -69 32.5t-58 32.5q-35 0 -60 -48zM174 0h-96v523h96v-523z" />
    <glyph glyph-name="Imacron" unicode="&#x12a;" horiz-adv-x="272" 
d="M87 0v680h98v-680h-98zM242 782h-211v69h211v-69z" />
    <glyph glyph-name="imacron" unicode="&#x12b;" horiz-adv-x="252" 
d="M230 625h-211v69h211v-69zM174 0h-96v523h96v-523z" />
    <glyph glyph-name="Ibreve" unicode="&#x12c;" horiz-adv-x="272" 
d="M87 0v680h98v-680h-98zM17 839l26 40q34 -51 94 -51q61 0 94 51l26 -40q-42 -79 -119 -79q-43 0 -74 23t-47 56z" />
    <glyph glyph-name="ibreve" unicode="&#x12d;" horiz-adv-x="252" 
d="M5 682l26 40q34 -51 94 -51q61 0 94 51l26 -40q-42 -79 -119 -79q-43 0 -74 23t-47 56zM174 0h-96v523h96v-523z" />
    <glyph glyph-name="Iogonek" unicode="&#x12e;" horiz-adv-x="272" 
d="M87 0v680h98v-680h-21q-33 -2 -55 -22t-22 -52q0 -26 14.5 -40.5t36.5 -14.5q25 0 47 14l10 -47q-34 -16 -70 -16q-38 0 -62 24.5t-24 67.5q0 60 51 86h-3z" />
    <glyph glyph-name="iogonek" unicode="&#x12f;" horiz-adv-x="253" 
d="M175 0h-15q-35 -2 -58 -21.5t-23 -52.5q0 -26 14.5 -40.5t36.5 -14.5q25 0 47 14l10 -47q-34 -16 -70 -16q-38 0 -62 24.5t-24 67.5q0 60 51 86h-3v523h96v-523zM68 672q0 54 60 54q58 0 58 -54q0 -55 -58 -55q-60 0 -60 55z" />
    <glyph glyph-name="Idotaccent" unicode="&#x130;" horiz-adv-x="272" 
d="M87 0v680h98v-680h-98zM77 829q0 54 60 54q58 0 58 -54q0 -55 -58 -55q-60 0 -60 55z" />
    <glyph glyph-name="dotlessi" unicode="&#x131;" horiz-adv-x="252" 
d="M174 0h-96v523h96v-523z" />
    <glyph glyph-name="IJ" unicode="&#x132;" horiz-adv-x="841" 
d="M87 0v680h98v-680h-98zM305 227l94 9q5 -82 36 -120.5t95 -38.5q132 0 132 165v438h98v-437q0 -118 -59.5 -186t-172.5 -68q-106 0 -162.5 62t-60.5 176z" />
    <glyph glyph-name="ij" unicode="&#x133;" horiz-adv-x="543" 
d="M67 672q0 54 60 54q58 0 58 -54q0 -55 -58 -55q-60 0 -60 55zM174 0h-96v523h96v-523zM351 -197l-57 65q38 26 56.5 59.5t18.5 88.5v507h96v-503q0 -83 -29.5 -133.5t-84.5 -83.5zM358 672q0 54 59 54t59 -54q0 -55 -59 -55t-59 55z" />
    <glyph glyph-name="Jcircumflex" unicode="&#x134;" horiz-adv-x="558" 
d="M22 227l94 9q5 -82 36 -120.5t95 -38.5q132 0 132 165v438h98v-437q0 -118 -59.5 -186t-172.5 -68q-106 0 -162.5 62t-60.5 176zM487 755l-61 92l-62 -92h-75l89 143h96l89 -143h-76z" />
    <glyph glyph-name="jcircumflex" unicode="&#x135;" horiz-adv-x="251" 
d="M59 -197l-56 59q75 52 75 151v510h96v-503q0 -83 -30 -133.5t-85 -83.5zM186 598l-61 92l-62 -92h-75l89 143h96l89 -143h-76z" />
    <glyph glyph-name="Kcommaaccent" unicode="&#x136;" horiz-adv-x="601" 
d="M87 0v680h98v-302h56l223 302h100v-15l-245 -329l269 -322v-14h-113l-237 292h-53v-292h-98zM277 -242l20 68q-46 6 -46 52q0 27 15 42t39 15q31 0 47.5 -17t16.5 -47q0 -62 -45 -131z" />
    <glyph glyph-name="kcommaaccent" unicode="&#x137;" horiz-adv-x="512" 
d="M473 523v-16l-208 -230l222 -261v-16h-114l-199 242v-242h-96v710h96v-410l193 223h106zM234 -242l20 68q-46 6 -46 52q0 27 15 42t39 15q31 0 47.5 -17t16.5 -47q0 -62 -45 -131z" />
    <glyph glyph-name="kgreenlandic" unicode="&#x138;" horiz-adv-x="512" 
d="M473 523v-16l-208 -243l222 -248v-16h-114l-199 229v-229h-96v522h96v-236l193 237h106z" />
    <glyph glyph-name="Lacute" unicode="&#x139;" horiz-adv-x="514" 
d="M497 0h-410v680h98v-594h312v-86zM258 898l-84 -143h-82l70 143h96z" />
    <glyph glyph-name="lacute" unicode="&#x13a;" horiz-adv-x="293" 
d="M80 710h97v-578q0 -32 10.5 -45t31.5 -13q27 0 54 18l6 -77q-44 -25 -94 -25q-53 0 -79 27.5t-26 90.5v602zM244 896l-84 -143h-82l70 143h96z" />
    <glyph glyph-name="Lcommaaccent" unicode="&#x13b;" horiz-adv-x="514" 
d="M497 0h-410v680h98v-594h312v-86zM259 -242l20 68q-46 6 -46 52q0 27 15 42t39 15q31 0 47.5 -17t16.5 -47q0 -62 -45 -131z" />
    <glyph glyph-name="lcommaaccent" unicode="&#x13c;" horiz-adv-x="293" 
d="M80 710h97v-578q0 -32 10.5 -45t31.5 -13q27 0 54 18l6 -77q-44 -25 -94 -25q-53 0 -79 27.5t-26 90.5v602zM139 -242l20 68q-46 6 -46 52q0 27 15 42t39 15q31 0 47.5 -17t16.5 -47q0 -62 -45 -131z" />
    <glyph glyph-name="Lcaron" unicode="&#x13d;" horiz-adv-x="519" 
d="M497 0h-410v680h98v-594h312v-86zM367 512l20 68q-46 6 -46 52q0 27 15 42t39 15q31 0 47.5 -17t16.5 -47q0 -62 -45 -131z" />
    <glyph glyph-name="lcaron" unicode="&#x13e;" horiz-adv-x="326" 
d="M80 710h97v-578q0 -32 10.5 -45t31.5 -13q27 0 54 18l6 -77q-44 -25 -94 -25q-53 0 -79 27.5t-26 90.5v602zM259 512l20 68q-46 6 -46 52q0 27 15 42t39 15q31 0 47.5 -17t16.5 -47q0 -62 -45 -131z" />
    <glyph glyph-name="Ldot" unicode="&#x13f;" horiz-adv-x="525" 
d="M497 0h-410v680h98v-594h312v-86zM301 373q0 30 15.5 46.5t43.5 16.5q29 0 45 -16.5t16 -46.5q0 -64 -61 -64q-59 0 -59 64z" />
    <glyph glyph-name="ldot" unicode="&#x140;" horiz-adv-x="347" 
d="M80 710h97v-578q0 -32 10.5 -45t31.5 -13q27 0 54 18l6 -77q-44 -25 -94 -25q-53 0 -79 27.5t-26 90.5v602zM242 373q0 30 15.5 46.5t43.5 16.5q29 0 45 -16.5t16 -46.5q0 -64 -61 -64q-59 0 -59 64z" />
    <glyph glyph-name="Lslash" unicode="&#x141;" horiz-adv-x="519" 
d="M502 0h-411v268l-40 -23v80l40 23v332h98v-275l107 62v-80l-107 -62v-239h313v-86z" />
    <glyph glyph-name="lslash" unicode="&#x142;" horiz-adv-x="298" 
d="M84 710h97v-270l69 40v-80l-69 -40v-228q0 -32 10.5 -45t31.5 -13q27 0 54 18l6 -77q-44 -25 -94 -25q-53 0 -79 27.5t-26 90.5v197l-40 -23v80l40 23v325z" />
    <glyph glyph-name="Nacute" unicode="&#x143;" horiz-adv-x="714" 
d="M540 0l-356 516v-516h-97v680h85l356 -517v517h99v-680h-87zM480 898l-84 -143h-82l70 143h96z" />
    <glyph glyph-name="nacute" unicode="&#x144;" horiz-adv-x="583" 
d="M509 0h-97v309q0 132 -110 132q-47 0 -80.5 -30t-47.5 -74v-337h-96v523h96v-74q53 83 163 83q172 0 172 -205v-327zM408 741l-84 -143h-82l70 143h96z" />
    <glyph glyph-name="Ncommaaccent" unicode="&#x145;" horiz-adv-x="714" 
d="M540 0l-356 516v-516h-97v680h85l356 -517v517h99v-680h-87zM319 -242l20 68q-46 6 -46 52q0 27 15 42t39 15q31 0 47.5 -17t16.5 -47q0 -62 -45 -131z" />
    <glyph glyph-name="ncommaaccent" unicode="&#x146;" horiz-adv-x="583" 
d="M509 0h-97v309q0 132 -110 132q-47 0 -80.5 -30t-47.5 -74v-337h-96v523h96v-74q53 83 163 83q172 0 172 -205v-327zM267 -242l20 68q-46 6 -46 52q0 27 15 42t39 15q31 0 47.5 -17t16.5 -47q0 -62 -45 -131z" />
    <glyph glyph-name="Ncaron" unicode="&#x147;" horiz-adv-x="714" 
d="M540 0l-356 516v-516h-97v680h85l356 -517v517h99v-680h-87zM302 898l62 -92l61 92h76l-89 -143h-96l-89 143h75z" />
    <glyph glyph-name="ncaron" unicode="&#x148;" horiz-adv-x="583" 
d="M509 0h-97v309q0 132 -110 132q-47 0 -80.5 -30t-47.5 -74v-337h-96v523h96v-74q53 83 163 83q172 0 172 -205v-327zM234 741l62 -92l61 92h76l-89 -143h-96l-89 143h75z" />
    <glyph glyph-name="napostrophe" unicode="&#x149;" horiz-adv-x="672" 
d="M599 0h-97v309q0 132 -110 132q-47 0 -80.5 -30t-47.5 -74v-337h-96v523h96v-74q53 83 163 83q172 0 172 -205v-327zM41 514l20 68q-46 6 -46 52q0 27 15 42t39 15q31 0 47.5 -17t16.5 -47q0 -62 -45 -131z" />
    <glyph glyph-name="Eng" unicode="&#x14a;" horiz-adv-x="711" 
d="M528 25l-344 495v-520h-97v680h84l357 -517v517h96v-646q0 -158 -121 -230l-56 59q81 58 81 162z" />
    <glyph glyph-name="eng" unicode="&#x14b;" horiz-adv-x="583" 
d="M509 327v-297q0 -153 -122 -226l-56 59q39 29 60 66t21 98v282q0 132 -110 132q-47 0 -80.5 -30t-47.5 -74v-337h-96v523h96v-74q53 83 163 83q172 0 172 -205z" />
    <glyph glyph-name="Omacron" unicode="&#x14c;" horiz-adv-x="696" 
d="M50 339q0 156 82 253.5t215 97.5t215.5 -97.5t82.5 -253.5q0 -155 -82.5 -252t-215.5 -97q-132 0 -214.5 97t-82.5 252zM147 339q0 -122 55 -189t145 -67q91 0 146.5 67t55.5 189q0 123 -55.5 190.5t-146.5 67.5q-90 0 -145 -67.5t-55 -190.5zM453 782h-211v69h211v-69z
" />
    <glyph glyph-name="omacron" unicode="&#x14d;" horiz-adv-x="575" 
d="M50 260q0 128 64.5 202.5t172.5 74.5t173 -74t65 -203q0 -127 -65 -200.5t-173 -73.5t-172.5 73.5t-64.5 200.5zM145 260q0 -87 38.5 -135.5t103.5 -48.5t103.5 48.5t38.5 135.5q0 89 -38.5 138t-103.5 49t-103.5 -49t-38.5 -138zM393 625h-211v69h211v-69z" />
    <glyph glyph-name="Obreve" unicode="&#x14e;" horiz-adv-x="696" 
d="M50 339q0 156 82 253.5t215 97.5t215.5 -97.5t82.5 -253.5q0 -155 -82.5 -252t-215.5 -97q-132 0 -214.5 97t-82.5 252zM147 339q0 -122 55 -189t145 -67q91 0 146.5 67t55.5 189q0 123 -55.5 190.5t-146.5 67.5q-90 0 -145 -67.5t-55 -190.5zM228 839l26 40
q34 -51 94 -51q61 0 94 51l26 -40q-42 -79 -119 -79q-81 0 -121 79z" />
    <glyph glyph-name="obreve" unicode="&#x14f;" horiz-adv-x="575" 
d="M50 260q0 128 64.5 202.5t172.5 74.5t173 -74t65 -203q0 -127 -65 -200.5t-173 -73.5t-172.5 73.5t-64.5 200.5zM145 260q0 -87 38.5 -135.5t103.5 -48.5t103.5 48.5t38.5 135.5q0 89 -38.5 138t-103.5 49t-103.5 -49t-38.5 -138zM168 682l26 40q34 -51 94 -51
q61 0 94 51l26 -40q-42 -79 -119 -79q-81 0 -121 79z" />
    <glyph glyph-name="Ohungarumlaut" unicode="&#x150;" horiz-adv-x="696" 
d="M50 339q0 156 82 253.5t215 97.5t215.5 -97.5t82.5 -253.5q0 -155 -82.5 -252t-215.5 -97q-132 0 -214.5 97t-82.5 252zM147 339q0 -122 55 -189t145 -67q91 0 146.5 67t55.5 189q0 123 -55.5 190.5t-146.5 67.5q-90 0 -145 -67.5t-55 -190.5zM401 898l-84 -143h-82
l69 143h97zM564 898l-83 -143h-82l69 143h96z" />
    <glyph glyph-name="ohungarumlaut" unicode="&#x151;" horiz-adv-x="575" 
d="M50 260q0 128 64.5 202.5t172.5 74.5t173 -74t65 -203q0 -127 -65 -200.5t-173 -73.5t-172.5 73.5t-64.5 200.5zM145 260q0 -87 38.5 -135.5t103.5 -48.5t103.5 48.5t38.5 135.5q0 89 -38.5 138t-103.5 49t-103.5 -49t-38.5 -138zM329 741l-84 -143h-82l69 143h97z
M492 741l-83 -143h-82l69 143h96z" />
    <glyph glyph-name="OE" unicode="&#x152;" horiz-adv-x="1004" 
d="M953 0h-451v43q-69 -54 -158 -54q-127 0 -210.5 99.5t-83.5 249.5q0 151 83.5 251t210.5 100q89 0 158 -53v44h451v-87h-357v-201h295v-80h-295v-226h357v-86zM143 338q0 -110 58.5 -183.5t148.5 -73.5q95 0 152 68v380q-57 68 -152 68q-90 0 -148.5 -74t-58.5 -185z" />
    <glyph glyph-name="oe" unicode="&#x153;" horiz-adv-x="941" 
d="M881 232h-331q1 -73 40.5 -120.5t115.5 -47.5q75 0 145 60l34 -70q-80 -68 -185 -68q-160 0 -208 139q-25 -66 -79.5 -102.5t-127.5 -36.5q-107 0 -171 73t-64 201q0 129 64 203t171 74q74 0 129 -38.5t79 -106.5q25 67 77 106t123 39q99 0 148.5 -60.5t49.5 -157.5
q0 -42 -10 -87zM142 260q0 -87 39.5 -135.5t105.5 -48.5t105.5 48.5t39.5 135.5q0 88 -39.5 137.5t-105.5 49.5t-105.5 -49.5t-39.5 -137.5zM556 302h251q2 12 2 34q0 54 -30 90.5t-83 36.5q-64 0 -101 -44t-39 -117z" />
    <glyph glyph-name="Racute" unicode="&#x154;" horiz-adv-x="611" 
d="M87 0v680h269q89 0 147 -59t58 -159q0 -85 -48 -141t-123 -68l194 -237v-16h-108l-198 251h-93v-251h-98zM332 594h-147v-264h147q57 0 93 35t36 96q0 65 -36 99t-93 34zM412 898l-84 -143h-82l70 143h96z" />
    <glyph glyph-name="racute" unicode="&#x155;" horiz-adv-x="397" 
d="M175 0h-97v523h97v-80q37 89 120 89q48 0 82 -26l-17 -89q-34 24 -74 24q-78 0 -111 -112v-329zM312 741l-84 -143h-82l70 143h96z" />
    <glyph glyph-name="Rcommaaccent" unicode="&#x156;" horiz-adv-x="611" 
d="M87 0v680h269q89 0 147 -59t58 -159q0 -85 -48 -141t-123 -68l194 -237v-16h-108l-198 251h-93v-251h-98zM332 594h-147v-264h147q57 0 93 35t36 96q0 65 -36 99t-93 34zM284 -242l20 68q-46 6 -46 52q0 27 15 42t39 15q31 0 47.5 -17t16.5 -47q0 -62 -45 -131z" />
    <glyph glyph-name="rcommaaccent" unicode="&#x157;" horiz-adv-x="397" 
d="M175 0h-97v523h97v-80q37 89 120 89q48 0 82 -26l-17 -89q-34 24 -74 24q-78 0 -111 -112v-329zM94 -242l20 68q-46 6 -46 52q0 27 15 42t39 15q31 0 47.5 -17t16.5 -47q0 -62 -45 -131z" />
    <glyph glyph-name="Rcaron" unicode="&#x158;" horiz-adv-x="611" 
d="M87 0v680h269q89 0 147 -59t58 -159q0 -85 -48 -141t-123 -68l194 -237v-16h-108l-198 251h-93v-251h-98zM332 594h-147v-264h147q57 0 93 35t36 96q0 65 -36 99t-93 34zM229 898l62 -92l61 92h76l-89 -143h-96l-89 143h75z" />
    <glyph glyph-name="rcaron" unicode="&#x159;" horiz-adv-x="397" 
d="M175 0h-97v523h97v-80q37 89 120 89q48 0 82 -26l-17 -89q-34 24 -74 24q-78 0 -111 -112v-329zM157 741l62 -92l61 92h76l-89 -143h-96l-89 143h75z" />
    <glyph glyph-name="Sacute" unicode="&#x15a;" horiz-adv-x="538" 
d="M45 45l23 94q34 -23 85 -41t99 -18q60 0 100 29t40 81q0 75 -95 102l-103 30q-142 41 -142 173q0 80 59 137t167 57q115 0 200 -50l-28 -87q-32 20 -79 33.5t-90 13.5q-65 0 -98.5 -28t-33.5 -73q0 -36 20.5 -57t63.5 -34l102 -31q81 -25 119.5 -68.5t38.5 -111.5
q0 -91 -66.5 -148.5t-172.5 -57.5q-57 0 -116.5 17t-92.5 38zM396 898l-84 -143h-82l70 143h96z" />
    <glyph glyph-name="sacute" unicode="&#x15b;" horiz-adv-x="455" 
d="M397 497l-24 -83q-68 34 -134 34q-43 0 -65.5 -18t-22.5 -49q0 -26 17 -40t56 -26l60 -19q124 -40 124 -143q0 -68 -53 -115.5t-138 -47.5q-94 0 -170 40l20 87q74 -45 146 -45q45 0 71.5 20t26.5 53q0 29 -18.5 45.5t-56.5 28.5l-59 19q-63 19 -94 52.5t-31 87.5
q0 67 48.5 110.5t133.5 43.5q41 0 88.5 -10.5t74.5 -24.5zM342 741l-84 -143h-82l70 143h96z" />
    <glyph glyph-name="Scircumflex" unicode="&#x15c;" horiz-adv-x="538" 
d="M45 45l23 94q34 -23 85 -41t99 -18q60 0 100 29t40 81q0 75 -95 102l-103 30q-142 41 -142 173q0 80 59 137t167 57q115 0 200 -50l-28 -87q-32 20 -79 33.5t-90 13.5q-65 0 -98.5 -28t-33.5 -73q0 -36 20.5 -57t63.5 -34l102 -31q81 -25 119.5 -68.5t38.5 -111.5
q0 -91 -66.5 -148.5t-172.5 -57.5q-57 0 -116.5 17t-92.5 38zM331 755l-61 92l-62 -92h-75l89 143h96l89 -143h-76z" />
    <glyph glyph-name="scircumflex" unicode="&#x15d;" horiz-adv-x="455" 
d="M397 497l-24 -83q-68 34 -134 34q-43 0 -65.5 -18t-22.5 -49q0 -26 17 -40t56 -26l60 -19q124 -40 124 -143q0 -68 -53 -115.5t-138 -47.5q-94 0 -170 40l20 87q74 -45 146 -45q45 0 71.5 20t26.5 53q0 29 -18.5 45.5t-56.5 28.5l-59 19q-63 19 -94 52.5t-31 87.5
q0 67 48.5 110.5t133.5 43.5q41 0 88.5 -10.5t74.5 -24.5zM291 598l-61 92l-62 -92h-75l89 143h96l89 -143h-76z" />
    <glyph glyph-name="Scedilla" unicode="&#x15e;" horiz-adv-x="538" 
d="M209 -96l20 87q-53 4 -104.5 19.5t-79.5 34.5l23 94q34 -23 85 -41t99 -18q60 0 100 29t40 81q0 75 -95 102l-103 30q-142 41 -142 173q0 80 59 137t167 57q115 0 200 -50l-28 -87q-32 20 -79 33.5t-90 13.5q-65 0 -98.5 -28t-33.5 -73q0 -36 20.5 -57t63.5 -34l102 -31
q81 -25 119.5 -68.5t38.5 -111.5q0 -87 -61.5 -144t-161.5 -61l-12 -54q14 4 25 4q34 0 53.5 -18t19.5 -47q0 -35 -26 -54.5t-67 -19.5q-36 0 -65 12l9 36q31 -11 53 -11q48 0 48 36q0 31 -44 31q-30 0 -53 -7z" />
    <glyph glyph-name="scedilla" unicode="&#x15f;" horiz-adv-x="455" 
d="M172 -96l20 87q-82 5 -145 39l20 87q74 -45 146 -45q45 0 71.5 20t26.5 53q0 29 -18.5 45.5t-56.5 28.5l-59 19q-63 19 -94 52.5t-31 87.5q0 67 48.5 110.5t133.5 43.5q41 0 88.5 -10.5t74.5 -24.5l-24 -83q-68 34 -134 34q-43 0 -65.5 -18t-22.5 -49q0 -26 17 -40
t56 -26l60 -19q124 -40 124 -143q0 -65 -48 -111t-127 -51l-12 -54q14 4 25 4q34 0 53.5 -18t19.5 -47q0 -35 -26 -54.5t-67 -19.5q-36 0 -65 12l9 36q31 -11 53 -11q48 0 48 36q0 31 -44 31q-30 0 -53 -7z" />
    <glyph glyph-name="Scaron" unicode="&#x160;" horiz-adv-x="538" 
d="M45 45l23 94q34 -23 85 -41t99 -18q60 0 100 29t40 81q0 75 -95 102l-103 30q-142 41 -142 173q0 80 59 137t167 57q115 0 200 -50l-28 -87q-32 20 -79 33.5t-90 13.5q-65 0 -98.5 -28t-33.5 -73q0 -36 20.5 -57t63.5 -34l102 -31q81 -25 119.5 -68.5t38.5 -111.5
q0 -91 -66.5 -148.5t-172.5 -57.5q-57 0 -116.5 17t-92.5 38zM202 898l62 -92l61 92h76l-89 -143h-96l-89 143h75z" />
    <glyph glyph-name="scaron" unicode="&#x161;" horiz-adv-x="455" 
d="M397 497l-24 -83q-68 34 -134 34q-43 0 -65.5 -18t-22.5 -49q0 -26 17 -40t56 -26l60 -19q124 -40 124 -143q0 -68 -53 -115.5t-138 -47.5q-94 0 -170 40l20 87q74 -45 146 -45q45 0 71.5 20t26.5 53q0 29 -18.5 45.5t-56.5 28.5l-59 19q-63 19 -94 52.5t-31 87.5
q0 67 48.5 110.5t133.5 43.5q41 0 88.5 -10.5t74.5 -24.5zM168 741l62 -92l61 92h76l-89 -143h-96l-89 143h75z" />
    <glyph glyph-name="Tcommaaccent" unicode="&#x162;" horiz-adv-x="534" 
d="M514 593h-193v-593h-35l-14 -63q14 4 25 4q34 0 53.5 -18t19.5 -47q0 -35 -26 -54.5t-67 -19.5q-36 0 -65 12l9 36q31 -11 53 -11q48 0 48 36q0 31 -44 31q-30 0 -53 -7l-2 5l22 96h-22v593h-202v87h493v-87z" />
    <glyph glyph-name="tcommaaccent" unicode="&#x163;" horiz-adv-x="427" 
d="M195 -96l21 91q-101 22 -101 151v299h-82v78h88l11 133h79v-133h171v-78h-171v-287q0 -82 70 -82q51 0 98 36l25 -78q-70 -44 -145 -44h-3l-12 -53q14 4 25 4q34 0 53.5 -18t19.5 -47q0 -35 -26 -54.5t-67 -19.5q-36 0 -65 12l9 36q31 -11 53 -11q48 0 48 36q0 31 -44 31
q-30 0 -53 -7z" />
    <glyph glyph-name="Tcaron" unicode="&#x164;" horiz-adv-x="534" 
d="M514 593h-193v-593h-98v593h-202v87h493v-87zM211 898l62 -92l61 92h76l-89 -143h-96l-89 143h75z" />
    <glyph glyph-name="tcaron" unicode="&#x165;" horiz-adv-x="454" 
d="M210 445v-287q0 -82 70 -82q51 0 98 36l25 -78q-70 -44 -145 -44q-67 0 -105.5 38.5t-38.5 117.5v299h-82v78h88l11 133h79v-133h171v-78h-171zM409 512l20 68q-46 6 -46 52q0 27 15 42t39 15q31 0 47.5 -17t16.5 -47q0 -62 -45 -131z" />
    <glyph glyph-name="Tbar" unicode="&#x166;" horiz-adv-x="534" 
d="M223 0v297h-88v52h88v244h-202v87h493v-87h-193v-244h92v-52h-92v-297h-98z" />
    <glyph glyph-name="tbar" unicode="&#x167;" horiz-adv-x="429" 
d="M213 445v-145h112v-53h-112v-89q0 -82 70 -82q52 0 97 36l25 -75q-77 -47 -152 -47q-136 0 -136 156v101h-69v53h69v145h-82v78h88q3 48 11 133h79v-133h171v-78h-171z" />
    <glyph glyph-name="Utilde" unicode="&#x168;" horiz-adv-x="675" 
d="M178 680v-402q0 -198 159 -198q81 0 120.5 53t39.5 146v401h98v-407q0 -125 -65.5 -204.5t-192.5 -79.5q-128 0 -192.5 76t-64.5 208v407h98zM214 772l-29 41q12 31 36.5 53t52.5 22q32 0 70 -32t57 -32q39 0 59 47l30 -39q-33 -77 -89 -77q-29 0 -69 32.5t-58 32.5
q-35 0 -60 -48z" />
    <glyph glyph-name="utilde" unicode="&#x169;" horiz-adv-x="582" 
d="M73 523h97v-309q0 -132 109 -132q48 0 81.5 30t47.5 74v337h97v-523h-97v74q-53 -83 -163 -83q-172 0 -172 205v327zM166 615l-29 41q12 31 36.5 53t52.5 22q32 0 70 -32t57 -32q39 0 59 47l30 -39q-33 -77 -89 -77q-29 0 -69 32.5t-58 32.5q-35 0 -60 -48z" />
    <glyph glyph-name="Umacron" unicode="&#x16a;" horiz-adv-x="675" 
d="M178 680v-402q0 -198 159 -198q81 0 120.5 53t39.5 146v401h98v-407q0 -125 -65.5 -204.5t-192.5 -79.5q-128 0 -192.5 76t-64.5 208v407h98zM442 782h-211v69h211v-69z" />
    <glyph glyph-name="umacron" unicode="&#x16b;" horiz-adv-x="582" 
d="M73 523h97v-309q0 -132 109 -132q48 0 81.5 30t47.5 74v337h97v-523h-97v74q-53 -83 -163 -83q-172 0 -172 205v327zM396 625h-211v69h211v-69z" />
    <glyph glyph-name="Ubreve" unicode="&#x16c;" horiz-adv-x="675" 
d="M178 680v-402q0 -198 159 -198q81 0 120.5 53t39.5 146v401h98v-407q0 -125 -65.5 -204.5t-192.5 -79.5q-128 0 -192.5 76t-64.5 208v407h98zM217 839l26 40q34 -51 94 -51q61 0 94 51l26 -40q-42 -79 -119 -79q-43 0 -74 23t-47 56z" />
    <glyph glyph-name="ubreve" unicode="&#x16d;" horiz-adv-x="582" 
d="M73 523h97v-309q0 -132 109 -132q48 0 81.5 30t47.5 74v337h97v-523h-97v74q-53 -83 -163 -83q-172 0 -172 205v327zM170 682l26 40q34 -51 94 -51q61 0 94 51l26 -40q-42 -79 -119 -79q-81 0 -121 79z" />
    <glyph glyph-name="Uring" unicode="&#x16e;" horiz-adv-x="675" 
d="M178 680v-402q0 -198 159 -198q81 0 120.5 53t39.5 146v401h98v-407q0 -125 -65.5 -204.5t-192.5 -79.5q-128 0 -192.5 76t-64.5 208v407h98zM243 787q0 41 28.5 69.5t69.5 28.5t69.5 -28.5t28.5 -69.5t-28.5 -69.5t-69.5 -28.5t-69.5 28.5t-28.5 69.5zM287 787
q0 -23 15.5 -38.5t38.5 -15.5q22 0 37.5 16t15.5 38t-15.5 37.5t-37.5 15.5t-38 -15.5t-16 -37.5z" />
    <glyph glyph-name="uring" unicode="&#x16f;" horiz-adv-x="582" 
d="M73 523h97v-309q0 -132 109 -132q48 0 81.5 30t47.5 74v337h97v-523h-97v74q-53 -83 -163 -83q-172 0 -172 205v327zM195 670q0 40 28.5 69t69.5 29t69.5 -29t28.5 -69t-28.5 -69t-69.5 -29t-69.5 29t-28.5 69zM239 670q0 -22 15.5 -38t38.5 -16q22 0 37.5 16t15.5 38
t-15.5 37.5t-37.5 15.5t-38 -15.5t-16 -37.5z" />
    <glyph glyph-name="Uhungarumlaut" unicode="&#x170;" horiz-adv-x="675" 
d="M178 680v-402q0 -198 159 -198q81 0 120.5 53t39.5 146v401h98v-407q0 -125 -65.5 -204.5t-192.5 -79.5q-128 0 -192.5 76t-64.5 208v407h98zM377 898l-84 -143h-82l69 143h97zM540 898l-83 -143h-82l69 143h96z" />
    <glyph glyph-name="uhungarumlaut" unicode="&#x171;" horiz-adv-x="582" 
d="M73 523h97v-309q0 -132 109 -132q48 0 81.5 30t47.5 74v337h97v-523h-97v74q-53 -83 -163 -83q-172 0 -172 205v327zM329 741l-84 -143h-82l69 143h97zM492 741l-83 -143h-82l69 143h96z" />
    <glyph glyph-name="Uogonek" unicode="&#x172;" horiz-adv-x="675" 
d="M178 680v-402q0 -198 159 -198q81 0 120.5 53t39.5 146v401h98v-407q0 -114 -54 -190.5t-160 -90.5q-43 -21 -43 -66q0 -26 14.5 -40.5t36.5 -14.5q25 0 47 14l10 -47q-34 -16 -70 -16q-38 0 -62 24.5t-24 67.5q0 46 34 75q-122 4 -183 79.5t-61 204.5v407h98z" />
    <glyph glyph-name="uogonek" unicode="&#x173;" horiz-adv-x="582" 
d="M73 523h97v-309q0 -132 109 -132q48 0 81.5 30t47.5 74v337h97v-523h-16q-35 -2 -58 -21.5t-23 -52.5q0 -26 14.5 -40.5t36.5 -14.5q25 0 47 14l10 -47q-34 -16 -70 -16q-38 0 -62 24.5t-24 67.5q0 60 51 86h-3v74q-53 -83 -163 -83q-172 0 -172 205v327z" />
    <glyph glyph-name="Wcircumflex" unicode="&#x174;" horiz-adv-x="939" 
d="M580 0l-109 335l-117 -335h-105l-227 680h103l185 -570l118 341l-74 229h104l173 -555l185 555h105l-236 -680h-105zM531 755l-61 92l-62 -92h-75l89 143h96l89 -143h-76z" />
    <glyph glyph-name="wcircumflex" unicode="&#x175;" horiz-adv-x="864" 
d="M731 523h105l-166 -523h-121l-117 405l-121 -405h-121l-159 523h105l118 -430l121 430h118l114 -430zM493 598l-61 92l-62 -92h-75l89 143h96l89 -143h-76z" />
    <glyph glyph-name="Ycircumflex" unicode="&#x176;" horiz-adv-x="595" 
d="M249 0v279l-232 393v8h108l173 -310l172 310h107v-8l-232 -392v-280h-96zM359 755l-61 92l-62 -92h-75l89 143h96l89 -143h-76z" />
    <glyph glyph-name="ycircumflex" unicode="&#x177;" horiz-adv-x="532" 
d="M28 -168l15 74q37 -22 80 -22q35 0 55.5 21t36.5 68l11 36l-207 514h107l143 -416l133 415q16 0 49 0.5t49 0.5l-201 -569q-27 -77 -65 -114.5t-105 -37.5q-58 0 -101 30zM327 598l-61 92l-62 -92h-75l89 143h96l89 -143h-76z" />
    <glyph glyph-name="Ydieresis" unicode="&#x178;" horiz-adv-x="595" 
d="M249 0v279l-232 393v8h108l173 -310l172 310h107v-8l-232 -392v-280h-96zM135 827q0 52 56 52q55 0 55 -52q0 -26 -15 -39t-40 -13q-56 0 -56 52zM350 827q0 52 57 52q54 0 54 -52t-54 -52q-57 0 -57 52z" />
    <glyph glyph-name="Zacute" unicode="&#x179;" horiz-adv-x="534" 
d="M46 71l317 523h-317v86h442v-71l-317 -523h317v-86h-442v71zM388 898l-84 -143h-82l70 143h96z" />
    <glyph glyph-name="zacute" unicode="&#x17a;" horiz-adv-x="459" 
d="M49 71l239 373h-239v79h361v-71l-239 -374h239v-78h-361v71zM349 741l-84 -143h-82l70 143h96z" />
    <glyph glyph-name="Zdotaccent" unicode="&#x17b;" horiz-adv-x="534" 
d="M46 71l317 523h-317v86h442v-71l-317 -523h317v-86h-442v71zM214 829q0 54 60 54q58 0 58 -54q0 -55 -58 -55q-60 0 -60 55z" />
    <glyph glyph-name="zdotaccent" unicode="&#x17c;" horiz-adv-x="459" 
d="M49 71l239 373h-239v79h361v-71l-239 -374h239v-78h-361v71zM178 672q0 54 60 54q58 0 58 -54q0 -55 -58 -55q-60 0 -60 55z" />
    <glyph glyph-name="Zcaron" unicode="&#x17d;" horiz-adv-x="534" 
d="M46 71l317 523h-317v86h442v-71l-317 -523h317v-86h-442v71zM209 898l62 -92l61 92h76l-89 -143h-96l-89 143h75z" />
    <glyph glyph-name="zcaron" unicode="&#x17e;" horiz-adv-x="459" 
d="M49 71l239 373h-239v79h361v-71l-239 -374h239v-78h-361v71zM171 741l62 -92l61 92h76l-89 -143h-96l-89 143h75z" />
    <glyph glyph-name="florin" unicode="&#x192;" horiz-adv-x="446" 
d="M395 316h-123v-348q0 -78 -33.5 -122t-99.5 -44q-28 0 -58.5 12.5t-47.5 26.5l17 82q29 -33 66 -33q59 0 59 75v351h-118v62h118v178q0 77 33.5 120.5t98.5 43.5q28 0 58.5 -12t48.5 -27l-17 -82q-31 33 -67 33q-58 0 -58 -73v-181h123v-62z" />
    <glyph glyph-name="Aringacute" unicode="&#x1fa;" horiz-adv-x="617" 
d="M18 0l230 661q-35 22 -35 67q0 39 26.5 60t70.5 21q45 0 71.5 -21t26.5 -60q0 -45 -35 -66l222 -662h-98l-49 153h-282l-51 -153h-97zM311 581l-119 -354h232zM257 728q0 -41 53 -41q54 0 54 41q0 40 -54 40q-53 0 -53 -40zM391 907l-52 -77h-62l42 77h72z" />
    <glyph glyph-name="aringacute" unicode="&#x1fb;" horiz-adv-x="517" 
d="M444 0h-95v46q-62 -56 -145 -56q-77 0 -120.5 42.5t-43.5 115.5q0 90 65 136.5t171 46.5q38 0 73 -8v17q0 108 -111 108q-70 0 -137 -32l-17 80q80 36 169 36q92 0 141.5 -50.5t49.5 -144.5v-337zM139 157q0 -42 26.5 -65.5t68.5 -23.5q69 0 115 50v135q-32 8 -68 8
q-63 0 -102.5 -26t-39.5 -78zM164 656q0 38 27 60t71 22t71 -22t27 -60q0 -40 -26.5 -61t-71.5 -21q-44 0 -71 21.5t-27 60.5zM209 656q0 -41 53 -41q54 0 54 41q0 40 -54 40q-53 0 -53 -40zM343 835l-52 -78h-62l42 78h72z" />
    <glyph glyph-name="AEacute" unicode="&#x1fc;" horiz-adv-x="905" 
d="M404 0v153h-224l-76 -153h-103l346 680h508v-87h-358v-201h295v-80h-295v-226h358v-86h-451zM218 227h186v362zM705 898l-84 -143h-82l70 143h96z" />
    <glyph glyph-name="aeacute" unicode="&#x1fd;" horiz-adv-x="813" 
d="M751 232h-313q5 -170 141 -170q76 0 141 59l34 -63q-79 -72 -182 -72q-126 0 -173 104q-78 -100 -189 -100q-77 0 -123.5 41.5t-46.5 118.5q0 82 60.5 130t164.5 50q42 1 85 -8q1 65 -25 95.5t-87 30.5q-65 0 -137 -32l-17 80q82 36 177 36q63 0 98 -25.5t52 -73.5
q53 104 165 104q97 0 141.5 -58t44.5 -152q0 -55 -11 -95zM575 464q-62 0 -95.5 -48t-33.5 -114h234q3 17 3 36q0 54 -27.5 90t-80.5 36zM139 156q0 -42 27 -65t68 -23q40 0 70.5 19t45.5 45v120q-36 9 -68 9q-143 -4 -143 -105zM536 741l-84 -143h-82l70 143h96z" />
    <glyph glyph-name="Oslashacute" unicode="&#x1fe;" horiz-adv-x="695" 
d="M469 898l-84 -143h-82l70 143h96zM50 339q0 156 82 253.5t215 97.5q97 0 171 -55l31 45h70v-8l-56 -81q82 -96 82 -252q0 -155 -82.5 -252t-215.5 -97q-94 0 -163 49l-27 -39h-72v8l51 74q-86 97 -86 257zM147 339q0 -111 45 -176l273 395q-51 39 -118 39
q-90 0 -145 -67.5t-55 -190.5zM549 339q0 104 -42 171l-270 -394q47 -33 110 -33q91 0 146.5 67t55.5 189z" />
    <glyph glyph-name="oslashacute" unicode="&#x1ff;" horiz-adv-x="575" 
d="M409 741l-84 -143h-82l70 143h96zM50 260q0 128 64.5 202.5t172.5 74.5q82 0 141 -45l22 31h51v-9l-38 -55q62 -75 62 -199q0 -127 -65 -200.5t-173 -73.5q-74 0 -130 36l-15 -22h-51v8l30 44q-71 74 -71 208zM145 260q0 -81 32 -128l198 283q-37 32 -88 32
q-65 0 -103.5 -49t-38.5 -138zM429 260q0 69 -25 116l-193 -278q33 -22 76 -22q65 0 103.5 48.5t38.5 135.5z" />
    <glyph glyph-name="Scommaaccent" unicode="&#x218;" horiz-adv-x="538" 
d="M45 45l23 94q34 -23 85 -41t99 -18q60 0 100 29t40 81q0 75 -95 102l-103 30q-142 41 -142 173q0 80 59 137t167 57q115 0 200 -50l-28 -87q-32 20 -79 33.5t-90 13.5q-65 0 -98.5 -28t-33.5 -73q0 -36 20.5 -57t63.5 -34l102 -31q81 -25 119.5 -68.5t38.5 -111.5
q0 -91 -66.5 -148.5t-172.5 -57.5q-57 0 -116.5 17t-92.5 38zM231 -242l20 68q-46 6 -46 52q0 27 15 42t39 15q31 0 47.5 -17t16.5 -47q0 -62 -45 -131z" />
    <glyph glyph-name="scommaaccent" unicode="&#x219;" horiz-adv-x="455" 
d="M397 497l-24 -83q-68 34 -134 34q-43 0 -65.5 -18t-22.5 -49q0 -26 17 -40t56 -26l60 -19q124 -40 124 -143q0 -68 -53 -115.5t-138 -47.5q-94 0 -170 40l20 87q74 -45 146 -45q45 0 71.5 20t26.5 53q0 29 -18.5 45.5t-56.5 28.5l-59 19q-63 19 -94 52.5t-31 87.5
q0 67 48.5 110.5t133.5 43.5q41 0 88.5 -10.5t74.5 -24.5zM197 -242l20 68q-46 6 -46 52q0 27 15 42t39 15q31 0 47.5 -17t16.5 -47q0 -62 -45 -131z" />
    <glyph glyph-name="uni021A" unicode="&#x21a;" horiz-adv-x="534" 
d="M514 593h-193v-593h-98v593h-202v87h493v-87zM239 -242l20 68q-46 6 -46 52q0 27 15 42t39 15q31 0 47.5 -17t16.5 -47q0 -62 -45 -131z" />
    <glyph glyph-name="uni021B" unicode="&#x21b;" horiz-adv-x="426" 
d="M210 445v-287q0 -82 70 -82q51 0 98 36l25 -78q-70 -44 -145 -44q-67 0 -105.5 38.5t-38.5 117.5v299h-82v78h88l11 133h79v-133h171v-78h-171zM208 -242l20 68q-46 6 -46 52q0 27 15 42t39 15q31 0 47.5 -17t16.5 -47q0 -62 -45 -131z" />
    <glyph glyph-name="dotlessj" unicode="&#x237;" horiz-adv-x="251" 
d="M59 -197l-56 59q75 52 75 151v510h96v-503q0 -83 -30 -133.5t-85 -83.5z" />
    <glyph glyph-name="circumflex" unicode="&#x2c6;" horiz-adv-x="510" 
d="M316 598l-61 92l-62 -92h-75l89 143h96l89 -143h-76z" />
    <glyph glyph-name="caron" unicode="&#x2c7;" horiz-adv-x="510" 
d="M193 741l62 -92l61 92h76l-89 -143h-96l-89 143h75z" />
    <glyph glyph-name="breve" unicode="&#x2d8;" horiz-adv-x="510" 
d="M135 682l26 40q34 -51 94 -51q61 0 94 51l26 -40q-42 -79 -119 -79q-43 0 -74 23t-47 56z" />
    <glyph glyph-name="dotaccent" unicode="&#x2d9;" horiz-adv-x="510" 
d="M196 672q0 54 60 54q58 0 58 -54q0 -55 -58 -55q-60 0 -60 55z" />
    <glyph glyph-name="ring" unicode="&#x2da;" horiz-adv-x="510" 
d="M157 630q0 40 28.5 69t69.5 29t69.5 -29t28.5 -69t-28.5 -69t-69.5 -29t-69.5 29t-28.5 69zM201 630q0 -22 15.5 -38t38.5 -16q22 0 37.5 16t15.5 38t-15.5 37.5t-37.5 15.5t-38 -15.5t-16 -37.5z" />
    <glyph glyph-name="ogonek" unicode="&#x2db;" horiz-adv-x="510" 
d="M255 10l49 -10q-35 -2 -58 -21.5t-23 -52.5q0 -26 14.5 -40.5t36.5 -14.5q25 0 47 14l10 -47q-34 -16 -70 -16q-38 0 -62 24.5t-24 67.5q0 40 25 66t55 30z" />
    <glyph glyph-name="tilde" unicode="&#x2dc;" horiz-adv-x="510" 
d="M131 615l-29 41q12 31 36.5 53t52.5 22q32 0 70 -32t57 -32q39 0 59 47l30 -39q-33 -77 -89 -77q-30 0 -70 32.5t-57 32.5q-35 0 -60 -48z" />
    <glyph glyph-name="hungarumlaut" unicode="&#x2dd;" horiz-adv-x="510" 
d="M256 741l-84 -143h-82l69 143h97zM419 741l-83 -143h-82l69 143h96z" />
    <glyph glyph-name="uni0394" unicode="&#x394;" horiz-adv-x="617" 
d="M20 0l236 680h112l228 -680h-576zM312 582l-169 -507h330z" />
    <glyph glyph-name="uni03A9" unicode="&#x3a9;" horiz-adv-x="704" 
d="M398 0v80q69 27 113.5 101.5t44.5 168.5q0 113 -56 180.5t-148 67.5q-91 0 -147 -67.5t-56 -180.5q0 -97 43 -170t113 -100v-80h-234v78h117q-61 35 -97 114t-36 175q0 143 83.5 233t213.5 90q131 0 214.5 -90t83.5 -233q0 -94 -37 -173.5t-96 -115.5h116v-78h-235z" />
    <glyph glyph-name="uni03BC" unicode="&#x3bc;" horiz-adv-x="569" 
d="M174 523v-280q0 -83 24 -123t81 -40q78 0 115 88v355h96v-523h-96v54q-51 -64 -150 -64q-40 0 -70 12v-190h-97v711h97z" />
    <glyph glyph-name="pi" unicode="&#x3c0;" horiz-adv-x="634" 
d="M29 523h565v-78h-105v-320q0 -51 35 -51q23 0 45 19l6 -80q-7 -7 -34 -15t-56 -8q-93 0 -93 117v338h-165v-445h-97v445h-101v78z" />
    <glyph glyph-name="Wgrave" unicode="&#x1e80;" horiz-adv-x="939" 
d="M580 0l-109 335l-117 -335h-105l-227 680h103l185 -570l118 341l-74 229h104l173 -555l185 555h105l-236 -680h-105zM437 755l-84 143h96l70 -143h-82z" />
    <glyph glyph-name="wgrave" unicode="&#x1e81;" horiz-adv-x="864" 
d="M731 523h105l-166 -523h-121l-117 405l-121 -405h-121l-159 523h105l118 -430l121 430h118l114 -430zM439 598l-84 143h96l70 -143h-82z" />
    <glyph glyph-name="Wacute" unicode="&#x1e82;" horiz-adv-x="939" 
d="M580 0l-109 335l-117 -335h-105l-227 680h103l185 -570l118 341l-74 229h104l173 -555l185 555h105l-236 -680h-105zM587 898l-84 -143h-82l70 143h96z" />
    <glyph glyph-name="wacute" unicode="&#x1e83;" horiz-adv-x="864" 
d="M731 523h105l-166 -523h-121l-117 405l-121 -405h-121l-159 523h105l118 -430l121 430h118l114 -430zM560 741l-84 -143h-82l70 143h96z" />
    <glyph glyph-name="Wdieresis" unicode="&#x1e84;" horiz-adv-x="939" 
d="M580 0l-109 335l-117 -335h-105l-227 680h103l185 -570l118 341l-74 229h104l173 -555l185 555h105l-236 -680h-105zM307 827q0 52 56 52q55 0 55 -52q0 -26 -15 -39t-40 -13q-56 0 -56 52zM522 827q0 52 57 52q54 0 54 -52t-54 -52q-57 0 -57 52z" />
    <glyph glyph-name="wdieresis" unicode="&#x1e85;" horiz-adv-x="864" 
d="M731 523h105l-166 -523h-121l-117 405l-121 -405h-121l-159 523h105l118 -430l121 430h118l114 -430zM269 670q0 52 56 52q55 0 55 -52q0 -26 -15 -39t-40 -13q-56 0 -56 52zM484 670q0 52 57 52q54 0 54 -52t-54 -52q-57 0 -57 52z" />
    <glyph glyph-name="Ygrave" unicode="&#x1ef2;" horiz-adv-x="595" 
d="M249 0v279l-232 393v8h108l173 -310l172 310h107v-8l-232 -392v-280h-96zM261 755l-84 143h96l70 -143h-82z" />
    <glyph glyph-name="ygrave" unicode="&#x1ef3;" horiz-adv-x="532" 
d="M28 -168l15 74q37 -22 80 -22q35 0 55.5 21t36.5 68l11 36l-207 514h107l143 -416l133 415q16 0 49 0.5t49 0.5l-201 -569q-27 -77 -65 -114.5t-105 -37.5q-58 0 -101 30zM232 598l-84 143h96l70 -143h-82z" />
    <glyph glyph-name="endash" unicode="&#x2013;" horiz-adv-x="547" 
d="M67 342h412v-79h-412v79z" />
    <glyph glyph-name="emdash" unicode="&#x2014;" horiz-adv-x="753" 
d="M67 342h618v-79h-618v79z" />
    <glyph glyph-name="quoteleft" unicode="&#x2018;" horiz-adv-x="239" 
d="M172 667l-37 -136q47 -9 47 -64q0 -70 -64 -70q-30 0 -47 19.5t-17 50.5q0 46 21.5 116t42.5 107z" />
    <glyph glyph-name="quoteright" unicode="&#x2019;" horiz-adv-x="237" 
d="M67 418l38 136q-46 9 -46 64q0 34 16.5 52t46.5 18t47 -19.5t17 -50.5q0 -45 -21.5 -115t-42.5 -108z" />
    <glyph glyph-name="quotesinglbase" unicode="&#x201a;" horiz-adv-x="247" 
d="M68 -148l38 136q-46 9 -46 64q0 34 16.5 52t46.5 18t47 -19.5t17 -50.5q0 -45 -21.5 -115t-42.5 -108z" />
    <glyph glyph-name="quotedblleft" unicode="&#x201c;" horiz-adv-x="400" 
d="M335 670l-35 -130q42 -9 42 -58q0 -64 -56 -64q-27 0 -42.5 18t-15.5 46q0 42 20 108t39 100zM161 670l-36 -130q43 -9 43 -58q0 -64 -56 -64q-27 0 -42.5 18t-15.5 46q0 42 20 108t39 100z" />
    <glyph glyph-name="quotedblright" unicode="&#x201d;" horiz-adv-x="398" 
d="M66 437l35 130q-43 7 -43 58q0 31 15 47.5t42 16.5t42 -17.5t15 -46.5q0 -42 -19.5 -108.5t-38.5 -100.5zM240 437l35 130q-43 7 -43 58q0 31 15 47.5t41 16.5q27 0 43 -18t16 -46q0 -42 -20 -108.5t-39 -100.5z" />
    <glyph glyph-name="quotedblbase" unicode="&#x201e;" horiz-adv-x="409" 
d="M69 -151l35 131q-43 6 -43 57q0 65 57 65q27 0 42 -18t15 -47q0 -42 -19.5 -108t-38.5 -100zM242 -151l36 131q-43 6 -43 57q0 65 56 65q27 0 42.5 -18t15.5 -47q0 -43 -20 -109t-39 -99z" />
    <glyph glyph-name="dagger" unicode="&#x2020;" horiz-adv-x="516" 
d="M487 364h-190v-552h-77v552h-190v79h190v267h77v-267h190v-79z" />
    <glyph glyph-name="daggerdbl" unicode="&#x2021;" horiz-adv-x="556" 
d="M507 64h-190v-252h-77v252h-190v79h190v221h-190v79h190v267h77v-267h190v-79h-190v-221h190v-79z" />
    <glyph glyph-name="bullet" unicode="&#x2022;" horiz-adv-x="354" 
d="M86 302q0 49 23.5 76t67.5 27q43 0 67 -27t24 -76q0 -50 -24 -76.5t-67 -26.5q-44 0 -67.5 26.5t-23.5 76.5z" />
    <glyph glyph-name="ellipsis" unicode="&#x2026;" horiz-adv-x="661" 
d="M61 49q0 31 15.5 48t43.5 17q29 0 45 -17t16 -48q0 -64 -61 -64q-59 0 -59 64zM271 49q0 65 59 65q29 0 45 -17t16 -48q0 -64 -61 -64q-59 0 -59 64zM481 49q0 31 15.5 48t43.5 17q60 0 60 -65q0 -64 -60 -64q-59 0 -59 64z" />
    <glyph glyph-name="perthousand" unicode="&#x2030;" horiz-adv-x="1093" 
d="M750 164q0 83 42.5 130t111.5 47t112 -47t43 -130q0 -82 -43 -128t-112 -46t-111.5 46t-42.5 128zM823 164q0 -49 22 -75t59 -26q38 0 59.5 26t21.5 75q0 51 -21.5 77.5t-59.5 26.5q-37 0 -59 -27t-22 -77zM188 8l300 672h83v-8l-300 -672h-83v8zM36 513q0 82 42.5 129.5
t110.5 47.5q69 0 112 -47.5t43 -129.5q0 -83 -43 -129t-112 -46t-111 46t-42 129zM108 513q0 -50 22 -76.5t59 -26.5q38 0 60 26.5t22 76.5t-22 76.5t-60 26.5q-37 0 -59 -26.5t-22 -76.5zM415 165q0 83 42.5 130t110.5 47q69 0 111.5 -47t42.5 -130q0 -82 -42.5 -128.5
t-111.5 -46.5q-68 0 -110.5 46.5t-42.5 128.5zM487 165q0 -50 22 -76t59 -26q38 0 60 26t22 76t-22 76.5t-60 26.5q-37 0 -59 -26.5t-22 -76.5z" />
    <glyph glyph-name="guilsinglleft" unicode="&#x2039;" horiz-adv-x="279" 
d="M47 292v20l137 201h7l35 -23l-98 -188l98 -188l-35 -23h-7z" />
    <glyph glyph-name="guilsinglright" unicode="&#x203a;" horiz-adv-x="279" 
d="M232 312v-20l-136 -201h-8l-35 23l98 188l-98 188l35 23h8z" />
    <glyph glyph-name="fraction" unicode="&#x2044;" horiz-adv-x="105" 
d="M-133 8l313 672h57v-8l-313 -672h-57v8z" />
    <glyph glyph-name="zerosuperior" unicode="&#x2070;" horiz-adv-x="320" 
d="M37 621q0 78 31.5 123.5t91.5 45.5q61 0 92 -45.5t31 -123.5t-31 -123t-92 -45q-60 0 -91.5 45t-31.5 123zM91 621q0 -116 69 -116t69 116t-69 116t-69 -116z" />
    <glyph glyph-name="foursuperior" unicode="&#x2074;" horiz-adv-x="313" 
d="M287 522h-51v-65h-56v65h-157v38l140 224h73v-219h51v-43zM80 565h100v162z" />
    <glyph glyph-name="fivesuperior" unicode="&#x2075;" horiz-adv-x="285" 
d="M49 613l-2 2l12 169h181v-50h-134l-6 -77h33q117 0 117 -93q0 -56 -33 -84t-88 -28q-52 0 -98 23l14 47q43 -20 81 -20q29 0 48 15t19 45q0 51 -63 51h-81z" />
    <glyph glyph-name="sixsuperior" unicode="&#x2076;" horiz-adv-x="309" 
d="M172 740q-78 0 -81 -106q33 40 81 40q50 0 77 -27.5t27 -77.5q0 -53 -31 -84.5t-80 -31.5q-62 0 -95.5 45.5t-33.5 123.5q0 77 34 122.5t96 45.5q52 0 98 -27l-16 -48q-34 25 -76 25zM164 630q-38 0 -71 -40q10 -85 72 -85q24 0 39.5 18.5t15.5 45.5q0 61 -56 61z" />
    <glyph glyph-name="sevensuperior" unicode="&#x2077;" horiz-adv-x="254" 
d="M58 462l114 272h-148v50h210v-40l-116 -287h-60v5z" />
    <glyph glyph-name="eightsuperior" unicode="&#x2078;" horiz-adv-x="312" 
d="M156 453q-57 0 -88.5 25t-31.5 69q0 68 65 82q-25 5 -40 25.5t-15 45.5q0 44 28.5 67t81.5 23t81.5 -23.5t28.5 -66.5q0 -25 -15.5 -45.5t-39.5 -25.5q64 -14 64 -82q0 -44 -31 -69t-88 -25zM156 607q-31 0 -47.5 -14.5t-16.5 -36.5q0 -25 18 -41t46 -16q29 0 46.5 16
t17.5 41q0 22 -16.5 36.5t-47.5 14.5zM156 743q-25 0 -40 -12.5t-15 -35.5q0 -20 13.5 -34t41.5 -14q27 0 40.5 14t13.5 34q0 23 -14.5 35.5t-39.5 12.5z" />
    <glyph glyph-name="ninesuperior" unicode="&#x2079;" horiz-adv-x="309" 
d="M137 502q78 0 81 108q-34 -41 -82 -41q-49 0 -76 27t-27 77q0 52 31.5 84.5t80.5 32.5q61 0 94.5 -46t33.5 -123q0 -76 -34 -122t-95 -46t-98 27l16 47q34 -25 75 -25zM145 613q39 0 71 39q-12 85 -71 85q-25 0 -41 -18.5t-16 -45.5q0 -30 15.5 -45t41.5 -15z" />
    <glyph glyph-name="zeroinferior" unicode="&#x2080;" horiz-adv-x="319" 
d="M37 63q0 79 31 124t92 45t92 -45t31 -124q0 -78 -31 -123t-92 -45t-92 45t-31 123zM91 63q0 -114 69 -114t69 114q0 117 -69 117t-69 -117z" />
    <glyph glyph-name="oneinferior" unicode="&#x2081;" horiz-adv-x="232" 
d="M16 153l122 74h42v-327h-56v262l-86 -52z" />
    <glyph glyph-name="twoinferior" unicode="&#x2082;" horiz-adv-x="293" 
d="M41 -100v44l111 98q42 38 42 79q0 26 -13.5 42.5t-38.5 16.5q-28 0 -42.5 -20t-14.5 -53l-51 9q2 53 30.5 84.5t79.5 31.5q52 0 79 -29.5t27 -76.5q0 -64 -59 -114l-71 -62h138v-50h-217z" />
    <glyph glyph-name="threeinferior" unicode="&#x2083;" horiz-adv-x="287" 
d="M69 92h67q23 0 36 13t13 32q0 46 -58 46q-42 0 -80 -21l-12 49q45 21 98 21q51 0 79.5 -23t28.5 -66q0 -55 -48 -72q58 -15 58 -82q0 -43 -31 -68.5t-87 -25.5q-43 0 -99 21l14 48q38 -19 81 -19q29 0 47 14.5t18 38.5q0 45 -58 45h-67v49z" />
    <glyph glyph-name="fourinferior" unicode="&#x2084;" horiz-adv-x="313" 
d="M287 -36h-51v-64h-56v64h-157v39l140 224h73v-219h51v-44zM80 8h100v162z" />
    <glyph glyph-name="fiveinferior" unicode="&#x2085;" horiz-adv-x="284" 
d="M48 56l-2 2l12 169h181v-50h-134l-5 -77h33q117 0 117 -94q0 -55 -33.5 -83t-88.5 -28q-51 0 -98 22l15 48q40 -20 80 -20q67 0 67 60q0 51 -63 51h-81z" />
    <glyph glyph-name="sixinferior" unicode="&#x2086;" horiz-adv-x="309" 
d="M172 183q-78 0 -81 -107q33 40 81 40q50 0 77 -27.5t27 -77.5q0 -52 -31 -84t-80 -32q-62 0 -95.5 46t-33.5 123t34 122.5t96 45.5q56 0 98 -27l-16 -47q-34 25 -76 25zM164 72q-38 0 -71 -40q10 -84 72 -84q24 0 39.5 18t15.5 45q0 61 -56 61z" />
    <glyph glyph-name="seveninferior" unicode="&#x2087;" horiz-adv-x="253" 
d="M58 -95l114 272h-148v50h210v-40l-116 -287h-60v5z" />
    <glyph glyph-name="eightinferior" unicode="&#x2088;" horiz-adv-x="312" 
d="M156 -105q-57 0 -88.5 25.5t-31.5 68.5q0 68 65 82q-25 5 -40 25.5t-15 46.5q0 43 28.5 66t81.5 23t81.5 -23t28.5 -66q0 -26 -15.5 -46.5t-39.5 -25.5q64 -14 64 -82q0 -43 -31.5 -68.5t-87.5 -25.5zM156 49q-32 0 -48 -14t-16 -37q0 -25 18 -40.5t46 -15.5t46 15.5
t18 40.5q0 23 -16 37t-48 14zM156 186q-25 0 -40 -12.5t-15 -35.5q0 -21 13.5 -35t41.5 -14q27 0 40.5 14t13.5 35q0 23 -14.5 35.5t-39.5 12.5z" />
    <glyph glyph-name="nineinferior" unicode="&#x2089;" horiz-adv-x="309" 
d="M137 -55q75 0 80 106q-34 -40 -81 -40q-49 0 -76 27.5t-27 77.5q0 52 31.5 84t80.5 32q61 0 94.5 -45.5t33.5 -123.5q0 -76 -34 -122t-95 -46q-56 0 -99 27l16 48q34 -25 76 -25zM144 55q39 0 71 39q-10 86 -70 86q-25 0 -41 -18.5t-16 -45.5q0 -30 15.5 -45.5
t40.5 -15.5z" />
    <glyph glyph-name="Euro" unicode="&#x20ac;" horiz-adv-x="545" 
d="M389 366h-200v-24q0 -27 1 -40h178l-20 -61h-151q13 -79 49 -119.5t91 -40.5q68 0 122 43l36 -77q-77 -57 -169 -57q-90 0 -150.5 65.5t-78.5 185.5h-48v61h42q-1 13 -1 40v24h-41v61h46q16 127 77 195t156 68q105 0 170 -65l-34 -78q-50 53 -126 53q-58 0 -95 -43
t-49 -130h218z" />
    <glyph glyph-name="afii61289" unicode="&#x2113;" horiz-adv-x="401" 
d="M64 125l-30 51l71 49v266q0 96 39 147t109 51q116 0 116 -137q0 -104 -50 -197t-119 -152v-51q0 -43 16.5 -61t50.5 -18q35 0 66 21l-4 -89q-35 -15 -93 -15q-65 0 -98 31t-33 100v33zM200 504v-224q107 103 107 278q0 68 -46 68q-28 0 -44.5 -30.5t-16.5 -91.5z" />
    <glyph glyph-name="uni2117" unicode="&#x2117;" horiz-adv-x="801" 
d="M50 339q0 151 100 251t249 100q151 0 251 -100t100 -251q0 -149 -100 -249t-251 -100q-149 0 -249 100t-100 249zM108 339q0 -126 83 -209.5t208 -83.5q127 0 210 83.5t83 209.5q0 127 -83 211t-210 84q-125 0 -208 -84t-83 -211zM293 169v340h158q53 0 87.5 -31.5
t34.5 -91.5q0 -55 -35.5 -88t-86.5 -33h-84v-96h-74zM442 447h-75v-120h75q25 0 42 16t17 44t-17 44t-42 16z" />
    <glyph glyph-name="trademark" unicode="&#x2122;" horiz-adv-x="723" 
d="M592 357v209l-87 -124h-12l-86 124v-209h-54v306h48l98 -141l99 141h48v-306h-54zM288 607h-84v-250h-53v250h-85v56h222v-56z" />
    <glyph glyph-name="Omega" unicode="&#x2126;" horiz-adv-x="707" 
d="M399 0v80q69 27 113.5 101.5t44.5 168.5q0 113 -56 180.5t-148 67.5q-91 0 -147 -67.5t-56 -180.5q0 -97 43 -170t113 -100v-80h-234v78h117q-61 35 -97 114t-36 175q0 143 83.5 233t213.5 90q131 0 214.5 -90t83.5 -233q0 -94 -37 -173.5t-96 -115.5h116v-78h-235z" />
    <glyph glyph-name="estimated" unicode="&#x212e;" horiz-adv-x="657" 
d="M334 601q71 0 126 -25.5t87.5 -69.5t49 -98t16.5 -114v-26h-431v-169q58 -58 152 -58q130 0 184 104h66q-30 -73 -93 -115t-157 -42q-93 0 -157.5 45t-92.5 112.5t-28 148.5q0 82 28 149.5t92.5 112.5t157.5 45zM334 548q-96 0 -152 -58v-170h305v170q-56 58 -153 58z
" />
    <glyph glyph-name="onethird" unicode="&#x2153;" horiz-adv-x="709" 
d="M143 8l313 672h57v-8l-313 -672h-57v8zM28 611l123 73h40v-327h-55v262l-86 -51zM486 190h67q23 0 36 13t13 32q0 46 -58 46q-42 0 -80 -21l-12 49q45 21 98 21q51 0 79.5 -23t28.5 -66q0 -55 -48 -72q58 -15 58 -82q0 -43 -31 -68.5t-87 -25.5q-43 0 -99 21l14 48
q38 -19 81 -19q29 0 47 14.5t18 38.5q0 45 -58 45h-67v49z" />
    <glyph glyph-name="twothirds" unicode="&#x2154;" horiz-adv-x="769" 
d="M206 8l313 672h57v-8l-313 -672h-57v8zM550 190h67q23 0 36 13t13 32q0 46 -58 46q-42 0 -80 -21l-12 49q45 21 98 21q51 0 79.5 -23t28.5 -66q0 -55 -48 -72q58 -15 58 -82q0 -43 -31 -68.5t-87 -25.5q-43 0 -99 21l14 48q38 -19 81 -19q29 0 47 14.5t18 38.5
q0 45 -58 45h-67v49zM49 358v43l110 99q43 37 43 79q0 25 -13.5 41.5t-38.5 16.5q-28 0 -42.5 -19.5t-14.5 -52.5l-51 9q1 53 30 84.5t80 31.5q52 0 79 -29.5t27 -76.5q0 -63 -59 -114l-71 -62h137v-50h-216z" />
    <glyph glyph-name="oneeighth" unicode="&#x215b;" horiz-adv-x="708" 
d="M143 8l313 672h57v-8l-313 -672h-57v8zM547 -5q-57 0 -88.5 25.5t-31.5 68.5q0 68 65 82q-25 5 -40 25.5t-15 46.5q0 43 28.5 66t81.5 23t81.5 -23t28.5 -66q0 -26 -15.5 -46.5t-39.5 -25.5q64 -14 64 -82q0 -43 -31.5 -68.5t-87.5 -25.5zM547 149q-32 0 -48 -14t-16 -37
q0 -25 18 -40.5t46 -15.5t46 15.5t18 40.5q0 23 -16 37t-48 14zM547 286q-25 0 -40 -12.5t-15 -35.5q0 -21 13.5 -35t41.5 -14q27 0 40.5 14t13.5 35q0 23 -14.5 35.5t-39.5 12.5zM28 611l123 73h40v-327h-55v262l-86 -51z" />
    <glyph glyph-name="threeeighths" unicode="&#x215c;" horiz-adv-x="756" 
d="M195 8l313 672h57v-8l-313 -672h-57v8zM599 -5q-57 0 -88.5 25.5t-31.5 68.5q0 68 65 82q-25 5 -40 25.5t-15 46.5q0 43 28.5 66t81.5 23t81.5 -23t28.5 -66q0 -26 -15.5 -46.5t-39.5 -25.5q64 -14 64 -82q0 -43 -31.5 -68.5t-87.5 -25.5zM599 149q-32 0 -48 -14t-16 -37
q0 -25 18 -40.5t46 -15.5t46 15.5t18 40.5q0 23 -16 37t-48 14zM599 286q-25 0 -40 -12.5t-15 -35.5q0 -21 13.5 -35t41.5 -14q27 0 40.5 14t13.5 35q0 23 -14.5 35.5t-39.5 12.5zM76 550h68q23 0 35.5 13t12.5 32q0 45 -57 45q-43 0 -80 -20l-12 49q45 21 97 21t80.5 -23.5
t28.5 -66.5q0 -54 -48 -71q58 -15 58 -82q0 -44 -31 -69t-88 -25q-48 0 -98 20l14 48q38 -19 81 -19q29 0 46.5 14.5t17.5 39.5q0 45 -57 45h-68v49z" />
    <glyph glyph-name="fiveeighths" unicode="&#x215d;" horiz-adv-x="754" 
d="M193 8l313 672h57v-8l-313 -672h-57v8zM597 -5q-57 0 -88.5 25.5t-31.5 68.5q0 68 65 82q-25 5 -40 25.5t-15 46.5q0 43 28.5 66t81.5 23t81.5 -23t28.5 -66q0 -26 -15.5 -46.5t-39.5 -25.5q64 -14 64 -82q0 -43 -31.5 -68.5t-87.5 -25.5zM597 149q-32 0 -48 -14t-16 -37
q0 -25 18 -40.5t46 -15.5t46 15.5t18 40.5q0 23 -16 37t-48 14zM597 286q-25 0 -40 -12.5t-15 -35.5q0 -21 13.5 -35t41.5 -14q27 0 40.5 14t13.5 35q0 23 -14.5 35.5t-39.5 12.5zM57 513l-2 2l12 169h181v-50h-134l-6 -77h33q117 0 117 -93q0 -56 -33 -84t-88 -28
q-52 0 -98 23l14 47q43 -20 81 -20q29 0 48 15t19 45q0 51 -63 51h-81z" />
    <glyph glyph-name="seveneighths" unicode="&#x215e;" horiz-adv-x="704" 
d="M143 8l313 672h57v-8l-313 -672h-57v8zM547 -5q-57 0 -88.5 25.5t-31.5 68.5q0 68 65 82q-25 5 -40 25.5t-15 46.5q0 43 28.5 66t81.5 23t81.5 -23t28.5 -66q0 -26 -15.5 -46.5t-39.5 -25.5q64 -14 64 -82q0 -43 -31.5 -68.5t-87.5 -25.5zM547 149q-32 0 -48 -14t-16 -37
q0 -25 18 -40.5t46 -15.5t46 15.5t18 40.5q0 23 -16 37t-48 14zM547 286q-25 0 -40 -12.5t-15 -35.5q0 -21 13.5 -35t41.5 -14q27 0 40.5 14t13.5 35q0 23 -14.5 35.5t-39.5 12.5zM66 362l114 272h-148v50h210v-40l-116 -287h-60v5z" />
    <glyph glyph-name="arrowleft" unicode="&#x2190;" horiz-adv-x="721" 
d="M201 336h448v-74h-447l168 -162l-48 -51l-251 251l250 247l50 -52z" />
    <glyph glyph-name="arrowup" unicode="&#x2191;" horiz-adv-x="721" 
d="M397 456v-447h-73v447l-163 -169l-50 49l250 250l247 -249l-52 -50z" />
    <glyph glyph-name="arrowright" unicode="&#x2192;" horiz-adv-x="721" 
d="M519 261h-448v73h448l-169 163l49 50l250 -251l-249 -247l-51 53z" />
    <glyph glyph-name="arrowdown" unicode="&#x2193;" horiz-adv-x="721" 
d="M322 138v448h74v-446l162 168l50 -48l-250 -251l-247 250l52 49z" />
    <glyph glyph-name="uni2196" unicode="&#x2196;" horiz-adv-x="721" 
d="M274 437l317 -317l-52 -52l-316 316l5 -233l-71 -2v355l351 -2l-1 -72z" />
    <glyph glyph-name="uni2197" unicode="&#x2197;" horiz-adv-x="721" 
d="M499 384l-317 -317l-52 51l316 317l-234 -4q0 11 -0.5 34.5t-0.5 35.5h354l-2 -351q-12 0 -35.5 0.5t-35.5 0.5z" />
    <glyph glyph-name="uni2198" unicode="&#x2198;" horiz-adv-x="721" 
d="M447 159l-317 317l51 52l316 -316l-4 234l70 1l1 -354l-352 1l2 73z" />
    <glyph glyph-name="uni2199" unicode="&#x2199;" horiz-adv-x="721" 
d="M220 212l318 316l52 -51l-317 -317l234 5l2 -70l-355 -1l2 352l72 -2z" />
    <glyph glyph-name="partialdiff" unicode="&#x2202;" horiz-adv-x="526" 
d="M217 453q89 0 157 -91q-5 111 -59.5 188t-125.5 107l39 63q99 -27 172 -130t73 -249q0 -165 -61.5 -258t-173.5 -93q-89 0 -145.5 66.5t-56.5 174.5q0 101 48 161.5t133 60.5zM241 80q55 0 88.5 50.5t42.5 144.5q-57 97 -129 97q-50 0 -80.5 -36.5t-30.5 -105.5
q0 -66 30.5 -108t78.5 -42z" />
    <glyph glyph-name="Delta" unicode="&#x2206;" horiz-adv-x="632" 
d="M27 0l237 680h112l228 -680h-577zM319 582l-169 -507h331z" />
    <glyph glyph-name="product" unicode="&#x220f;" horiz-adv-x="614" 
d="M175 -188h-91v868h446v-868h-92v781h-263v-781z" />
    <glyph glyph-name="summation" unicode="&#x2211;" horiz-adv-x="466" 
d="M50 0v55l164 286l-166 286v53h367v-79h-249l145 -261l-144 -262h248v-78h-365z" />
    <glyph glyph-name="minus" unicode="&#x2212;" horiz-adv-x="541" 
d="M71 342h399v-79h-399v79z" />
    <glyph glyph-name="uni2215" unicode="&#x2215;" horiz-adv-x="385" 
d="M8 8l313 672h57v-8l-313 -672h-57v8z" />
    <glyph glyph-name="uni2219" unicode="&#x2219;" horiz-adv-x="254" 
d="M63 297q0 32 16.5 50t46.5 18q31 0 48 -18t17 -50q0 -33 -17 -50.5t-48 -17.5q-63 0 -63 68z" />
    <glyph glyph-name="radical" unicode="&#x221a;" horiz-adv-x="547" 
d="M172 454l143 -345l155 593l55 -19l-187 -683h-64l-144 346l-79 -49l-33 66z" />
    <glyph glyph-name="infinity" unicode="&#x221e;" horiz-adv-x="801" 
d="M129 299q0 -45 26 -70t67 -25q44 0 88 49l43 46l-43 47q-44 49 -88 49q-41 0 -67 -25t-26 -71zM401 252l-45 -47q-70 -72 -145 -72q-66 0 -111 45.5t-45 120.5q0 76 44.5 121.5t111.5 45.5q76 0 145 -72l45 -47l45 47q70 72 144 72q67 0 111.5 -45.5t44.5 -121.5
q0 -75 -45 -120.5t-111 -45.5q-75 0 -145 72zM672 299q0 46 -26 71t-67 25q-43 0 -87 -49l-43 -47l43 -46q43 -49 87 -49q41 0 67 25t26 70z" />
    <glyph glyph-name="integral" unicode="&#x222b;" horiz-adv-x="404" 
d="M154 -35v591q0 77 33 120.5t99 43.5q28 0 58.5 -12t47.5 -27l-16 -82q-31 33 -67 33q-58 0 -58 -73v-591q0 -77 -33.5 -121.5t-99.5 -44.5q-28 0 -58.5 12.5t-47.5 26.5l16 82q31 -33 67 -33q59 0 59 75z" />
    <glyph glyph-name="approxequal" unicode="&#x2248;" horiz-adv-x="549" 
d="M454 484l25 -61q-37 -60 -103 -60q-35 0 -103.5 30t-96.5 30q-55 0 -83 -42l-23 63q35 59 102 59q37 0 107 -30.5t93 -30.5q51 0 82 42zM453 212l26 -61q-38 -61 -104 -61q-35 0 -103.5 30t-96.5 30q-56 0 -82 -42l-23 64q33 58 101 58q37 0 107 -30t93 -30q53 0 82 42z
" />
    <glyph glyph-name="notequal" unicode="&#x2260;" horiz-adv-x="534" 
d="M147 41l25 82h-106v78h131l63 203h-194v78h219l35 113l58 -22l-29 -91h116v-78h-140l-64 -203h204v-78h-228l-32 -103z" />
    <glyph glyph-name="lessequal" unicode="&#x2264;" horiz-adv-x="552" 
d="M72 148h399v-79h-399v79zM72 375v77l392 172h8v-73l-310 -136l310 -135v-74h-8z" />
    <glyph glyph-name="greaterequal" unicode="&#x2265;" horiz-adv-x="552" 
d="M80 148h400v-79h-400v79zM480 452v-77l-393 -169h-7v74l310 135l-310 136v73h7z" />
    <glyph glyph-name="lozenge" unicode="&#x25ca;" horiz-adv-x="498" 
d="M460 331l-180 -331h-63l-178 331l178 349h63zM377 330l-128 263l-128 -263l128 -247z" />
    <glyph glyph-name="commaaccent" unicode="&#xf6c3;" horiz-adv-x="510" 
d="M224 -242l20 68q-46 6 -46 52q0 27 15 42t39 15q31 0 47.5 -17t16.5 -47q0 -62 -45 -131z" />
    <glyph glyph-name="uniF8FF" unicode="&#xf8ff;" horiz-adv-x="673" 
d="M81 720h512v-720h-512v720zM297 283h48q0 32 21.5 57.5t46.5 40.5t46.5 41t21.5 58q0 51 -36.5 85t-101.5 34q-39 0 -67 -14.5t-41.5 -37t-19 -43.5t-5.5 -41h47q0 40 21 66.5t65 26.5q41 0 64 -21.5t23 -54.5q0 -23 -21 -45t-45.5 -38t-45.5 -46t-21 -68zM286 194v-71
h68v71h-68z" />
    <glyph glyph-name="fi" unicode="&#xfb01;" horiz-adv-x="638" 
d="M38 416v78h85v56q0 170 150 170q65 0 112 -36l-24 -83q-37 32 -73 32q-69 0 -69 -79v-60h147v-78h-147v-416h-96v416h-85zM454 672q0 54 60 54q58 0 58 -54q0 -55 -58 -55q-60 0 -60 55zM561 0h-96v523h96v-523z" />
    <glyph glyph-name="fl" unicode="&#xfb02;" horiz-adv-x="675" 
d="M38 416v78h85v56q0 170 150 170q65 0 112 -36l-24 -83q-37 32 -73 32q-69 0 -69 -79v-60h147v-78h-147v-416h-96v416h-85zM463 710h97v-578q0 -32 10.5 -45t31.5 -13q27 0 54 18l6 -77q-44 -25 -94 -25q-53 0 -79 27.5t-26 90.5v602z" />
    <glyph glyph-name="commaaccent.alt" horiz-adv-x="510" 
d="M284 760l-19 -68q22 -3 34 -17t12 -35q0 -27 -15.5 -42t-39.5 -15q-30 0 -46.5 17t-16.5 47q0 68 44 131z" />
    <glyph glyph-name="zero.tf" horiz-adv-x="520" 
d="M37 339q0 165 54 258t168 93q115 0 169.5 -93t54.5 -258q0 -163 -54.5 -256t-169.5 -93q-114 0 -168 93t-54 256zM131 339q0 -127 30 -192t98 -65q69 0 99.5 64.5t30.5 192.5q0 129 -30.5 195t-99.5 66q-68 0 -98 -66t-30 -195z" />
    <glyph glyph-name="one.tf" horiz-adv-x="520" 
d="M487 0h-423v86h184v486l-156 -90l-33 79l213 119h72v-594h143v-86z" />
    <glyph glyph-name="two.tf" horiz-adv-x="520" 
d="M58 0v75l209 216q48 49 70 90.5t22 92.5q0 57 -28.5 91.5t-83.5 34.5q-114 0 -116 -152l-87 12q2 107 56.5 168.5t152.5 61.5q100 0 153 -59t53 -153q0 -63 -31 -118.5t-93 -119.5l-151 -154h289v-86h-415z" />
    <glyph glyph-name="three.tf" horiz-adv-x="520" 
d="M115 388h134q48 0 75 32t27 77q0 51 -35 80t-90 29q-43 0 -85.5 -14.5t-67.5 -30.5l-23 82q31 17 81.5 32t100.5 15q104 0 160 -47.5t56 -134.5q0 -56 -27.5 -99t-74.5 -54q57 -13 89 -56t32 -110q0 -94 -61.5 -146.5t-173.5 -52.5q-85 0 -182 45l24 82q77 -43 157 -43
q61 0 99 33.5t38 91.5q0 54 -30.5 84t-88.5 30h-134v75z" />
    <glyph glyph-name="four.tf" horiz-adv-x="520" 
d="M481 141h-68v-141h-96v141h-293v66l261 473h128v-465h68v-74zM98 215h222l4 376z" />
    <glyph glyph-name="five.tf" horiz-adv-x="520" 
d="M78 335l-4 5l24 340h353v-86h-271l-12 -185h73q228 0 228 -190q0 -115 -64.5 -172t-170.5 -57q-98 0 -192 47l26 83q78 -46 160 -46q62 0 102.5 35t40.5 107q0 119 -141 119h-152z" />
    <glyph glyph-name="six.tf" horiz-adv-x="520" 
d="M289 606q-69 0 -106.5 -63.5t-41.5 -180.5q67 91 159 91q84 0 132 -59.5t48 -162.5q0 -110 -57 -175.5t-146 -65.5q-112 0 -173 93t-61 258q0 160 62 254.5t174 94.5q55 0 104 -18t74 -40l-28 -79q-60 53 -140 53zM272 372q-70 0 -128 -101q17 -191 129 -191
q49 0 80 42.5t31 108.5q0 70 -30.5 105.5t-81.5 35.5z" />
    <glyph glyph-name="seven.tf" horiz-adv-x="520" 
d="M127 9l238 585h-310v86h418v-71l-240 -609h-106v9z" />
    <glyph glyph-name="eight.tf" horiz-adv-x="520" 
d="M260 -10q-105 0 -163 52t-58 143q0 135 124 170q-47 12 -76.5 55t-29.5 98q0 88 52.5 135t150.5 47t150.5 -47t52.5 -135q0 -55 -29.5 -98t-76.5 -55q124 -36 124 -170q0 -91 -58 -143t-163 -52zM261 318q-125 0 -125 -119q0 -62 34.5 -95.5t89.5 -33.5t89.5 33.5
t34.5 95.5q0 119 -123 119zM260 611q-50 0 -80 -28.5t-30 -83.5q0 -49 27 -80t84 -31q55 0 82 31t27 80q0 55 -30 83.5t-80 28.5z" />
    <glyph glyph-name="nine.tf" horiz-adv-x="520" 
d="M230 74q68 0 105 61t42 174q-64 -82 -159 -82q-83 0 -131 59.5t-48 162.5q0 110 57 175.5t146 65.5q112 0 173 -93t61 -258q0 -160 -62 -254.5t-174 -94.5q-55 0 -104 18t-74 40l28 79q60 -53 140 -53zM247 308q71 0 129 92q-16 200 -130 200q-49 0 -80 -42.5t-31 -108.5
q0 -70 30.5 -105.5t81.5 -35.5z" />
    <glyph glyph-name="Euro.tf" horiz-adv-x="520" 
d="M377 366h-200v-24q0 -27 1 -40h178l-20 -61h-151q13 -79 49 -119.5t91 -40.5q68 0 122 43l36 -77q-77 -57 -169 -57q-90 0 -150.5 65.5t-78.5 185.5h-48v61h42q-1 13 -1 40v24h-41v61h46q16 127 77 195t156 68q105 0 170 -65l-34 -78q-50 53 -126 53q-58 0 -95 -43
t-49 -130h218z" />
    <glyph glyph-name="cent.tf" horiz-adv-x="520" 
d="M404 626l-25 -107q42 -17 82 -57l-45 -74q-30 32 -58 44l-84 -356h16q72 0 126 59l45 -74q-73 -75 -173 -75q-18 0 -35 3l-29 -125l-57 16l29 123q-70 28 -110 95.5t-40 163.5q0 126 67.5 200.5t174.5 74.5q13 0 33 -2l26 108zM144 262q0 -122 74 -167l83 351q-5 1 -13 1
q-65 0 -104.5 -49t-39.5 -136z" />
    <glyph glyph-name="sterling.tf" horiz-adv-x="520" 
d="M392 316h-167q17 -107 12 -166q8 -6 30.5 -27t42 -35t35.5 -14q35 0 49 36t12 108h82q13 -228 -120 -228q-27 0 -54 16.5t-58 45t-39 34.5q-17 -47 -41 -71.5t-65 -24.5q-40 0 -62.5 27.5t-22.5 72.5q0 43 24.5 70.5t63.5 27.5q24 0 42 -11q1 42 -20 139h-82v62h69
q-11 66 -11 116q0 87 45 141.5t132 54.5q53 0 99.5 -22.5t72.5 -49.5l-30 -84q-59 66 -126 66q-47 0 -71.5 -35t-24.5 -93q0 -38 7 -94h176v-62zM121 131q-18 0 -29.5 -12t-11.5 -33q0 -40 29 -40q35 0 43 73q-14 12 -31 12z" />
    <glyph glyph-name="florin.tf" horiz-adv-x="520" 
d="M431 316h-123v-348q0 -78 -33.5 -122t-99.5 -44q-28 0 -58.5 12.5t-47.5 26.5l17 82q29 -33 66 -33q59 0 59 75v351h-118v62h118v178q0 77 33.5 120.5t98.5 43.5q28 0 58.5 -12t48.5 -27l-17 -82q-31 33 -67 33q-58 0 -58 -73v-181h123v-62z" />
    <glyph glyph-name="yen.tf" horiz-adv-x="520" 
d="M442 139h-135v-139h-98v139h-134v61h134v65h-134v62h112l-154 345v8h100l125 -320l129 320h100v-8l-159 -345h114v-62h-135v-65h135v-61z" />
    <glyph glyph-name="dollar.tf" horiz-adv-x="520" 
d="M227 -129v120q-52 3 -101 19t-79 35l23 92q71 -52 157 -57v227l-57 18q-132 39 -132 167q0 74 49.5 128.5t139.5 65.5v83h60v-80q104 -4 184 -50l-29 -88q-64 44 -155 47v-215l38 -12q79 -25 117 -66t38 -108q0 -83 -52 -138.5t-141 -65.5v-122h-60zM379 191
q0 37 -22.5 59.5t-69.5 37.5v-204q42 9 67 36.5t25 70.5zM135 498q0 -69 78 -92l14 -5v193q-92 -18 -92 -96z" />
    <glyph glyph-name="zero.denom" horiz-adv-x="319" 
d="M37 163q0 79 31 124t92 45t92 -45t31 -124q0 -78 -31 -123t-92 -45t-92 45t-31 123zM91 163q0 -114 69 -114t69 114q0 117 -69 117t-69 -117z" />
    <glyph glyph-name="one.denom" horiz-adv-x="232" 
d="M16 253l122 74h42v-327h-56v262l-86 -52z" />
    <glyph glyph-name="two.denom" horiz-adv-x="293" 
d="M41 0v44l111 98q42 38 42 79q0 26 -13.5 42.5t-38.5 16.5q-28 0 -42.5 -20t-14.5 -53l-51 9q2 53 30.5 84.5t79.5 31.5q52 0 79 -29.5t27 -76.5q0 -64 -59 -114l-71 -62h138v-50h-217z" />
    <glyph glyph-name="three.denom" horiz-adv-x="287" 
d="M69 192h67q23 0 36 13t13 32q0 46 -58 46q-42 0 -80 -21l-12 49q45 21 98 21q51 0 79.5 -23t28.5 -66q0 -55 -48 -72q58 -15 58 -82q0 -43 -31 -68.5t-87 -25.5q-43 0 -99 21l14 48q38 -19 81 -19q29 0 47 14.5t18 38.5q0 45 -58 45h-67v49z" />
    <glyph glyph-name="four.denom" horiz-adv-x="313" 
d="M287 64h-51v-64h-56v64h-157v39l140 224h73v-219h51v-44zM80 108h100v162z" />
    <glyph glyph-name="five.denom" horiz-adv-x="284" 
d="M48 156l-2 2l12 169h181v-50h-134l-5 -77h33q117 0 117 -94q0 -55 -33.5 -83t-88.5 -28q-51 0 -98 22l15 48q40 -20 80 -20q67 0 67 60q0 51 -63 51h-81z" />
    <glyph glyph-name="six.denom" horiz-adv-x="309" 
d="M172 283q-78 0 -81 -107q33 40 81 40q50 0 77 -27.5t27 -77.5q0 -52 -31 -84t-80 -32q-62 0 -95.5 46t-33.5 123t34 122.5t96 45.5q56 0 98 -27l-16 -47q-34 25 -76 25zM164 172q-38 0 -71 -40q10 -84 72 -84q24 0 39.5 18t15.5 45q0 61 -56 61z" />
    <glyph glyph-name="seven.denom" horiz-adv-x="253" 
d="M58 5l114 272h-148v50h210v-40l-116 -287h-60v5z" />
    <glyph glyph-name="eight.denom" horiz-adv-x="312" 
d="M156 -5q-57 0 -88.5 25.5t-31.5 68.5q0 68 65 82q-25 5 -40 25.5t-15 46.5q0 43 28.5 66t81.5 23t81.5 -23t28.5 -66q0 -26 -15.5 -46.5t-39.5 -25.5q64 -14 64 -82q0 -43 -31.5 -68.5t-87.5 -25.5zM156 149q-32 0 -48 -14t-16 -37q0 -25 18 -40.5t46 -15.5t46 15.5
t18 40.5q0 23 -16 37t-48 14zM156 286q-25 0 -40 -12.5t-15 -35.5q0 -21 13.5 -35t41.5 -14q27 0 40.5 14t13.5 35q0 23 -14.5 35.5t-39.5 12.5z" />
    <glyph glyph-name="nine.denom" horiz-adv-x="309" 
d="M137 45q75 0 80 106q-34 -40 -81 -40q-49 0 -76 27.5t-27 77.5q0 52 31.5 84t80.5 32q61 0 94.5 -45.5t33.5 -123.5q0 -76 -34 -122t-95 -46q-56 0 -99 27l16 48q34 -25 76 -25zM144 155q39 0 71 39q-10 86 -70 86q-25 0 -41 -18.5t-16 -45.5q0 -30 15.5 -45.5
t40.5 -15.5z" />
    <glyph glyph-name="zero.num" horiz-adv-x="319" 
d="M37 516q0 78 31.5 123.5t91.5 45.5q61 0 92 -45.5t31 -123.5t-31 -123t-92 -45q-60 0 -91.5 45t-31.5 123zM91 516q0 -116 69 -116t69 116t-69 116t-69 -116z" />
    <glyph glyph-name="one.num" horiz-adv-x="232" 
d="M16 607l123 73h40v-327h-55v262l-86 -51z" />
    <glyph glyph-name="two.num" horiz-adv-x="293" 
d="M41 353v43l110 99q43 37 43 79q0 25 -13.5 41.5t-38.5 16.5q-28 0 -42.5 -19.5t-14.5 -52.5l-51 9q1 53 30 84.5t80 31.5q52 0 79 -29.5t27 -76.5q0 -63 -59 -114l-71 -62h137v-50h-216z" />
    <glyph glyph-name="three.num" horiz-adv-x="287" 
d="M68 545h68q23 0 35.5 13t12.5 32q0 45 -57 45q-43 0 -80 -20l-12 49q45 21 97 21t80.5 -23.5t28.5 -66.5q0 -54 -48 -71q58 -14 58 -82q0 -44 -31 -69t-88 -25q-48 0 -98 20l14 48q38 -19 81 -19q29 0 46.5 14.5t17.5 39.5q0 45 -57 45h-68v49z" />
    <glyph glyph-name="four.num" horiz-adv-x="313" 
d="M287 418h-51v-65h-56v65h-157v38l140 224h73v-219h51v-43zM80 461h100v162z" />
    <glyph glyph-name="five.num" horiz-adv-x="285" 
d="M49 509l-2 2l12 169h181v-50h-134l-6 -77h33q117 0 117 -93q0 -56 -33 -84t-88 -28q-52 0 -98 23l14 47q43 -20 81 -20q29 0 48 15t19 45q0 51 -63 51h-81z" />
    <glyph glyph-name="six.num" horiz-adv-x="309" 
d="M172 635q-78 0 -81 -106q33 40 81 40q50 0 77 -27.5t27 -77.5q0 -53 -31 -84.5t-80 -31.5q-62 0 -95.5 45.5t-33.5 123.5q0 77 34 122.5t96 45.5q52 0 98 -27l-16 -48q-34 25 -76 25zM164 525q-38 0 -71 -40q10 -85 72 -85q24 0 39.5 18.5t15.5 45.5q0 61 -56 61z" />
    <glyph glyph-name="seven.num" horiz-adv-x="255" 
d="M59 358l114 272h-148v50h210v-40l-116 -287h-60v5z" />
    <glyph glyph-name="eight.num" horiz-adv-x="312" 
d="M156 348q-57 0 -88.5 25t-31.5 69q0 68 65 82q-25 5 -40 25.5t-15 45.5q0 44 28.5 67t81.5 23t81.5 -23.5t28.5 -66.5q0 -25 -15.5 -45.5t-39.5 -25.5q64 -14 64 -82q0 -44 -31 -69t-88 -25zM156 502q-31 0 -47.5 -14.5t-16.5 -36.5q0 -25 18 -41t46 -16q29 0 46.5 16
t17.5 41q0 22 -16.5 36.5t-47.5 14.5zM156 638q-25 0 -40 -12.5t-15 -35.5q0 -20 13.5 -34t41.5 -14q27 0 40.5 14t13.5 34q0 23 -14.5 35.5t-39.5 12.5z" />
    <glyph glyph-name="nine.num" horiz-adv-x="309" 
d="M137 397q78 0 81 108q-34 -41 -82 -41q-49 0 -76 27t-27 77q0 52 31.5 84.5t80.5 32.5q61 0 94.5 -46t33.5 -123q0 -76 -34 -122t-95 -46t-98 27l16 47q34 -25 75 -25zM145 508q39 0 71 39q-12 85 -71 85q-25 0 -41 -18.5t-16 -45.5q0 -30 15.5 -45t41.5 -15z" />
    <glyph glyph-name="parenleft.case" horiz-adv-x="270" 
d="M133 341q0 -138 31.5 -247t71.5 -173l-56 -34q-47 55 -89.5 175.5t-42.5 279.5t42.5 279t89.5 175l56 -34q-40 -65 -71.5 -173.5t-31.5 -247.5z" />
    <glyph glyph-name="parenright.case" horiz-adv-x="270" 
d="M136 341q0 139 -31 247.5t-71 173.5l55 34q48 -55 90.5 -175t42.5 -279t-42.5 -279.5t-90.5 -175.5l-55 34q39 63 70.5 172.5t31.5 247.5z" />
    <glyph glyph-name="hyphen.case" horiz-adv-x="466" 
d="M67 382h332v-79h-332v79z" />
    <glyph glyph-name="bracketleft.case" horiz-adv-x="304" 
d="M266 -108h-188v898h188v-79h-110v-740h110v-79z" />
    <glyph glyph-name="bracketright.case" horiz-adv-x="303" 
d="M38 790h187v-898h-187v79h110v740h-110v79z" />
    <glyph glyph-name="braceleft.case" horiz-adv-x="289" 
d="M219 -44h23v-71h-39q-63 0 -93.5 32t-30.5 87q0 36 24 114.5t24 120.5q0 36 -20.5 52.5t-66.5 16.5v61q87 0 87 73q0 42 -24 120t-24 113q0 52 31 83.5t93 31.5h39v-71h-23q-32 0 -48 -18t-16 -46t24 -106t24 -119q0 -76 -68 -92q68 -16 68 -93q0 -41 -24 -118.5
t-24 -105.5q0 -29 16 -47t48 -18z" />
    <glyph glyph-name="bar.case" horiz-adv-x="232" 
d="M78 -108v898h76v-898h-76z" />
    <glyph glyph-name="braceright.case" horiz-adv-x="289" 
d="M86 -115h-40v71h25q31 0 47 18t16 47q0 28 -24 105.5t-24 118.5q0 78 69 93q-69 15 -69 92q0 41 24 119t24 106t-16 46t-47 18h-25v71h40q62 0 93 -31.5t31 -83.5q0 -35 -23.5 -113t-23.5 -120q0 -73 86 -73v-61q-46 0 -66 -16.5t-20 -52.5q0 -42 23.5 -120.5
t23.5 -114.5q0 -55 -30.5 -87t-93.5 -32z" />
    <glyph glyph-name="guilsinglleft.case" horiz-adv-x="279" 
d="M47 332v20l137 201h7l35 -23l-98 -188l98 -188l-35 -23h-7z" />
    <glyph glyph-name="guilsinglright.case" horiz-adv-x="279" 
d="M232 352v-20l-136 -201h-8l-35 23l98 188l-98 188l35 23h8z" />
    <glyph glyph-name="guillemotleft.case" horiz-adv-x="468" 
d="M47 332v20l137 201h7l35 -23l-98 -188l98 -188l-35 -23h-7zM236 332v20l137 201h8l35 -23l-97 -188l97 -188l-35 -23h-8z" />
    <glyph glyph-name="guillemotright.case" horiz-adv-x="468" 
d="M232 352v-20l-136 -201h-8l-35 23l98 188l-98 188l35 23h8zM421 352v-20l-135 -201h-8l-35 23l97 188l-98 188l36 23h8z" />
    <glyph glyph-name="endash.case" horiz-adv-x="547" 
d="M67 382h412v-79h-412v79z" />
    <glyph glyph-name="emdash.case" horiz-adv-x="753" 
d="M67 382h618v-79h-618v79z" />
    <glyph glyph-name="bullet.case" horiz-adv-x="352" 
d="M85 342q0 50 23.5 76.5t66.5 26.5q44 0 68 -26.5t24 -76.5t-24 -76.5t-68 -26.5t-67 26.5t-23 76.5z" />
    <glyph glyph-name="periodcentered.case" horiz-adv-x="253" 
d="M63 337q0 32 16.5 50t46.5 18q31 0 48 -18t17 -50q0 -33 -17 -50.5t-48 -17.5q-63 0 -63 68z" />
    <glyph glyph-name="a.alt" 
d="M499 523v-523h-96v55q-55 -65 -141 -65q-96 0 -153.5 72.5t-57.5 199.5t57.5 198.5t153.5 71.5q83 0 141 -62v53h96zM149 260q0 -85 38.5 -134.5t103.5 -49.5q67 0 112 55v259q-19 24 -49 40t-63 16q-66 0 -104 -49.5t-38 -136.5z" />
    <glyph glyph-name="g.alt" horiz-adv-x="568" 
d="M48 299q0 103 54.5 168t155.5 65q36 0 73 -14.5t59 -38.5v44h97v-456q0 -123 -63.5 -194t-150.5 -71q-68 0 -108 36.5t-40 98.5q0 50 24 86.5t71 48.5q-76 10 -124 67t-48 160zM147 299q0 -78 39.5 -114.5t97.5 -36.5h106v246q-17 21 -47.5 36.5t-61.5 15.5
q-63 0 -98.5 -41t-35.5 -106zM390 37v29h-55q-60 0 -98 -26t-38 -78q0 -35 22 -55.5t57 -20.5q48 0 80 43t32 108z" />
    <glyph glyph-name="y.alt" horiz-adv-x="512" 
d="M20 -78q0 61 47.5 101t129.5 45l-169 455h100l136 -417l132 417h98l-178 -527q-36 -108 -74 -151t-100 -43q-57 0 -89.5 33t-32.5 87zM139 -114q28 0 44.5 23t36.5 84l5 15q-129 0 -129 -78q0 -20 11 -32t32 -12z" />
    <glyph glyph-name="agrave.alt" 
d="M262 598l-84 143h96l70 -143h-82zM499 523v-523h-96v55q-55 -65 -141 -65q-96 0 -153.5 72.5t-57.5 199.5t57.5 198.5t153.5 71.5q83 0 141 -62v53h96zM149 260q0 -85 38.5 -134.5t103.5 -49.5q67 0 112 55v259q-19 24 -49 40t-63 16q-66 0 -104 -49.5t-38 -136.5z" />
    <glyph glyph-name="aacute.alt" 
d="M499 523v-523h-96v55q-55 -65 -141 -65q-96 0 -153.5 72.5t-57.5 199.5t57.5 198.5t153.5 71.5q83 0 141 -62v53h96zM149 260q0 -85 38.5 -134.5t103.5 -49.5q67 0 112 55v259q-19 24 -49 40t-63 16q-66 0 -104 -49.5t-38 -136.5zM422 741l-84 -143h-82l70 143h96z" />
    <glyph glyph-name="acircumflex.alt" 
d="M499 523v-523h-96v55q-55 -65 -141 -65q-96 0 -153.5 72.5t-57.5 199.5t57.5 198.5t153.5 71.5q83 0 141 -62v53h96zM149 260q0 -85 38.5 -134.5t103.5 -49.5q67 0 112 55v259q-19 24 -49 40t-63 16q-66 0 -104 -49.5t-38 -136.5zM362 598l-61 92l-62 -92h-75l89 143h96
l89 -143h-76z" />
    <glyph glyph-name="atilde.alt" 
d="M499 523v-523h-96v55q-55 -65 -141 -65q-96 0 -153.5 72.5t-57.5 199.5t57.5 198.5t153.5 71.5q83 0 141 -62v53h96zM149 260q0 -85 38.5 -134.5t103.5 -49.5q67 0 112 55v259q-19 24 -49 40t-63 16q-66 0 -104 -49.5t-38 -136.5zM174 615l-29 41q12 31 36.5 53t52.5 22
q32 0 70 -32t57 -32q39 0 59 47l30 -39q-33 -77 -89 -77q-29 0 -69 32.5t-58 32.5q-35 0 -60 -48z" />
    <glyph glyph-name="adieresis.alt" 
d="M499 523v-523h-96v55q-55 -65 -141 -65q-96 0 -153.5 72.5t-57.5 199.5t57.5 198.5t153.5 71.5q83 0 141 -62v53h96zM149 260q0 -85 38.5 -134.5t103.5 -49.5q67 0 112 55v259q-19 24 -49 40t-63 16q-66 0 -104 -49.5t-38 -136.5zM142 670q0 52 56 52q55 0 55 -52
q0 -26 -15 -39t-40 -13q-56 0 -56 52zM357 670q0 52 57 52q54 0 54 -52t-54 -52q-57 0 -57 52z" />
    <glyph glyph-name="amacron.alt" 
d="M499 523v-523h-96v55q-55 -65 -141 -65q-96 0 -153.5 72.5t-57.5 199.5t57.5 198.5t153.5 71.5q83 0 141 -62v53h96zM149 260q0 -85 38.5 -134.5t103.5 -49.5q67 0 112 55v259q-19 24 -49 40t-63 16q-66 0 -104 -49.5t-38 -136.5zM406 625h-211v69h211v-69z" />
    <glyph glyph-name="abreve.alt" 
d="M499 523v-523h-96v55q-55 -65 -141 -65q-96 0 -153.5 72.5t-57.5 199.5t57.5 198.5t153.5 71.5q83 0 141 -62v53h96zM149 260q0 -85 38.5 -134.5t103.5 -49.5q67 0 112 55v259q-19 24 -49 40t-63 16q-66 0 -104 -49.5t-38 -136.5zM183 682l26 40q34 -51 94 -51
q61 0 94 51l26 -40q-42 -79 -119 -79q-43 0 -74 23t-47 56z" />
    <glyph glyph-name="aring.alt" 
d="M499 523v-523h-96v55q-55 -65 -141 -65q-96 0 -153.5 72.5t-57.5 199.5t57.5 198.5t153.5 71.5q83 0 141 -62v53h96zM149 260q0 -85 38.5 -134.5t103.5 -49.5q67 0 112 55v259q-19 24 -49 40t-63 16q-66 0 -104 -49.5t-38 -136.5zM204 670q0 40 29 69t69 29t69 -29
t29 -69t-29 -69t-69 -29t-69 29t-29 69zM248 670q0 -22 16 -38t38 -16t37.5 16t15.5 38t-15.5 37.5t-37.5 15.5t-38 -15.5t-16 -37.5z" />
    <glyph glyph-name="aringacute.alt" 
d="M383 835l-52 -78h-62l43 78h71zM206 656q0 38 27 60t71 22t71 -22t27 -60q0 -39 -27 -60.5t-71 -21.5q-45 0 -71.5 21t-26.5 61zM250 656q0 -41 54 -41q53 0 53 41q0 40 -53 40q-54 0 -54 -40zM499 523v-523h-96v55q-55 -65 -141 -65q-96 0 -153.5 72.5t-57.5 199.5
t57.5 198.5t153.5 71.5q83 0 141 -62v53h96zM149 260q0 -85 38.5 -134.5t103.5 -49.5q67 0 112 55v259q-19 24 -49 40t-63 16q-66 0 -104 -49.5t-38 -136.5z" />
    <glyph glyph-name="aogonek.alt" 
d="M499 523v-523h-16q-34 -1 -57.5 -21t-23.5 -53q0 -26 14.5 -40.5t36.5 -14.5q25 0 47 14l10 -47q-34 -16 -70 -16q-38 0 -62 24.5t-24 67.5q0 60 51 86h-2v55q-55 -65 -141 -65q-96 0 -153.5 72.5t-57.5 199.5t57.5 198.5t153.5 71.5q83 0 141 -62v53h96zM149 260
q0 -85 38.5 -134.5t103.5 -49.5q67 0 112 55v259q-19 24 -49 40t-63 16q-66 0 -104 -49.5t-38 -136.5z" />
    <glyph glyph-name="gcircumflex.alt" horiz-adv-x="566" 
d="M48 299q0 103 54.5 168t155.5 65q36 0 73 -14.5t59 -38.5v44h97v-456q0 -123 -63.5 -194t-150.5 -71q-68 0 -108 36.5t-40 98.5q0 50 24 86.5t71 48.5q-76 10 -124 67t-48 160zM147 299q0 -78 39.5 -114.5t97.5 -36.5h106v246q-17 21 -47.5 36.5t-61.5 15.5
q-63 0 -98.5 -41t-35.5 -106zM390 37v29h-55q-60 0 -98 -26t-38 -78q0 -35 22 -55.5t57 -20.5q48 0 80 43t32 108zM355 598l-61 92l-62 -92h-75l89 143h96l89 -143h-76z" />
    <glyph glyph-name="gbreve.alt" horiz-adv-x="566" 
d="M175 682l26 40q34 -51 94 -51q61 0 94 51l26 -40q-42 -79 -119 -79q-43 0 -74 23t-47 56zM48 299q0 103 54.5 168t155.5 65q36 0 73 -14.5t59 -38.5v44h97v-456q0 -123 -63.5 -194t-150.5 -71q-68 0 -108 36.5t-40 98.5q0 50 24 86.5t71 48.5q-76 10 -124 67t-48 160z
M147 299q0 -78 39.5 -114.5t97.5 -36.5h106v246q-17 21 -47.5 36.5t-61.5 15.5q-63 0 -98.5 -41t-35.5 -106zM390 37v29h-55q-60 0 -98 -26t-38 -78q0 -35 22 -55.5t57 -20.5q48 0 80 43t32 108z" />
    <glyph glyph-name="gdotaccent.alt" horiz-adv-x="566" 
d="M48 299q0 103 54.5 168t155.5 65q36 0 73 -14.5t59 -38.5v44h97v-456q0 -123 -63.5 -194t-150.5 -71q-68 0 -108 36.5t-40 98.5q0 50 24 86.5t71 48.5q-76 10 -124 67t-48 160zM147 299q0 -78 39.5 -114.5t97.5 -36.5h106v246q-17 21 -47.5 36.5t-61.5 15.5
q-63 0 -98.5 -41t-35.5 -106zM390 37v29h-55q-60 0 -98 -26t-38 -78q0 -35 22 -55.5t57 -20.5q48 0 80 43t32 108zM241 672q0 54 60 54q58 0 58 -54q0 -55 -58 -55q-60 0 -60 55z" />
    <glyph glyph-name="gcommaaccent.alt" horiz-adv-x="566" 
d="M48 299q0 103 54.5 168t155.5 65q36 0 73 -14.5t59 -38.5v44h97v-456q0 -123 -63.5 -194t-150.5 -71q-68 0 -108 36.5t-40 98.5q0 50 24 86.5t71 48.5q-76 10 -124 67t-48 160zM147 299q0 -78 39.5 -114.5t97.5 -36.5h106v246q-17 21 -47.5 36.5t-61.5 15.5
q-63 0 -98.5 -41t-35.5 -106zM390 37v29h-55q-60 0 -98 -26t-38 -78q0 -35 22 -55.5t57 -20.5q48 0 80 43t32 108zM331 772l-19 -68q22 -3 34 -17t12 -35q0 -27 -15.5 -42t-39.5 -15q-30 0 -46.5 17t-16.5 47q0 68 44 131z" />
    <glyph glyph-name="yacute.alt" horiz-adv-x="525" 
d="M390 741l-84 -143h-82l70 143h96zM20 -78q0 61 47.5 101t129.5 45l-169 455h100l136 -417l132 417h98l-178 -527q-36 -108 -74 -151t-100 -43q-57 0 -89.5 33t-32.5 87zM139 -114q28 0 44.5 23t36.5 84l5 15q-129 0 -129 -78q0 -20 11 -32t32 -12z" />
    <glyph glyph-name="ycircumflex.alt" horiz-adv-x="525" 
d="M20 -78q0 61 47.5 101t129.5 45l-169 455h100l136 -417l132 417h98l-178 -527q-36 -108 -74 -151t-100 -43q-57 0 -89.5 33t-32.5 87zM139 -114q28 0 44.5 23t36.5 84l5 15q-129 0 -129 -78q0 -20 11 -32t32 -12zM328 598l-61 92l-62 -92h-75l89 143h96l89 -143h-76z" />
    <glyph glyph-name="ydieresis.alt" horiz-adv-x="525" 
d="M20 -78q0 61 47.5 101t129.5 45l-169 455h100l136 -417l132 417h98l-178 -527q-36 -108 -74 -151t-100 -43q-57 0 -89.5 33t-32.5 87zM139 -114q28 0 44.5 23t36.5 84l5 15q-129 0 -129 -78q0 -20 11 -32t32 -12zM109 670q0 52 56 52q55 0 55 -52q0 -26 -15 -39t-40 -13
q-56 0 -56 52zM324 670q0 52 57 52q54 0 54 -52t-54 -52q-57 0 -57 52z" />
    <glyph glyph-name="ygrave.alt" horiz-adv-x="525" 
d="M238 598l-84 143h96l70 -143h-82zM20 -78q0 61 47.5 101t129.5 45l-169 455h100l136 -417l132 417h98l-178 -527q-36 -108 -74 -151t-100 -43q-57 0 -89.5 33t-32.5 87zM139 -114q28 0 44.5 23t36.5 84l5 15q-129 0 -129 -78q0 -20 11 -32t32 -12z" />
    </font>
</defs>
</svg>
