<?xml version="1.0" standalone="no"?>
<!DOCTYPE svg PUBLIC "-//W3C//DTD SVG 1.1//EN" "http://www.w3.org/Graphics/SVG/1.1/DTD/svg11.dtd" >
<svg xmlns="http://www.w3.org/2000/svg">
<metadata></metadata>
<defs>
<font id="exobold" horiz-adv-x="1126" >
<font-face units-per-em="2048" ascent="1638" descent="-410" />
<missing-glyph horiz-adv-x="512" />
<glyph unicode="&#xfb01;" horiz-adv-x="1284" d="M31 868v185l172 34v82q0 188 121 312q125 129 333 129q90 0 249 -16.5t218 -41.5v-172l-374 13q-150 4 -220 -82q-41 -53 -41 -154v-70l711 -20v-1067h-287v868h-424v-868h-286v868h-172z" />
<glyph unicode="&#xfb02;" horiz-adv-x="1476" d="M31 868v185l172 34v93q0 430 403 430l611 -4v-1174q0 -111 20 -151.5t74 -61.5q123 -43 137 -43v-176h-238q-147 0 -213.5 87t-66.5 300v1004l-268 2q-59 0 -97 -19q-76 -35 -76 -194v-93h246v-219h-248v-868h-286v868h-170z" />
<glyph horiz-adv-x="0" />
<glyph unicode="&#xd;" horiz-adv-x="1554" />
<glyph unicode=" "  horiz-adv-x="512" />
<glyph unicode="&#x09;" horiz-adv-x="512" />
<glyph unicode="&#xa0;" horiz-adv-x="512" />
<glyph unicode="!" horiz-adv-x="559" d="M133 1497h289l-31 -1096h-233zM137 47v184q0 51 49 52h181q20 0 33.5 -14.5t13.5 -37.5v-184q0 -47 -47 -47h-181q-23 0 -36 13.5t-13 33.5z" />
<glyph unicode="&#x22;" horiz-adv-x="909" d="M133 1362v137h277v-137l-21 -275h-233zM502 1362v137h276v-137l-20 -275h-234z" />
<glyph unicode="#" horiz-adv-x="1476" d="M31 430l30 197h312l43 247h-316l33 197h318l75 428h197l-76 -428h254l74 428h196l-73 -428h350l-29 -197h-352l-43 -249h352l-26 -197h-367l-76 -428h-196l75 428l-254 2l-75 -430h-197l76 430h-305zM569 627l258 -2l43 249h-258z" />
<glyph unicode="$" horiz-adv-x="1167" d="M86 995v129q2 375 401 387v177h175v-179q190 -12 366 -57v-223q-293 18 -380 19t-95 1q-92 0 -136 -26.5t-44 -120.5v-74q0 -78 40 -110.5t124 -32.5h190q236 0 317 -187q39 -92 39 -211v-100q0 -238 -133 -328q-113 -76 -276 -75h-12v-168h-175v172q-188 10 -354 57v221 q326 -18 477 -18q186 0 187 129v80q0 70 -30 105.5t-108 35.5h-186q-100 0 -174 29.5t-114 72.5t-64 101q-35 90 -35 194z" />
<glyph unicode="%" horiz-adv-x="1970" d="M66 983v250q0 135 62 200.5t214 65.5h207q145 0 207.5 -65.5t62.5 -200.5v-250q0 -137 -62.5 -202.5t-211.5 -65.5h-207q-147 0 -209.5 65.5t-62.5 202.5zM266 1016q0 -55 20.5 -78t78.5 -23h151q82 0 96 43q6 20 6 58v182q0 59 -21.5 79.5t-76.5 20.5h-151 q-59 0 -81 -20.5t-22 -79.5v-182zM426 0l915 1499h205l-907 -1499h-213zM1153 272v250q0 90 25 148q51 121 249 121h207q145 0 209 -67t64 -202v-250q0 -135 -63.5 -200.5t-213.5 -65.5h-207q-147 0 -208.5 65.5t-61.5 200.5zM1354 307q0 -55 19.5 -77.5t78.5 -22.5h150 q63 0 83.5 22.5t20.5 77.5v182q0 76 -43 93q-20 8 -57 8h-150q-59 0 -80.5 -21.5t-21.5 -79.5v-182z" />
<glyph unicode="&#x26;" horiz-adv-x="1390" d="M53 414q0 193 172 342l142 125l-105 151q-68 96 -67 185q0 113 72.5 189.5t156.5 88.5q94 14 219 14t348 -55v-209h-336q-137 0 -137 -65q0 -47 64 -136l346 -473l248 234l100 -121l-123 -219l-76 -90l279 -375h-336l-146 197l-133 -119q-100 -90 -254 -90q-80 0 -161 30 q-119 43 -196 158t-77 238zM323.5 450.5q0.5 -63.5 37 -109.5t72.5 -65.5t58.5 -19.5h32.5q47 6 88 45l105 100l-207 275l-107 -94q-80 -68 -79.5 -131.5z" />
<glyph unicode="'" horiz-adv-x="458" d="M86 1362v137h289v-137l-21 -275h-245z" />
<glyph unicode="(" horiz-adv-x="772" d="M117 632q0 171 19.5 305t51 238.5t70.5 201t76 163.5q80 143 123 197l18 24h268q-47 -72 -112.5 -205t-109.5 -254.5t-81 -297t-37 -320.5t18.5 -275t48.5 -235.5t66.5 -203t73.5 -169.5q74 -147 115 -204l18 -27h-268q-49 49 -117.5 162.5t-115.5 230.5t-86 307.5 t-39 361.5z" />
<glyph unicode=")" horiz-adv-x="772" d="M31 -430q47 66 111.5 191.5t109.5 246.5t82 302.5t37 315.5t-11.5 231t-32 182t-45 168t-53 154t-56.5 134.5t-54 110.5q-53 100 -76 137l-12 18h268q49 -59 117.5 -181t116 -240.5t86 -302t38.5 -352.5t-19.5 -310.5t-51 -248t-70.5 -200.5t-76 -157q-80 -131 -123 -179 l-18 -20h-268z" />
<glyph unicode="*" horiz-adv-x="874" d="M78 1159v115l284 49l11 -174zM195 852l49 281l170 -43l-111 -273zM340 1475l111 38l137 -249l-162 -68zM389 956l96 146l230 -184l-66 -93zM489 1169l246 162l64 -96l-197 -199z" />
<glyph unicode="+" horiz-adv-x="989" d="M70 608v242h303v305h241v-305h308v-242h-308v-305h-241v305h-303z" />
<glyph unicode="," horiz-adv-x="534" d="M133 51v178q0 55 51 56h172q49 0 50 -56v-252q0 -63 -28 -103t-67 -50q-47 -14 -84 -14t-57 4l-27 6v98q27 0 43 10q20 12 21 43v29h-23q-23 0 -37 13t-14 38z" />
<glyph unicode="-" horiz-adv-x="724" d="M41 473v242h643v-242h-643z" />
<glyph unicode="." horiz-adv-x="538" d="M133 47v184q0 51 49 52h176q51 0 52 -52v-184q0 -47 -52 -47h-176q-23 0 -36 13.5t-13 33.5z" />
<glyph unicode="/" horiz-adv-x="933" d="M31 -147l575 1724h297l-575 -1724h-297z" />
<glyph unicode="0" horiz-adv-x="1290" d="M109 365v757q0 182 101 279.5t275 97.5h336q279 0 344 -225q18 -63 19 -139v-770q0 -178 -95.5 -271.5t-269.5 -93.5h-336q-176 0 -275 92.5t-99 272.5zM395 412q0 -147 154 -148h199q76 0 112.5 33t36.5 113v680q0 145 -139 145h-215q-84 0 -116 -44t-32 -101v-678z" />
<glyph unicode="1" horiz-adv-x="759" d="M61 1143v186l291 170h285v-1499h-287v1214z" />
<glyph unicode="2" horiz-adv-x="1204" d="M61 1253v213q301 53 623 54q227 0 338 -138q106 -131 106 -327q0 -342 -565 -791h565v-264h-1050v252q164 111 312.5 237.5t237.5 217t150.5 185.5t61.5 162.5t-25 112.5q-49 86 -221 86h-533z" />
<glyph unicode="3" horiz-adv-x="1193" d="M47 1239v207q168 59 531 59q68 0 131 -2q170 -4 270 -100t100 -260v-107q0 -233 -155 -291q156 -66 155 -307v-86q0 -178 -98.5 -272t-286.5 -94h-119h-39t-68 1t-76.5 2t-68 4t-73 7t-64.5 10q-61 10 -127 33l2 209h521q117 0 163 24.5t46 114.5v66q0 86 -48.5 117.5 t-148.5 35.5l-408 17v229l408 21q109 6 155 37.5t46 109.5v74q0 55 -30 88t-71 43t-100 10h-547z" />
<glyph unicode="4" horiz-adv-x="1269" d="M31 459l534 1040h316l-449 -901h371v342l65 158h222v-500h151v-221l-151 -49v-324h-287v324h-703z" />
<glyph unicode="5" horiz-adv-x="1220" d="M119 41v225h577q88 0 119 42t31 104v137q0 106 -64 133q-29 12 -73 12h-193q-57 0 -91 -29.5t-34 -91.5h-270l45 926h911v-264h-635l-16 -338q66 53 219 53q55 0 158.5 -4t181.5 -55q147 -94 148 -318v-211q0 -227 -175 -321q-92 -49 -206 -49q-209 0 -325 8t-308 41z " />
<glyph unicode="6" horiz-adv-x="1245" d="M102 786q0 158 19.5 282t52.5 203t80 130q82 94 201 104q78 8 161 8q223 0 490 -49v-217h-512q-92 0 -137 -63q-45 -66 -54 -131q-14 -96 -14 -185q168 41 414 41q211 0 284 -102q68 -90 68 -246v-225q0 -338 -362 -338h-293q-203 0 -289 154q-109 190 -109 634zM389 657 q0 -231 49 -315q49 -80 146 -80h155q70 0 100.5 25.5t30.5 101.5v137q0 106 -69 125q-23 6 -56 6h-356z" />
<glyph unicode="7" horiz-adv-x="1134" d="M47 1235v264h965l78 -131l-502 -1368h-314l461 1235h-688z" />
<glyph unicode="8" horiz-adv-x="1277" d="M117 344v150q0 92 43 152.5t119 78.5q-102 43 -136 129q-27 70 -26 168v133q0 205 112 283q102 72 271 71h309q180 0 267 -84t87 -272v-109q2 -55 -18 -112q-37 -109 -135 -125q45 -8 77.5 -41t49.5 -76q29 -84 26 -164v-176q0 -242 -157 -313q-80 -37 -199 -37h-307 q-324 0 -373 227q-10 54 -10 117zM403 375q0 -84 62 -109q33 -12 86 -12h190q135 0 136 121v143q0 61 -33 94t-96 33h-207q-137 0 -138 -127v-143zM403 1012q0 -127 138 -127h204q84 0 111 39q20 33 21 88v96q0 86 -33 117.5t-101 31.5h-192q-80 0 -114 -27.5t-34 -121.5 v-96z" />
<glyph unicode="9" horiz-adv-x="1245" d="M94 944v223q0 338 363 338h293q76 0 133 -19.5t109 -72.5t85 -139q70 -188 70 -557q0 -442 -152 -615q-84 -94 -200 -104q-82 -6 -168 -6q-258 0 -484 47v217h512q92 0 136 63q45 66 55 132q14 96 14 186q-168 -43 -414 -43q-211 0 -286 102q-66 92 -66 248zM379 977 q0 -76 28.5 -103.5t96.5 -27.5h356q0 231 -51 317q-47 78 -143 78h-158q-68 0 -98.5 -25.5t-30.5 -101.5v-137z" />
<glyph unicode=":" horiz-adv-x="538" d="M133 47v184q0 51 49 52h176q51 0 52 -52v-184q0 -47 -52 -47h-176q-23 0 -36 13.5t-13 33.5zM133 852v184q0 51 49 51h176q51 0 52 -51v-184q0 -47 -52 -47h-176q-31 0 -40 17.5t-9 29.5z" />
<glyph unicode=";" horiz-adv-x="540" d="M133 51v178q0 25 13.5 40.5t37.5 15.5h172q49 0 50 -56v-252q0 -63 -28 -103t-67 -50q-47 -14 -84 -14t-57 4l-27 6v98q27 0 43 10q20 12 21 43v29h-23q-23 0 -37 14t-14 37zM135 854v184q0 51 49 52h176q51 0 52 -52v-184q0 -47 -52 -47h-176q-31 0 -40 16.5t-9 30.5z " />
<glyph unicode="&#x3c;" horiz-adv-x="921" d="M78 590v264l768 297v-266l-463 -162l463 -180v-269z" />
<glyph unicode="=" horiz-adv-x="956" d="M41 377v241h874v-241h-874zM41 817v242h874v-242h-874z" />
<glyph unicode="&#x3e;" horiz-adv-x="921" d="M78 274v269l463 180l-463 162v266l768 -297v-264z" />
<glyph unicode="?" horiz-adv-x="1110" d="M31 1247v215q276 53 469 54q51 0 108 -3q227 0 338 -124q104 -117 105 -277v-149q0 -383 -389 -383q-37 0 -76 4v-185h-232v400h234q178 8 178 168v108q0 90 -54.5 131t-170.5 41h-510zM332 47v184q0 52 49 52h178q49 0 49 -52v-184q0 -47 -49 -47h-178q-23 0 -36 13.5 t-13 33.5z" />
<glyph unicode="@" horiz-adv-x="1777" d="M102 23v622q0 297 244 377q78 27 178 27h394q199 0 282 -86q76 -78 76 -234v-729h-184l-41 121l-15 -15q-16 -14 -44.5 -34.5t-65.5 -40.5q-88 -49 -202 -49t-183.5 80.5t-69.5 193.5v86q0 137 78 210t221 73h277q2 43 2 65.5t-2 22.5q0 63 -29 84.5t-98 21.5h-396 q-143 0 -176 -88q-16 -39 -16 -96v-590q0 -174 127 -213q31 -8 65 -8h682q119 0 165 54t46 167v936q0 115 -57 177.5t-154 62.5h-827v174q94 20 266 37.5t258 17.5h98h205q180 0 305 -104q135 -115 136 -365v-936q0 -227 -105.5 -341t-324.5 -114h-693q-188 0 -305 105.5 t-117 327.5zM713 291q0 -33 25.5 -56.5t68.5 -23.5h3h3q139 0 234 90v162l-244 -23q-90 -8 -90 -94v-27.5v-27.5z" />
<glyph unicode="A" horiz-adv-x="1417" d="M70 0l505 1499h326l488 -1499h-306l-106 332h-492l-108 -332h-307zM561 586h348l-168 536z" />
<glyph unicode="B" horiz-adv-x="1236" d="M125 0v1499h618q217 0 319.5 -111.5t102.5 -289.5q0 -115 -51 -208t-153 -112q98 -18 163.5 -109t65.5 -229q0 -215 -105.5 -327.5t-336.5 -112.5h-623zM412 254l325 -2q166 0 166 201q0 92 -41 151.5t-125 59.5h-325v-410zM412 905h313q78 0 118 44t40 132t-45 126 t-113 38h-313v-340z" />
<glyph unicode="C" horiz-adv-x="1169" d="M86 763q0 384 102 552q82 135 228 178q80 23 180 23q293 0 522 -68v-225l-16 2q-15 2 -40.5 4t-60 5t-76.5 6t-83 5q-96 6 -172 6t-118 -9t-81 -36.5t-57 -83.5q-41 -119 -41 -379t60.5 -375.5t230.5 -115.5q193 0 389 12l65 4v-223q-184 -57 -475 -57h-47 q-274 2 -392 196.5t-118 578.5z" />
<glyph unicode="D" horiz-adv-x="1355" d="M125 0v1499h637q520 0 520 -756q0 -467 -223 -647q-119 -96 -297 -96h-637zM412 256h327q256 0 256 489q0 373 -118 461q-53 39 -138 39h-327v-989z" />
<glyph unicode="E" horiz-adv-x="1161" d="M119 295v893q-1 186 110 256q51 31 101.5 43t80 12t296 -7t397.5 -26v-237h-592q-76 0 -94 -37q-12 -29 -12 -78v-233l606 -21v-237l-606 -19v-233q0 -78 43 -95q31 -12 83 -12h572v-235q-102 -14 -506 -29l-133 -6h-37.5t-56.5 3t-84 21.5t-86 49.5q-82 74 -82 227z" />
<glyph unicode="F" horiz-adv-x="1161" d="M119 0v1184q0 244 207 301q51 14 81.5 14t298 -7t398.5 -26v-237h-592q-76 0 -94 -37q-12 -29 -12 -78v-233l606 -21v-237l-606 -19v-604h-287z" />
<glyph unicode="G" horiz-adv-x="1257" d="M86 756.5q0 140.5 11.5 248t43 207t86.5 164.5q117 139 348 140q174 0 296 -13.5t280 -52.5v-223q-2 0 -34 4t-84 9t-113 9q-147 12 -277 13q-164 0 -217 -110t-53 -402.5t49 -391.5q51 -100 209 -100q61 0 125.5 23.5t97.5 46.5l33 24v269h-209v182q121 49 356 49 q66 0 140 -4v-848h-205l-78 100q-72 -68 -154 -88q-100 -25 -186 -25q-106 0 -191 38q-90 39 -142 104.5t-83 171t-40 210.5t-9 245.5z" />
<glyph unicode="H" horiz-adv-x="1302" d="M125 0v1499h287v-643h514v643h286v-1499h-286v594h-514v-594h-287z" />
<glyph unicode="I" horiz-adv-x="501" d="M125 0v1499h287v-1499h-287z" />
<glyph unicode="J" horiz-adv-x="729" d="M55 47l4 223q70 -6 106 -6t52 2q133 4 135 197v1036h287v-1161q0 -63 -5 -108.5t-31 -103.5t-73 -89q-78 -47 -232.5 -47t-242.5 57z" />
<glyph unicode="K" horiz-adv-x="1286" d="M125 0v1499h274v-627h121l381 627h334l-459 -751l459 -748h-334l-381 618h-119v-618h-276z" />
<glyph unicode="L" horiz-adv-x="1103" d="M125 291v1208h287v-1128q0 -78 43 -95q31 -12 84 -12h514v-264h-617q-311 0 -311 291z" />
<glyph unicode="M" horiz-adv-x="1734" d="M86 0l131 1499h399l250 -1024l248 1024h397l140 -1499h-283l-98 1001l-242 -1001h-319l-252 1001l-88 -1001h-283z" />
<glyph unicode="N" horiz-adv-x="1388" d="M125 0v1499h291l594 -969v969h286v-1499h-286l-596 958v-958h-289z" />
<glyph unicode="O" horiz-adv-x="1374" d="M102 757q0 130 15.5 245.5t42 196.5t71.5 138.5t91.5 90t113.5 51.5q104 31 220 31h4q118 0 172.5 -4.5t115 -17.5t103.5 -38t87 -62.5t72.5 -96t51.5 -134.5q45 -152 45 -354.5t-15.5 -312t-40 -188.5t-66.5 -135t-88 -90t-112 -52q-112 -33 -276 -33q-58 0 -123 4 q-127 6 -184.5 30.5t-99.5 52t-70.5 67.5t-55 96.5t-42 128t-24 164t-8.5 222.5zM389 727q0 -115 8.5 -195.5t27.5 -138t58 -86.5q70 -51 222 -51q143 0 215 53q100 76 100 430q0 240 -25.5 318t-47 110.5t-60.5 51.5q-62 27 -146 27h-3q-86 0 -120 -3.5t-72 -13.5 t-59.5 -31.5t-43 -58.5t-32 -91.5t-16.5 -130t-6 -190.5z" />
<glyph unicode="P" horiz-adv-x="1232" d="M104 0v1499h646q223 0 323 -125q92 -113 92 -338q0 -131 -27.5 -225t-67.5 -144.5t-101 -76.5q-80 -37 -178 -37q-72 0 -232 18.5t-168 22.5v-594h-287zM391 807h336q49 0 80 18q70 41 70 209q-3 211 -150 211h-336v-438z" />
<glyph unicode="Q" horiz-adv-x="1374" d="M102 733q0 121 9.5 217.5t26 170t43 131t56 98.5t72.5 69.5t83 46t95 27.5q90 16 189.5 16t154 -4t115 -17t104.5 -38t87 -62.5t71.5 -96t53.5 -134.5q45 -152 45 -418q0 -342 -95 -526q-49 -96 -155 -158q-109 -61 -355 -63q-250 0 -352 57q-111 59 -155 154 q-66 131 -79.5 270t-13.5 260zM389 727q0 -115 8.5 -195.5t27.5 -138t56 -86.5q72 -51 210 -51t202.5 37t95.5 140.5t31 263t-7 242.5t-25.5 139.5t-40 89t-62.5 51.5q-60 27 -145 27h-4q-87 -1 -120.5 -4t-71.5 -13t-58.5 -31.5t-42 -58.5t-32 -91.5t-16.5 -130t-6 -190.5z M614 -68h162q49 -82 174 -82q68 0 160 25v-231q-74 -12 -136 -12q-2 -1 -4 -1l-122 19q-62 20 -112 54t-84 93.5t-38 134.5z" />
<glyph unicode="R" horiz-adv-x="1243" d="M104 0v1499h656q197 0 293 -100q117 -119 116 -367q0 -289 -120 -383q-39 -31 -59.5 -39t-59.5 -20l284 -590h-323l-248 567l-252 29v-596h-287zM393 821h340q80 0 114 41t34 166t-37 171t-111 46h-340v-424z" />
<glyph unicode="S" horiz-adv-x="1208" d="M102 995v129q0 215 117 306q106 80 289 81h103.5t231 -16t244.5 -43v-225q-233 20 -371 20h-149q-92 0 -135 -24.5t-43 -120.5v-74q0 -86 35 -114.5t125 -28.5h237q233 0 314 -187q41 -94 41 -211v-100q0 -274 -183 -358q-94 -45 -231 -45q-371 0 -580 61v225 q220 -23 386 -23q3 1 7 1q168 0 196 4t57 16q61 27 61 109v80q0 106 -68 131q-27 10 -67 10h-230q-387 0 -387 397z" />
<glyph unicode="T" horiz-adv-x="1214" d="M63 1235v264h1108v-264h-415v-1235h-287v1235h-406z" />
<glyph unicode="U" horiz-adv-x="1359" d="M125 655v844h287v-844q0 -197 39 -288q35 -82 137 -105q45 -8 130 -8t142 31q121 66 121 370v844h289v-844q0 -322 -94 -467q-31 -51 -61 -82.5t-76 -55t-78.5 -35t-88.5 -17.5q-70 -8 -170 -8h-28q-246 0 -328 51q-37 25 -86 73t-74 117q-61 172 -61 424z" />
<glyph unicode="V" horiz-adv-x="1402" d="M70 1499h305l334 -1122l352 1122h305l-494 -1499h-331z" />
<glyph unicode="W" horiz-adv-x="2031" d="M70 1499h305l332 -1112l270 1112h307l-104 -387l237 -731l275 1118h303l-412 -1499h-332l-202 614l-177 -614h-331z" />
<glyph unicode="X" horiz-adv-x="1312" d="M70 1499h317l283 -512l288 512h318l-451 -747l441 -752h-318l-278 504l-277 -504h-317l440 752z" />
<glyph unicode="Y" horiz-adv-x="1343" d="M70 1499h311l293 -719l321 719h312l-494 -1034v-465h-287v465z" />
<glyph unicode="Z" horiz-adv-x="1138" d="M55 0v264l686 971h-686v264h1032v-264l-653 -971h653v-264h-1032z" />
<glyph unicode="[" horiz-adv-x="681" d="M133 -20v1359q0 162 72 269q80 117 274 116h174v-241h-106q-127 0 -127 -178v-1315q0 -178 127 -178h106v-242h-174q-88 0 -152.5 27.5t-100.5 67.5t-58 99q-35 93 -35 216z" />
<glyph unicode="\" horiz-adv-x="933" d="M31 1577h297l575 -1724h-297z" />
<glyph unicode="]" horiz-adv-x="681" d="M31 -188h108q127 0 127 178v1315q0 178 -127 178h-108v241h176q258 0 323 -221q23 -72 23 -164v-1359q0 -176 -61 -269q-92 -141 -285 -141h-176v242z" />
<glyph unicode="^" horiz-adv-x="786" d="M78 1087l221 277h213l197 -277h-191l-119 123l-129 -123h-192z" />
<glyph unicode="_" horiz-adv-x="1380" d="M41 -2v242h1298v-242h-1298z" />
<glyph unicode="`" horiz-adv-x="497" d="M31 1372h252l184 -285h-186z" />
<glyph unicode="a" horiz-adv-x="1062" d="M61 276v103q0 131 78 215q77 83 236 83h4q162 -1 241.5 -1t79.5 2v50v20q0 82 -34.5 107.5t-139 25.5t-428.5 -23v176q186 74 498 74q188 0 289.5 -79t101.5 -271v-758h-227l-60 119q-8 -14 -52 -44t-121.5 -58.5t-149.5 -28.5q-152 0 -234 87t-82 201zM348 317 q0 -61 26.5 -80.5t78 -19.5t114 21.5t97.5 42.5l36 22v199l-264 -21q-88 -8 -88 -110v-54z" />
<glyph unicode="b" horiz-adv-x="1138" d="M94 0v1608h285v-576q154 72 330 72q150 0 225 -72q80 -74 104 -196q25 -121 25 -297q0 -264 -82 -407.5t-272 -143.5q-88 0 -178.5 36.5t-149.5 86.5l-51 -111h-236zM381 299q104 -66 254 -66q72 0 106.5 71t34.5 225.5t-17.5 228t-46 97.5t-77.5 24q-150 0 -254 -41 v-539z" />
<glyph unicode="c" horiz-adv-x="1011" d="M78 545q0 164 25.5 275.5t75.5 170t111.5 83t145.5 24.5q301 0 500 -64v-178q-195 12 -310.5 12t-139 -4t-52 -20.5t-41.5 -50.5q-29 -83 -29 -234v-5q0 -155 19.5 -222.5t57.5 -89t120 -21.5q166 0 334 15l55 4v-181q-94 -49 -184 -57q-133 -12 -231 -12h-13h-86 q-162 0 -254 108q-104 121 -104 447z" />
<glyph unicode="d" horiz-adv-x="1138" d="M78 514q0 246 30.5 346.5t69.5 145.5q84 98 254 98q74 0 166 -19.5t164 -52.5v576h287v-1608h-238l-49 111q-59 -49 -149.5 -86t-180.5 -37q-190 0 -272 140t-82 386zM365 529.5q0 -154.5 34.5 -225.5t108.5 -71q150 0 254 66v539q-106 41 -254 41q-51 0 -80 -24 t-46 -97.5t-17 -228z" />
<glyph unicode="e" horiz-adv-x="1075" d="M78 529.5q0 285.5 62.5 405t230.5 148.5q72 13 164 13h25q74 0 118 -3q51 -3 103.5 -12.5t85 -27t63.5 -47t47 -70.5q37 -92 37 -212t-35 -181q-68 -117 -268 -117h-346q0 -72 12 -115t45 -62.5t68.5 -24.5t195.5 -5t307 23v-195q-92 -35 -185 -43t-128 -10t-86 -2 q-68 -2 -158 -2q-203 0 -280.5 127t-77.5 412.5zM365 633h272q90 0 90 82q0 102 -27.5 132t-111.5 30t-116 -5.5t-61.5 -29t-37.5 -70.5t-8 -89v-50z" />
<glyph unicode="f" horiz-adv-x="825" d="M31 868v185l170 34v203q0 152 73.5 236t237.5 84t285 -49v-170l-197 2h-6q-88 0 -100 -62q-6 -35 -7 -108v-136h248v-219h-248v-868h-286v868h-170z" />
<glyph unicode="g" horiz-adv-x="1146" d="M72 207q0 72 31.5 124t95.5 72q-119 76 -119 302q0 387 377 387h661v-172l-121 -37q0 -2 5.5 -13.5t7.5 -16.5t6 -15.5t6 -18.5t5 -20.5t4 -24.5t3 -29q4 -29 4 -78t-9 -96t-34.5 -97t-64.5 -85q-92 -84 -264 -84h-252q-82 0 -82 -47q0 -33 21.5 -44t60.5 -11h334 q152 0 236.5 -81t84.5 -243v-117q0 -238 -203 -297q-59 -18 -137 -18h-307q-240 0 -313 176q-27 59 -27 139v138l96 100q-47 25 -76.5 80t-29.5 127zM367 705q0 -168 131 -168h114q139 0 140 159q0 117 -60 150q-31 16 -82 16h-108q-80 0 -107.5 -42.5t-27.5 -114.5z M371 -23v-180q0 -74 31.5 -97.5t97.5 -23.5h168q72 0 94 30t22 85v80q0 49 -24.5 73.5t-81.5 26.5h-221z" />
<glyph unicode="h" d="M94 0v1604h285v-633q147 106 237 125q49 10 109 10q326 0 326 -381v-725h-287v729q0 147 -121 148q-82 0 -139.5 -21.5t-122.5 -73.5v-782h-287z" />
<glyph unicode="i" horiz-adv-x="464" d="M78 1249v181q0 53 49 53h215q45 0 45 -53v-181q0 -47 -45 -47h-215q-23 0 -36 12t-13 35zM88 0v1087h287v-1087h-287z" />
<glyph unicode="j" horiz-adv-x="495" d="M94 1249v181q0 53 49 53h215q23 0 35.5 -15.5t12.5 -37.5v-181q0 -47 -48 -47h-215q-23 0 -36 12t-13 35zM106 -553v1640h287v-1095v-105q0 -274 -76 -440h-211z" />
<glyph unicode="k" horiz-adv-x="1140" d="M94 0v1602h287v-879h59l308 364h364l-407 -473l407 -614h-342l-330 504h-59v-504h-287z" />
<glyph unicode="l" horiz-adv-x="641" d="M94 387v1217h287v-1172q0 -109 22.5 -151.5t71.5 -61.5q123 -43 137 -43v-176h-237q-139 0 -210 89t-71 298z" />
<glyph unicode="m" horiz-adv-x="1792" d="M94 0v1087h230l57 -116q6 4 41 28.5t67.5 45t95 40t134.5 19.5q211 0 282 -141q193 141 392 141q324 0 323 -383v-721h-286v725q0 111 -70 139q-23 8 -51 8q-164 0 -267 -86l2 -63v-723h-286v725q0 147 -121 147q-82 0 -135 -20.5t-121 -71.5v-780h-287z" />
<glyph unicode="n" d="M94 0v1087h230l57 -116q150 109 237 125q48 10 107 10q326 0 326 -381v-725h-287v729q0 147 -121 148q-82 0 -139.5 -21.5t-122.5 -73.5v-782h-287z" />
<glyph unicode="o" horiz-adv-x="1146" d="M78 522q0 141 16.5 236.5t51 162t96.5 105.5q113 72 331 72q281 0 388.5 -123t107.5 -437.5t-105.5 -431t-390.5 -116.5q-279 0 -389 125q-106 120 -106 407zM365 534.5q0 -110.5 10 -172t37.5 -93t62.5 -40t94.5 -8.5t89 4t57 20.5t40.5 51.5q27 73 27 195q0 125 -6 189 q-5 58 -17 98t-39 57q-47 32 -132 32h-8q-79 0 -113 -10q-36 -10 -61.5 -47t-33.5 -101.5t-8 -175z" />
<glyph unicode="p" horiz-adv-x="1138" d="M94 -553v1640h236l49 -108q59 47 150.5 84t184.5 37t162.5 -39t110.5 -115q76 -143 76 -397q0 -332 -98 -459q-86 -106 -256 -106q-74 0 -166 19.5t-164 49.5v-606h-285zM379 250q106 -41 256 -41q49 0 78 22q63 53 63 306q0 176 -34.5 246.5t-106.5 70.5 q-152 0 -256 -66v-538z" />
<glyph unicode="q" horiz-adv-x="1136" d="M78 549q0 551 397 551q154 0 318.5 -19.5t250.5 -42.5v-1591h-286v612q-118 -79 -279 -79h-4q-223 0 -310 140t-87 429zM365 545q0 -53 1 -87t5 -82t15 -72.5t28 -51.5q33 -47 108.5 -47t121.5 9t114 36v631h-226q-82 0 -116 -58q-37 -59 -43 -114.5t-7 -83t-1 -80.5z " />
<glyph unicode="r" horiz-adv-x="854" d="M94 0v1087h242l45 -137q154 147 311 148q88 0 121 -13v-276q-57 6 -155.5 6t-163 -25.5t-113.5 -95.5v-694h-287z" />
<glyph unicode="s" horiz-adv-x="1040" d="M61 711v94q0 293 283 293q485 0 582 -56v-180h-494q-51 0 -67.5 -16.5t-16.5 -59.5v-49q0 -47 20.5 -58t63.5 -11h258q100 0 166 -39q123 -70 123 -242v-113q0 -154 -76 -219t-190 -65q-516 0 -607 59v178h515q72 0 71 70v51q0 37 -15 53.5t-56 16.5h-254 q-305 0 -306 293z" />
<glyph unicode="t" horiz-adv-x="780" d="M31 870v160l176 60l47 303h240v-303h243v-220h-243v-436q0 -111 22.5 -153.5t69.5 -61.5q123 -43 137 -43v-176h-250q-266 0 -266 389v481h-176z" />
<glyph unicode="u" d="M78 365v722h287v-729q0 -145 120 -145q106 0 181 39q37 20 82 55v780h286v-1087h-231l-55 115q-18 -10 -51 -31t-51.5 -32t-48.5 -26.5t-56 -23.5q-63 -20 -140 -20q-324 0 -323 383z" />
<glyph unicode="v" horiz-adv-x="1155" d="M31 1087h307l237 -751l244 751h307l-395 -1087h-321z" />
<glyph unicode="w" horiz-adv-x="1691" d="M31 1087h307l217 -751l195 751h286l-75 -292l180 -459l215 751h307l-352 -1087h-320l-164 393l-122 -393h-326z" />
<glyph unicode="x" horiz-adv-x="1171" d="M37 0l377 545l-377 542h348l199 -325l204 325h347l-381 -548l364 -539h-330l-202 322l-201 -322h-348z" />
<glyph unicode="y" horiz-adv-x="1183" d="M33 1087h301l188 -761q20 -78 101 -78q6 -2 8 -2l217 841h299l-377 -1431l-149 -209h-205l153 553q-250 0 -323 276z" />
<glyph unicode="z" horiz-adv-x="970" d="M47 846v241h879v-241l-467 -602h467v-242h-848v240l487 604h-518z" />
<glyph unicode="{" horiz-adv-x="657" d="M31 575v216q111 10 137 55q14 22 14 53v444q0 176 110.5 278.5t334.5 102.5v-241q-84 0 -121 -48.5t-37 -181.5v-370q0 -176 -197 -199q88 -16 141.5 -66.5t53.5 -125.5v-492q0 -201 151 -201h9v-229q-240 0 -343.5 91t-103.5 261v545q0 55 -40 81.5t-91 26.5h-18z" />
<glyph unicode="|" horiz-adv-x="505" d="M133 -147v1724h242v-1724h-242z" />
<glyph unicode="}" horiz-adv-x="657" d="M31 -201h8q78 0 116 49.5t38 151.5v492q0 76 52 126t142 66q-197 23 -197 199v370q0 133 -37.5 181.5t-121.5 48.5v241q223 0 334.5 -102t111.5 -279v-444q0 -63 49 -86q41 -16 101 -22v-216h-39t-70 -26.5t-39 -81.5v-545q0 -170 -104.5 -261t-343.5 -91v229z" />
<glyph unicode="~" horiz-adv-x="858" d="M78 1200q43 47 69.5 71.5t75.5 50.5t98.5 26t115 -36t104.5 -36h6q86 0 184 82l49 -123q-88 -106 -157 -133q-37 -14 -79 -14.5t-115 35.5t-100.5 36t-42 -1t-29.5 -6t-25.5 -8t-27 -12.5t-23.5 -12.5t-26.5 -15t-27.5 -17z" />
<glyph unicode="&#xa1;" horiz-adv-x="565" d="M133 -553l29 1092h235l29 -1092h-293zM143 719v178q0 43 50 47h174q27 -2 38 -20.5t11 -32.5v-172q-2 -55 -47 -55h-176q-50 0 -50 55z" />
<glyph unicode="&#xa2;" horiz-adv-x="997" d="M61 545q0 166 27 278q47 201 195 254q59 23 103 23h50v198h176v-204q178 -18 310 -62v-178q-197 14 -311.5 14t-139.5 -3t-52.5 -19.5t-41.5 -52.5q-29 -82 -29 -238t19.5 -224.5t57.5 -90t120 -21.5q166 0 334 14l57 5v-181q-127 -63 -328 -67v-185h-176v183 q-88 0 -150.5 24.5t-114.5 84t-79 171t-27 277.5z" />
<glyph unicode="&#xa3;" horiz-adv-x="1191" d="M78 0v221l135 43v379h-135v148l135 45v153q0 172 28.5 247t53 114t60.5 64.5t75 43t90 25.5q90 16 180 16q141 0 347 -24l69 -9v-229h-387q-76 0 -111.5 -5t-67.5 -27.5t-41 -66.5t-9 -124v-178l454 -33v-160h-454v-379h614v-264h-1036z" />
<glyph unicode="&#xa4;" horiz-adv-x="913" d="M80 897l98 100l94 -92q82 57 182.5 57.5t184.5 -57.5l94 96l103 -96l-101 -102q45 -74 45 -173.5t-59 -183.5l98 -98l-96 -102l-109 104q-74 -45 -164 -45t-169 53l-95 -98l-100 102l96 99q-51 82 -51 175t45 167zM291 636q0 -69 48 -119t116.5 -50t117 50t48.5 119 t-48.5 118t-117 49t-116.5 -49t-48 -118z" />
<glyph unicode="&#xa5;" horiz-adv-x="1298" d="M31 1499h313l291 -676l317 676h316l-420 -807h227v-168h-301v-73h301v-166h-301v-285h-287v285h-286v166h286v73h-286v168h217z" />
<glyph unicode="&#xa6;" horiz-adv-x="507" d="M133 -147v671h242v-671h-242zM133 879v698h242v-698h-242z" />
<glyph unicode="&#xa7;" horiz-adv-x="1107" d="M86 1208v99q0 221 168 280q53 18 151.5 18.5t281.5 -11t259 -27.5v-203h-493q-53 0 -72 -31q-8 -16 -8 -43v-71q0 -70 82 -70h252q170 0 244.5 -63.5t72.5 -194.5v-72q0 -188 -119 -219q117 -20 117 -203v-114q0 -299 -283 -299q-141 0 -324.5 11t-252.5 28v202h485 q59 0 74.5 18.5t15.5 45.5v82q0 39 -19.5 53t-66.5 14h-254q-154 0 -231.5 54.5t-77.5 195.5v72q0 147 53 196q27 25 70 39q-125 53 -125 213zM373 750q0 -53 18 -66q27 -16 74 -16h176q66 0 78 16q18 23 18 68v77q0 72 -43 82q-20 6 -53 7h-176q-57 0 -74.5 -19.5 t-17.5 -73.5v-75z" />
<glyph unicode="&#xa8;" horiz-adv-x="917" d="M78 1192q0 49 36 84t85 35t83.5 -35t34.5 -84t-34.5 -85t-83.5 -36t-85 36t-36 85zM600 1192q0 49 36 84t85 35t84 -35t35 -84t-35 -85t-84 -36t-85 36t-36 85z" />
<glyph unicode="&#xa9;" horiz-adv-x="1638" d="M86 772q0 102 12.5 201.5t46 201t90 170t151.5 111.5t220 43h475q119 0 206 -45t137.5 -113.5t80.5 -171.5q49 -168 49 -415q0 -356 -121.5 -555t-351.5 -199h-475q-231 0 -366 180q-154 203 -154 592zM272 758q0 -166 34 -293t112 -208t188 -81h463q90 0 154.5 56.5 t104.5 187.5t40 334q0 268 -43 379q-51 129 -129 165q-51 25 -115 25h-475q-145 0 -233 -109q-101 -124 -101 -456zM457 748q0 446 295 446q76 0 186.5 -13.5t189.5 -35.5v-152q-172 25 -331 25q-82 0 -117 -62.5t-35 -206t36 -208t124 -64.5q150 0 336 33v-152 q-141 -57 -379 -57q-221 0 -281 225q-24 91 -24 222z" />
<glyph unicode="&#xaa;" horiz-adv-x="749" d="M47 537v143h658v-143h-658zM47 954v72q0 86 55.5 140.5t165 54.5h161.5h52q2 33 1 51t-15 37q-20 29 -97 28.5t-185.5 -8.5t-112.5 -8v137q162 53 342 53q88 0 150.5 -19t100 -72.5t37.5 -139.5v-506h-167l-54 92q-10 -25 -75.5 -62.5t-133.5 -37.5q-106 0 -165.5 56.5 t-59.5 131.5zM254 993q0 -37 19.5 -49t56.5 -12t75.5 12t57.5 27l18 12v121l-164 -14q-63 -4 -63 -68v-29z" />
<glyph unicode="&#xab;" horiz-adv-x="1187" d="M78 725l422 416l157 -156l-268 -260l273 -268l-152 -158zM526 725l422 416l158 -156l-266 -260l272 -268l-154 -158z" />
<glyph unicode="&#xac;" horiz-adv-x="1011" d="M70 492v229h872v-395h-229v166h-643z" />
<glyph unicode="&#xad;" horiz-adv-x="724" d="M41 473v242h643v-242h-643z" />
<glyph unicode="&#xae;" horiz-adv-x="1638" d="M86 772q0 102 12.5 201.5t46 201t90 170t151.5 111.5t220 43h475q119 0 206 -45t137.5 -113.5t80.5 -171.5q49 -168 49 -415q0 -356 -121.5 -555t-351.5 -199h-475q-231 0 -366 180q-154 203 -154 592zM272 758q0 -166 34 -293t112 -208t188 -81h463q90 0 154.5 56.5 t104.5 187.5t40 334q0 268 -43 379q-51 129 -129 165q-51 25 -115 25h-475q-145 0 -233 -109q-101 -124 -101 -456zM508 313v875h373q274 0 274 -275q0 -131 -43 -188t-117 -78l179 -334h-203l-170 326l-107 25v-351h-186zM694 799h154q80 0 100.5 19.5t20.5 89t-28 87 t-93 17.5h-154v-213z" />
<glyph unicode="&#xaf;" horiz-adv-x="751" d="M78 1087v162h598v-162h-598z" />
<glyph unicode="&#xb0;" horiz-adv-x="569" d="M78 1294.5q0 57.5 27.5 105.5t75.5 76.5t104.5 28.5t104.5 -28.5t76 -76.5t28 -105.5t-28 -105.5t-76 -76t-104.5 -28t-104.5 28t-75.5 76t-27.5 105.5zM195 1300.5q0 -30.5 12 -51.5q27 -45 72 -45t70.5 26.5t25.5 63.5t-25.5 64.5t-62.5 27.5t-64.5 -27.5t-27.5 -58z " />
<glyph unicode="&#xb1;" horiz-adv-x="1024" d="M88 143v242h852v-242h-852zM88 782v242h303v303h242v-303h307v-242h-307v-307h-242v307h-303z" />
<glyph unicode="&#xb2;" horiz-adv-x="819" d="M47 1619v77l2 41q219 39 352.5 39t191.5 -22.5t93 -63.5q70 -80 70 -213q0 -215 -355 -498h353v-205h-699v195q240 168 346 274q49 49 89 108.5t40 114t-34.5 80t-120.5 25.5h-326q-2 0 -2 48z" />
<glyph unicode="&#xb3;" horiz-adv-x="835" d="M47 1561v161q115 43 344 43h94q121 -2 190.5 -69.5t69.5 -177.5v-62q0 -152 -116 -190q117 -45 116 -203v-47q0 -252 -270 -252h-80q-229 0 -340 41l2 164h326q82 0 110.5 16t28.5 66v24q0 51 -32.5 70.5t-98.5 21.5l-252 11v176l252 14q72 2 103.5 21.5t31.5 64.5v25 q0 47 -33.5 64.5t-101.5 17.5h-344z" />
<glyph unicode="&#xb4;" horiz-adv-x="497" d="M31 1087l186 285h250l-250 -285h-186z" />
<glyph unicode="&#xb5;" horiz-adv-x="1204" d="M141 365v722h287v-729q0 -145 119 -145q106 0 182 39q37 20 82 55v780h287v-1087h-232l-55 115q-12 -6 -42 -24.5t-43 -26t-38.5 -20.5t-44.5 -21q-117 -45 -215 -15v-561h-287v918z" />
<glyph unicode="&#xb6;" horiz-adv-x="1181" d="M61 1022v190q0 139 90.5 213t229.5 74h772v-213h-109v-1286h-208v1290h-136v-1843h-208v1315l-17 -10q-41 -25 -94 -25q-158 0 -239 83t-81 212zM270 1047q0 -72 39 -95q33 -16 84 -16h99v356h-99q-74 0 -98.5 -29.5t-24.5 -91.5v-124z" />
<glyph unicode="&#xb7;" horiz-adv-x="538" d="M133 696v185q0 51 49 51h176q51 0 52 -51v-185q0 -47 -52 -47h-176q-31 0 -40 16.5t-9 30.5z" />
<glyph unicode="&#xb8;" horiz-adv-x="499" d="M78 -242l90 31q41 16 51 44t10 91h193q0 -109 -21 -170q-39 -119 -208 -119h-115v123z" />
<glyph unicode="&#xb9;" horiz-adv-x="552" d="M25 1513v136l208 112h220v-987h-222v787z" />
<glyph unicode="&#xba;" horiz-adv-x="806" d="M47 1138q0 208 77 288.5t280.5 80.5t280.5 -82t77 -290.5t-77 -288.5t-278.5 -80t-280.5 82t-79 290zM74 541v141h659v-141h-659zM268 1121q0 -77 16.5 -116.5t41 -50t74 -10.5t69.5 4t39 23q33 29 33 140.5t-13.5 153.5t-39 53t-77 11t-74 -6t-39.5 -26.5t-23.5 -59.5 t-6.5 -116z" />
<glyph unicode="&#xbb;" horiz-adv-x="1187" d="M78 457l272 268l-266 260l156 156l422 -416l-433 -426zM526 457l273 268l-267 260l158 156l422 -416l-432 -426z" />
<glyph unicode="&#xbc;" horiz-adv-x="1906" d="M25 1262v135l208 114h220v-989h-222v787zM358 0l846 1542h209l-846 -1542h-209zM1034 297l350 688h234l-285 -573h221v209l50 100h172v-309h100v-174l-100 -37v-199h-222v199h-475z" />
<glyph unicode="&#xbd;" horiz-adv-x="2029" d="M25 1262v135l208 114h220v-989h-222v787zM344 0l846 1542h207l-846 -1542h-207zM1253 797v48v77v41q221 39 393.5 38.5t247 -81t74.5 -218.5q0 -213 -358 -497h356v-205h-704v197q246 174 350 280q49 49 90 110.5t41 113t-36 74t-124 22.5h-330z" />
<glyph unicode="&#xbe;" horiz-adv-x="2138" d="M47 1311v162q113 41 309 40h133q123 0 193 -68.5t70 -178.5v-62q0 -150 -117 -190q117 -45 117 -203v-47q0 -250 -273 -250h-47h-48h-43t-45 1t-42 2t-43 3t-39 5t-41 7q-47 12 -76 23l2 162l330 2q84 0 113.5 16.5t29.5 63.5v26q0 49 -33.5 68.5t-101.5 21.5l-256 11 v176l256 16q74 2 105.5 20.5t31.5 63.5v27q0 47 -34.5 64.5t-102.5 17.5h-348zM569 0l846 1542h207l-846 -1542h-207zM1219 297l350 688h231l-287 -577h230v213l45 102h174v-315h98v-170l-98 -37v-199h-219v199h-477z" />
<glyph unicode="&#xbf;" horiz-adv-x="1112" d="M61 8q-2 199 115 295q98 82 275 82q35 0 73 -2v184h234l2 -399h-138.5t-117 -2t-100.5 -45t-44 -129t-2 -105q0 -78 52.5 -124t150.5 -46h10l510 2v-86v-106v-23q-276 -55 -469 -55q-53 0 -82 2l-28 2q-117 0 -205 36t-137 95q-98 119 -99 273v151zM504 737v178 q0 49 51 52h172q23 -2 36 -14.5t13 -32.5v-183q-2 -49 -47 -51h-178q-45 4 -47 51z" />
<glyph unicode="&#xc0;" horiz-adv-x="1417" d="M70 0l505 1499h326l488 -1499h-306l-106 332h-492l-108 -332h-307zM395 1917h252l184 -285h-186zM561 586h348l-168 536z" />
<glyph unicode="&#xc1;" horiz-adv-x="1417" d="M70 0l505 1499h326l488 -1499h-306l-106 332h-492l-108 -332h-307zM561 586h348l-168 536zM645 1632l186 285h250l-250 -285h-186z" />
<glyph unicode="&#xc2;" horiz-adv-x="1417" d="M70 0l505 1499h326l488 -1499h-306l-106 332h-492l-108 -332h-307zM422 1632l221 277h213l199 -277h-191l-121 123l-129 -123h-192zM561 586h348l-168 536z" />
<glyph unicode="&#xc3;" horiz-adv-x="1417" d="M70 0l505 1499h326l488 -1499h-306l-106 332h-492l-108 -332h-307zM387 1745q131 143 248 143q49 -2 116.5 -36.5t86 -34.5h22.5q78 0 180 77l50 -122q-127 -139 -230 -140q-51 0 -122.5 36t-99.5 36t-48.5 -3t-32.5 -6t-31.5 -12.5t-26.5 -13.5t-31 -18.5t-32 -18.5z M561 586h348l-168 536z" />
<glyph unicode="&#xc4;" horiz-adv-x="1417" d="M70 0l505 1499h326l488 -1499h-306l-106 332h-492l-108 -332h-307zM356 1745q0 41 17 70q37 59 96 58t94 -35t35 -84t-35 -86t-85 -36t-86 36t-36 77zM561 586h348l-168 536zM879 1753q0 49 35.5 84t86 35t85 -34t34.5 -84t-34.5 -86t-85 -36t-86 36t-35.5 85z" />
<glyph unicode="&#xc5;" horiz-adv-x="1417" d="M70 0l505 1499h326l488 -1499h-306l-106 332h-492l-108 -332h-307zM530 1719.5q0 -72.5 29 -121t77 -76t104.5 -27.5t103.5 27.5t74.5 76t27.5 121t-60.5 134t-146.5 61.5t-147.5 -61.5t-61.5 -134zM561 586h348l-168 536zM651 1713.5q0 27.5 25.5 54t62.5 26.5 t62.5 -26.5t25.5 -63.5t-25.5 -61.5t-62.5 -24.5t-63 24q-10 12 -17.5 28t-7.5 43.5z" />
<glyph unicode="&#xc6;" horiz-adv-x="1953" d="M47 0l580 1178q76 156 178 227q100 72 211 86q53 6 95 8t70.5 2t61.5 -2q510 -14 641 -33v-237h-573q-74 0 -90 -37q-12 -29 -15 -76v-239l584 -23v-236l-584 -18v-231q0 -74 39 -90q29 -12 56.5 -12.5t31.5 -0.5h551v-239q-104 -14 -489 -29l-129 -6h-47t-75 6 t-102.5 30.5t-89 81t-32.5 138.5v149h-359l-196 -397h-318zM682 649h238v494z" />
<glyph unicode="&#xc7;" horiz-adv-x="1169" d="M86 763q0 384 102 552q82 135 228 178q80 23 180 23q293 0 522 -68v-225l-16 2q-15 2 -40.5 4t-60 5t-76.5 6t-83 5q-96 6 -172 6t-118 -9t-81 -36.5t-57 -83.5q-41 -119 -41 -372q0 -270 57 -375q66 -123 234 -123q193 0 389 12l65 4v-223q-184 -57 -475 -57h-47 q-274 2 -392 196.5t-118 578.5zM233 -242l91 31q39 16 50 44t11 91h193q0 -160 -49.5 -224.5t-180.5 -64.5h-115v123z" />
<glyph unicode="&#xc8;" horiz-adv-x="1161" d="M119 295v893q0 186 110 254q92 57 199 57q8 0 276.5 -7t399.5 -26v-237h-592q-76 0 -94 -37q-12 -29 -12 -78v-233l606 -21v-237l-606 -19v-233q0 -78 43 -95q31 -12 83 -12h572v-235q-102 -14 -506 -29l-133 -6h-37.5t-56.5 3t-84 21.5t-86 49.5q-82 73 -82 227z M336 1913h252l184 -285h-186z" />
<glyph unicode="&#xc9;" horiz-adv-x="1161" d="M119 295v893q0 186 110 254q92 57 199 57q8 0 276.5 -7t399.5 -26v-237h-592q-76 0 -94 -37q-12 -29 -12 -78v-233l606 -21v-237l-606 -19v-233q0 -78 43 -95q31 -12 83 -12h572v-235q-102 -14 -506 -29l-133 -6h-37.5t-56.5 3t-84 21.5t-86 49.5q-82 73 -82 227z M563 1628l187 283h249l-249 -283h-187z" />
<glyph unicode="&#xca;" horiz-adv-x="1161" d="M119 295v893q0 186 110 254q92 57 199 57q8 0 276.5 -7t399.5 -26v-237h-592q-76 0 -94 -37q-12 -29 -12 -78v-233l606 -21v-237l-606 -19v-233q0 -78 43 -95q31 -12 83 -12h572v-235q-102 -14 -506 -29l-133 -6h-37.5t-56.5 3t-84 21.5t-86 49.5q-82 73 -82 227z M334 1632l221 277h213l199 -277h-191l-121 123l-129 -123h-192z" />
<glyph unicode="&#xcb;" horiz-adv-x="1161" d="M119 295v893q0 186 110 254q92 57 199 57q8 0 276.5 -7t399.5 -26v-237h-592q-76 0 -94 -37q-12 -29 -12 -78v-233l606 -21v-237l-606 -19v-233q0 -78 43 -95q31 -12 83 -12h572v-235q-102 -14 -506 -29l-133 -6h-37.5t-56.5 3t-84 21.5t-86 49.5q-82 73 -82 227z M258 1749q0 49 36 84t86 35t85 -35t35 -84t-35 -85t-85 -36t-86 36t-36 85zM780 1749q0 49 36 84t86 35t85 -35t35 -84t-35 -85t-85 -36t-86 36t-36 85z" />
<glyph unicode="&#xcc;" horiz-adv-x="501" d="M-76 1917h252l184 -285h-186zM125 0v1499h287v-1499h-287z" />
<glyph unicode="&#xcd;" horiz-adv-x="501" d="M125 0v1499h287v-1499h-287zM174 1632l186 285h250l-250 -285h-186z" />
<glyph unicode="&#xce;" horiz-adv-x="501" d="M-49 1632l221 277h213l199 -277h-191l-121 123l-129 -123h-192zM125 0v1499h287v-1499h-287z" />
<glyph unicode="&#xcf;" horiz-adv-x="501" d="M-115 1753q0 49 36 84t86 35t85 -34t35 -84t-35 -86t-85 -36t-86 36t-36 85zM125 0v1499h287v-1499h-287zM410 1753q0 49 34.5 84t85 35t85 -34t34.5 -84t-34.5 -86t-85 -36t-85 36t-34.5 85z" />
<glyph unicode="&#xd0;" horiz-adv-x="1355" d="M-8 696v135h133v668h637q467 0 514 -596q6 -76 6 -202t-30.5 -260t-92.5 -234q-127 -207 -397 -207h-637v696h-133zM412 256h327q90 0 147.5 61.5t81 167t23.5 256t-17.5 250t-51.5 152.5q-61 98 -183 98h-327v-410h227v-135h-227v-440z" />
<glyph unicode="&#xd1;" horiz-adv-x="1388" d="M125 0v1499h291l594 -969v969h286v-1499h-286l-596 958v-958h-289zM358 1745q131 143 248 143q51 -2 118 -36.5t85 -34.5h22q80 0 183 77l49 -122q-129 -139 -229 -140q-43 0 -86 19.5t-79 36t-51.5 16.5h-26.5t-29.5 -3t-31 -6t-32 -12.5t-27.5 -13.5t-31.5 -18.5 t-29.5 -18.5z" />
<glyph unicode="&#xd2;" horiz-adv-x="1374" d="M102 757q0 130 15.5 245.5t42 196.5t71.5 138.5t91.5 90t113.5 51.5q106 31 224 30.5t172.5 -4.5t115 -17t103.5 -38t87 -62.5t72.5 -96t51.5 -134.5q45 -152 45 -354.5t-15.5 -312t-40 -188.5t-66.5 -135t-88 -90t-112 -52q-152 -45 -399 -29q-127 6 -184.5 30.5 t-99.5 52t-70.5 67.5t-55 96.5t-42 128t-24 164t-8.5 222.5zM362 1917h250l187 -285h-187zM389 727q0 -115 8.5 -195.5t27.5 -138t58 -86.5q70 -51 222 -51q143 0 215 53q100 76 100 430q0 240 -25.5 318t-47 110.5t-60.5 51.5q-63 27 -149.5 26.5t-120 -3.5t-71.5 -13 t-59.5 -31.5t-43 -58.5t-32 -91.5t-16.5 -130t-6 -190.5z" />
<glyph unicode="&#xd3;" horiz-adv-x="1374" d="M102 757q0 130 15.5 245.5t42 196.5t71.5 138.5t91.5 90t113.5 51.5q106 31 224 30.5t172.5 -4.5t115 -17t103.5 -38t87 -62.5t72.5 -96t51.5 -134.5q45 -152 45 -354.5t-15.5 -312t-40 -188.5t-66.5 -135t-88 -90t-112 -52q-152 -45 -399 -29q-127 6 -184.5 30.5 t-99.5 52t-70.5 67.5t-55 96.5t-42 128t-24 164t-8.5 222.5zM389 727q0 -115 8.5 -195.5t27.5 -138t58 -86.5q70 -51 222 -51q143 0 215 53q100 76 100 430q0 240 -25.5 318t-47 110.5t-60.5 51.5q-63 27 -149.5 26.5t-120 -3.5t-71.5 -13t-59.5 -31.5t-43 -58.5t-32 -91.5 t-16.5 -130t-6 -190.5zM612 1632l185 285h252l-250 -285h-187z" />
<glyph unicode="&#xd4;" horiz-adv-x="1374" d="M102 757q0 130 15.5 245.5t42 196.5t71.5 138.5t91.5 90t113.5 51.5q106 31 224 30.5t172.5 -4.5t115 -17t103.5 -38t87 -62.5t72.5 -96t51.5 -134.5q45 -152 45 -354.5t-15.5 -312t-40 -188.5t-66.5 -135t-88 -90t-112 -52q-152 -45 -399 -29q-127 6 -184.5 30.5 t-99.5 52t-70.5 67.5t-55 96.5t-42 128t-24 164t-8.5 222.5zM389 727q0 -115 8.5 -195.5t27.5 -138t58 -86.5q70 -51 222 -51q143 0 215 53q100 76 100 430q0 240 -25.5 318t-47 110.5t-60.5 51.5q-63 27 -149.5 26.5t-120 -3.5t-71.5 -13t-59.5 -31.5t-43 -58.5t-32 -91.5 t-16.5 -130t-6 -190.5zM389 1632l219 277h213l199 -277h-191l-120 123l-127 -123h-193z" />
<glyph unicode="&#xd5;" horiz-adv-x="1374" d="M102 757q0 130 15.5 245.5t42 196.5t71.5 138.5t91.5 90t113.5 51.5q106 31 224 30.5t172.5 -4.5t115 -17t103.5 -38t87 -62.5t72.5 -96t51.5 -134.5q45 -152 45 -354.5t-15.5 -312t-40 -188.5t-66.5 -135t-88 -90t-112 -52q-152 -45 -399 -29q-127 6 -184.5 30.5 t-99.5 52t-70.5 67.5t-55 96.5t-42 128t-24 164t-8.5 222.5zM352 1745q131 143 248 143q51 -2 118.5 -36.5t85 -34.5h21.5q80 0 183 77l49 -122q-127 -139 -230 -140q-53 0 -123.5 36t-99.5 36t-48 -3t-31.5 -6t-32 -12.5t-27.5 -13.5t-31.5 -18.5t-30.5 -18.5zM389 727 q0 -115 8.5 -195.5t27.5 -138t58 -86.5q70 -51 222 -51q143 0 215 53q100 76 100 430q0 240 -25.5 318t-47 110.5t-60.5 51.5q-63 27 -149.5 26.5t-120 -3.5t-71.5 -13t-59.5 -31.5t-43 -58.5t-32 -91.5t-16.5 -130t-6 -190.5z" />
<glyph unicode="&#xd6;" horiz-adv-x="1374" d="M102 757q0 130 15.5 245.5t42 196.5t71.5 138.5t91.5 90t113.5 51.5q106 31 224 30.5t172.5 -4.5t115 -17t103.5 -38t87 -62.5t72.5 -96t51.5 -134.5q45 -152 45 -354.5t-15.5 -312t-40 -188.5t-66.5 -135t-88 -90t-112 -52q-152 -45 -399 -29q-127 6 -184.5 30.5 t-99.5 52t-70.5 67.5t-55 96.5t-42 128t-24 164t-8.5 222.5zM324 1753q0 33 16 62q35 59 94.5 58t94 -35t34.5 -84t-34.5 -86t-75.5 -36t-69 16.5t-44 44t-16 60.5zM389 727q0 -115 8.5 -195.5t27.5 -138t58 -86.5q70 -51 222 -51q143 0 215 53q100 76 100 430 q0 240 -25.5 318t-47 110.5t-60.5 51.5q-63 27 -149.5 26.5t-120 -3.5t-71.5 -13t-59.5 -31.5t-43 -58.5t-32 -91.5t-16.5 -130t-6 -190.5zM846 1745q0 41 16 70q35 57 94.5 57t94 -34t34.5 -84t-34.5 -86t-83.5 -36t-85 36t-36 77z" />
<glyph unicode="&#xd7;" horiz-adv-x="944" d="M88 512l215 215l-215 217l170 170l215 -215l217 217l172 -170l-217 -219l215 -215l-170 -170l-217 215l-213 -215z" />
<glyph unicode="&#xd8;" horiz-adv-x="1390" d="M109 0l116 170q-113 170 -112.5 585.5t127.5 581.5q45 57 91 90t111 52q109 31 273 30q256 0 372 -73l46 63h153l-104 -149q135 -178 135 -611q0 -410 -123 -571q-80 -109 -201 -143q-111 -33 -264.5 -33t-248.5 17.5t-167 66.5l-53 -76h-151zM399 694.5 q0 -147.5 29 -233.5l498 741q-55 43 -211 43q-170 0 -219 -49q-57 -57 -70.5 -130t-20 -148.5t-6.5 -223zM483 319q64 -63 232 -63q94 0 150.5 18.5t95 72.5t54 146.5t15.5 287t-39 296.5z" />
<glyph unicode="&#xd9;" horiz-adv-x="1359" d="M125 655v844h287v-844q0 -197 39 -288q35 -82 137 -105q45 -8 130 -8t142 31q121 66 121 370v844h289v-844q0 -322 -94 -467q-31 -51 -61 -82.5t-76 -55t-78.5 -35t-88.5 -17.5q-70 -8 -170 -8h-28q-246 0 -328 51q-37 25 -86 73t-74 117q-61 172 -61 424zM354 1917h250 l187 -285h-187z" />
<glyph unicode="&#xda;" horiz-adv-x="1359" d="M125 655v844h287v-844q0 -197 39 -288q35 -82 137 -105q45 -8 130 -8t142 31q121 66 121 370v844h289v-844q0 -322 -94 -467q-31 -51 -61 -82.5t-76 -55t-78.5 -35t-88.5 -17.5q-70 -8 -170 -8h-28q-246 0 -328 51q-37 25 -86 73t-74 117q-61 172 -61 424zM604 1632 l184 285h252l-249 -285h-187z" />
<glyph unicode="&#xdb;" horiz-adv-x="1359" d="M125 655v844h287v-844q0 -197 39 -288q35 -82 137 -105q45 -8 130 -8t142 31q121 66 121 370v844h289v-844q0 -322 -94 -467q-31 -51 -61 -82.5t-76 -55t-78.5 -35t-88.5 -17.5q-70 -8 -170 -8h-28q-246 0 -328 51q-37 25 -86 73t-74 117q-61 172 -61 424zM381 1632 l221 277h213l197 -277h-189l-121 123l-129 -123h-192z" />
<glyph unicode="&#xdc;" horiz-adv-x="1359" d="M125 655v844h287v-844q0 -197 39 -288q35 -82 137 -105q45 -8 130 -8t142 31q121 66 121 370v844h289v-844q0 -322 -94 -467q-31 -51 -61 -82.5t-76 -55t-78.5 -35t-88.5 -17.5q-70 -8 -170 -8h-28q-246 0 -328 51q-37 25 -86 73t-74 117q-61 172 -61 424zM315 1745 q0 41 17 70q35 57 95 57t95 -34t35 -84t-36 -86t-85 -36t-85 36t-36 77zM838 1753q0 49 35.5 84t86 35t84 -34t33.5 -84t-34.5 -86t-84 -36t-85 36t-35.5 85z" />
<glyph unicode="&#xdd;" horiz-adv-x="1343" d="M70 1499h311l293 -719l321 719h312l-494 -1034v-465h-287v465zM594 1632l186 285h252l-250 -285h-188z" />
<glyph unicode="&#xde;" horiz-adv-x="1118" d="M94 0v1493h287v-289h301q360 -2 360 -436q0 -328 -168 -418q-80 -43 -158.5 -45t-134 -2t-200.5 41v-344h-287zM381 557l211 2q2 -2 23.5 -2t48 7t49.5 28q41 41 41 174q-2 141 -72 170q-35 14 -90 14h-211v-393z" />
<glyph unicode="&#xdf;" horiz-adv-x="1171" d="M94 0v1159q0 188 128.5 314t361.5 126q342 0 463 -200q35 -59 39 -103.5t4 -77t-11 -85.5q-20 -123 -116 -228q-20 -23 -55.5 -54.5t-49.5 -47.5q-43 -43 -43 -81t34 -62.5t82 -46t96 -50t82 -82t34 -125.5v-63q0 -178 -113 -248q-98 -61 -230 -61t-308 39v202 q184 -10 235 -10t89 28.5t40 86.5v49q0 63 -113 108q-45 18 -92 42t-78.5 71t-31.5 128t37.5 137.5t142.5 142.5q84 74 84 172q0 160 -209 159q-74 0 -121 -28q-94 -53 -94 -254v-1057h-287z" />
<glyph unicode="&#xe0;" horiz-adv-x="1062" d="M61 276v103q0 131 78 215t240 84h241h80v52v18q0 82 -34.5 107.5t-139 25.5t-428.5 -23v178q186 72 498 72q188 0 289.5 -79t101.5 -271v-758h-227l-60 119q-8 -14 -52 -44t-121.5 -58.5t-149.5 -28.5q-152 0 -234 87t-82 201zM205 1516h250l186 -285h-186zM348 317 q0 -61 26.5 -80.5t78 -19.5t114 21.5t97.5 42.5l36 22v199l-264 -21q-88 -8 -88 -110v-54z" />
<glyph unicode="&#xe1;" horiz-adv-x="1062" d="M61 276v103q0 131 78 215t240 84h241h80v52v18q0 82 -34.5 107.5t-139 25.5t-428.5 -23v178q186 72 498 72q188 0 289.5 -79t101.5 -271v-758h-227l-60 119q-8 -14 -52 -44t-121.5 -58.5t-149.5 -28.5q-152 0 -234 87t-82 201zM348 317q0 -61 26.5 -80.5t78 -19.5 t114 21.5t97.5 42.5l36 22v199l-264 -21q-88 -8 -88 -110v-54zM451 1231l184 285h252l-250 -285h-186z" />
<glyph unicode="&#xe2;" horiz-adv-x="1062" d="M61 276v103q0 131 78 215t240 84h241h80v52v18q0 82 -34.5 107.5t-139 25.5t-428.5 -23v178q186 72 498 72q188 0 289.5 -79t101.5 -271v-758h-227l-60 119q-8 -14 -52 -44t-121.5 -58.5t-149.5 -28.5q-152 0 -234 87t-82 201zM229 1231l220 276h213l198 -276h-190 l-121 123l-127 -123h-193zM348 317q0 -61 26.5 -80.5t78 -19.5t114 21.5t97.5 42.5l36 22v199l-264 -21q-88 -8 -88 -110v-54z" />
<glyph unicode="&#xe3;" horiz-adv-x="1062" d="M61 276v103q0 131 78 215t240 84h241h80v52v18q0 82 -34.5 107.5t-139 25.5t-428.5 -23v178q186 72 498 72q188 0 289.5 -79t101.5 -271v-758h-227l-60 119q-8 -14 -52 -44t-121.5 -58.5t-149.5 -28.5q-152 0 -234 87t-82 201zM188 1343q129 143 246 144q51 -2 119 -37 t86.5 -35h22.5q78 0 180 78l49 -123q-127 -139 -229 -139q-51 0 -123 36t-99.5 36t-48 -3.5t-33 -6.5t-32 -12t-26.5 -13t-30.5 -18.5t-31.5 -18.5zM348 317q0 -61 26.5 -80.5t78 -19.5t114 21.5t97.5 42.5l36 22v199l-264 -21q-88 -8 -88 -110v-54z" />
<glyph unicode="&#xe4;" horiz-adv-x="1062" d="M61 276v103q0 131 78 215t240 84h241h80v52v18q0 82 -34.5 107.5t-139 25.5t-428.5 -23v178q186 72 498 72q188 0 289.5 -79t101.5 -271v-758h-227l-60 119q-8 -14 -52 -44t-121.5 -58.5t-149.5 -28.5q-152 0 -234 87t-82 201zM162 1352q0 49 35.5 85t85 36t84 -35 t34.5 -85t-34.5 -86t-84 -36t-85 36t-35.5 85zM348 317q0 -61 26.5 -80.5t78 -19.5t114 21.5t97.5 42.5l36 22v199l-264 -21q-88 -8 -88 -110v-54zM684 1352q0 49 36 85t72.5 36t59 -10.5t37.5 -24.5q35 -35 35 -85t-35 -86t-84 -36t-85 36t-36 85z" />
<glyph unicode="&#xe5;" horiz-adv-x="1062" d="M61 276v103q0 131 78 215t240 84h241h80v52v18q0 82 -34.5 107.5t-139 25.5t-428.5 -23v178q186 72 498 72q188 0 289.5 -79t101.5 -271v-758h-227l-60 119q-8 -14 -52 -44t-121.5 -58.5t-149.5 -28.5q-152 0 -234 87t-82 201zM338 1420q0 50 28.5 98.5t77 76t104.5 27.5 t103 -27.5t75 -76t28 -106.5t-28 -105t-75 -75t-97 -28t-88 15.5t-66.5 44t-45 67.5t-16.5 89zM348 317q0 -61 26.5 -80.5t78 -19.5t114 21.5t97.5 42.5l36 22v199l-264 -21q-88 -8 -88 -110v-54zM459 1422.5q0 -25.5 4 -39t12 -23.5t19 -19q25 -16 57.5 -16t58 25.5 t25.5 62.5t-25.5 62.5t-62.5 25.5t-62.5 -26.5t-25.5 -52z" />
<glyph unicode="&#xe6;" horiz-adv-x="1724" d="M61 283v71q0 125 72 209q78 90 243 89t244.5 -1t79.5 2v74v27q0 80 -34.5 106.5t-125.5 26.5t-442 -25v178q172 72 496 74q201 -2 285 -88q59 45 133.5 60.5t184.5 15.5t176.5 -7.5t127 -30t92.5 -65.5q72 -90 72 -280q0 -141 -76 -201.5t-229 -60.5h-344 q0 -139 52 -185.5t177 -46.5q252 0 400 21v-193q-72 -27 -183 -41q-141 -16 -375 -16q-113 0 -179 35t-117 106q-18 -39 -163 -91t-253 -52q-150 0 -232 87t-82 202zM348 317q0 -66 33 -81q25 -12 74 -12.5t111.5 21t97.5 42.5l36 20v174l-264 -20q-88 -8 -88 -111v-33z M1016 651h270q92 0 92 82q0 100 -26.5 125t-132.5 25h-11q-94 0 -108.5 -7.5t-29.5 -14.5t-21.5 -18.5t-14.5 -29.5q-18 -35 -18 -149v-13z" />
<glyph unicode="&#xe7;" horiz-adv-x="1011" d="M78 545q0 164 25.5 275.5t75.5 171t111.5 84t145.5 24.5q295 0 500 -68v-176q-195 12 -309.5 12t-139 -3t-53 -19.5t-41.5 -52.5q-29 -82 -28.5 -238t19.5 -224.5t57 -90t120 -21.5q166 0 334 14l55 5v-181q-94 -49 -184 -57q-133 -12 -231 -12h-13h-86q-162 0 -254 108 q-104 123 -104 449zM324 -244l90 31q41 16 51 44t10 91h193q0 -160 -49.5 -224.5t-180.5 -64.5h-114v123z" />
<glyph unicode="&#xe8;" horiz-adv-x="1075" d="M78 529.5q0 285.5 62.5 405t230.5 148.5q72 12 164 12.5t143 -2.5t103.5 -12.5t85 -27t63.5 -47t47 -70.5q37 -92 37 -212t-35 -181q-68 -117 -268 -117h-346q0 -72 12 -115t45 -62.5t68.5 -24.5t195.5 -5t307 23v-195q-92 -35 -185 -43t-128 -10t-86 -2q-68 -2 -158 -2 q-203 0 -280.5 127t-77.5 412.5zM217 1503h252l184 -282h-186zM365 633h272q90 0 90 82q0 102 -27.5 132t-111.5 30t-116 -5.5t-61.5 -29t-37.5 -70.5t-8 -89v-50z" />
<glyph unicode="&#xe9;" horiz-adv-x="1075" d="M78 529.5q0 285.5 62.5 405t230.5 148.5q72 12 164 12.5t143 -2.5t103.5 -12.5t85 -27t63.5 -47t47 -70.5q37 -92 37 -212t-35 -181q-68 -117 -268 -117h-346q0 -72 12 -115t45 -62.5t68.5 -24.5t195.5 -5t307 23v-195q-92 -35 -185 -43t-128 -10t-86 -2q-68 -2 -158 -2 q-203 0 -280.5 127t-77.5 412.5zM365 633h272q90 0 90 82q0 102 -27.5 132t-111.5 30t-116 -5.5t-61.5 -29t-37.5 -70.5t-8 -89v-50zM459 1221l184 282h252l-250 -282h-186z" />
<glyph unicode="&#xea;" horiz-adv-x="1075" d="M78 529.5q0 285.5 62.5 405t230.5 148.5q72 12 164 12.5t143 -2.5t103.5 -12.5t85 -27t63.5 -47t47 -70.5q37 -92 37 -212t-35 -181q-68 -117 -268 -117h-346q0 -72 12 -115t45 -62.5t68.5 -24.5t195.5 -5t307 23v-195q-92 -35 -185 -43t-128 -10t-86 -2q-68 -2 -158 -2 q-203 0 -280.5 127t-77.5 412.5zM229 1221l222 278h213l198 -278h-190l-121 122l-129 -122h-193zM365 633h272q90 0 90 82q0 102 -27.5 132t-111.5 30t-116 -5.5t-61.5 -29t-37.5 -70.5t-8 -89v-50z" />
<glyph unicode="&#xeb;" horiz-adv-x="1075" d="M78 529.5q0 285.5 62.5 405t230.5 148.5q72 12 164 12.5t143 -2.5t103.5 -12.5t85 -27t63.5 -47t47 -70.5q37 -92 37 -212t-35 -181q-68 -117 -268 -117h-346q0 -72 12 -115t45 -62.5t68.5 -24.5t195.5 -5t307 23v-195q-92 -35 -185 -43t-128 -10t-86 -2q-68 -2 -158 -2 q-203 0 -280.5 127t-77.5 412.5zM162 1341.5q0 49.5 35.5 85t85 35.5t84 -34.5t34.5 -85t-34.5 -86t-84 -35.5t-85 35.5t-35.5 85zM365 633h272q90 0 90 82q0 102 -27.5 132t-111.5 30t-116 -5.5t-61.5 -29t-37.5 -70.5t-8 -89v-50zM684 1341.5q0 49.5 36 85t72.5 35.5 t58 -10t38.5 -25q35 -35 35 -85t-35 -85.5t-84 -35.5t-85 35.5t-36 85z" />
<glyph unicode="&#xec;" horiz-adv-x="471" d="M-106 1503h251l185 -282h-187zM94 0v1087h287v-1087h-287z" />
<glyph unicode="&#xed;" horiz-adv-x="471" d="M94 0v1087h287v-1087h-287zM143 1221l187 282h250l-250 -282h-187z" />
<glyph unicode="&#xee;" horiz-adv-x="471" d="M-80 1221l221 278h213l199 -278h-191l-120 122l-129 -122h-193zM94 0v1087h287v-1087h-287z" />
<glyph unicode="&#xef;" horiz-adv-x="471" d="M-145 1341.5q0 49.5 35.5 85t86 35.5t85 -34.5t34.5 -85t-34.5 -86t-85 -35.5t-86 35.5t-35.5 85zM94 0v1087h287v-1087h-287zM377 1341.5q0 49.5 36 85t86 35.5t84.5 -34.5t34.5 -85t-34.5 -86t-84.5 -35.5t-86 35.5t-36 85z" />
<glyph unicode="&#xf0;" horiz-adv-x="1105" d="M61 535.5q0 275.5 91.5 413.5t291.5 138h115q119 0 154 -20q-37 125 -117 199l-234 -109l-57 117l148 67q-78 29 -211 29q-23 0 -47 -2v236q340 0 524 -123l190 88l60 -119l-140 -64q133 -150 179 -391q37 -203 36 -454q0 -541 -385 -541h-215q-206 0 -294.5 130 t-88.5 405.5zM348 538.5q0 -118.5 16.5 -178t44 -76t83.5 -16.5h122q90 0 117 57.5t27 225.5t-25.5 220t-118.5 52h-122q-53 0 -82 -20.5t-45.5 -83t-16.5 -181z" />
<glyph unicode="&#xf1;" d="M94 0v1087h230l57 -116q150 109 237 125q47 10 107 10q326 0 326 -381v-725h-287v729q0 147 -121 148q-82 0 -139.5 -21.5t-122.5 -73.5v-782h-287zM219 1341q131 143 248 144q51 -2 118.5 -37t85 -35h21.5q80 0 182 78l50 -123q-127 -139 -230 -139q-51 0 -122.5 35.5 t-100.5 35.5t-48.5 -3t-31.5 -6t-31.5 -12t-26.5 -13t-30.5 -18.5t-32.5 -18.5z" />
<glyph unicode="&#xf2;" horiz-adv-x="1146" d="M78 522q0 141 16.5 236.5t51 162t96.5 105.5q113 72 331 72q281 0 388.5 -123t107.5 -437.5t-105.5 -431t-390.5 -116.5q-279 0 -389 125q-106 120 -106 407zM240 1503h252l184 -282h-187zM365 534.5q0 -110.5 10 -172t37.5 -93t62.5 -40t94.5 -8.5t89 4t57 20.5 t40.5 51.5q27 74 26.5 191.5t-3.5 171t-13 92.5t-23.5 60.5t-37.5 35.5q-41 20 -121 20t-116 -10t-61.5 -47t-33.5 -101.5t-8 -175z" />
<glyph unicode="&#xf3;" horiz-adv-x="1146" d="M78 522q0 141 16.5 236.5t51 162t96.5 105.5q113 72 331 72q281 0 388.5 -123t107.5 -437.5t-105.5 -431t-390.5 -116.5q-279 0 -389 125q-106 120 -106 407zM365 534.5q0 -110.5 10 -172t37.5 -93t62.5 -40t94.5 -8.5t89 4t57 20.5t40.5 51.5q27 74 26.5 191.5t-3.5 171 t-13 92.5t-23.5 60.5t-37.5 35.5q-41 20 -121 20t-116 -10t-61.5 -47t-33.5 -101.5t-8 -175zM481 1221l185 282h252l-250 -282h-187z" />
<glyph unicode="&#xf4;" horiz-adv-x="1146" d="M78 522q0 141 16.5 236.5t51 162t96.5 105.5q113 72 331 72q281 0 388.5 -123t107.5 -437.5t-105.5 -431t-390.5 -116.5q-279 0 -389 125q-106 120 -106 407zM262 1221l221 278h213l199 -278h-190l-121 122l-129 -122h-193zM365 534.5q0 -110.5 10 -172t37.5 -93 t62.5 -40t94.5 -8.5t89 4t57 20.5t40.5 51.5q27 74 26.5 191.5t-3.5 171t-13 92.5t-23.5 60.5t-37.5 35.5q-41 20 -121 20t-116 -10t-61.5 -47t-33.5 -101.5t-8 -175z" />
<glyph unicode="&#xf5;" horiz-adv-x="1146" d="M78 522q0 141 16.5 236.5t51 162t96.5 105.5q113 72 331 72q281 0 388.5 -123t107.5 -437.5t-105.5 -431t-390.5 -116.5q-279 0 -389 125q-106 120 -106 407zM229 1333q131 143 248 144q51 -2 119 -37t85 -35h21q80 0 183 78l49 -123q-127 -139 -229 -139 q-51 0 -123 35.5t-100.5 35.5t-48 -3t-32 -6t-32 -12t-26.5 -13.5t-30.5 -18.5t-31.5 -18zM365 534.5q0 -110.5 10 -172t37.5 -93t62.5 -40t94.5 -8.5t89 4t57 20.5t40.5 51.5q27 74 26.5 191.5t-3.5 171t-13 92.5t-23.5 60.5t-37.5 35.5q-41 20 -121 20t-116 -10t-61.5 -47 t-33.5 -101.5t-8 -175z" />
<glyph unicode="&#xf6;" horiz-adv-x="1146" d="M78 522q0 141 16.5 236.5t51 162t96.5 105.5q113 72 331 72q281 0 388.5 -123t107.5 -437.5t-105.5 -431t-390.5 -116.5q-279 0 -389 125q-106 120 -106 407zM193 1341.5q0 49.5 35.5 85t86 35.5t85 -34.5t34.5 -85t-34.5 -86t-85 -35.5t-86 35.5t-35.5 85zM365 534.5 q0 -110.5 10 -172t37.5 -93t62.5 -40t94.5 -8.5t89 4t57 20.5t40.5 51.5q27 74 26.5 191.5t-3.5 171t-13 92.5t-23.5 60.5t-37.5 35.5q-41 20 -121 20t-116 -10t-61.5 -47t-33.5 -101.5t-8 -175zM715 1341.5q0 49.5 35.5 85t86 35.5t85 -34.5t34.5 -85t-34.5 -86t-85 -35.5 t-86 35.5t-35.5 85z" />
<glyph unicode="&#xf7;" horiz-adv-x="1017" d="M78 602v242h864v-242h-864zM381 317v138q0 49 49 49h152q49 0 49 -49v-138q0 -47 -49 -47h-152q-20 0 -34.5 12.5t-14.5 34.5zM381 979v137q0 51 49 51h152q49 0 49 -51v-137q0 -47 -49 -47h-152q-33 0 -45 29q-4 8 -4 18z" />
<glyph unicode="&#xf8;" horiz-adv-x="1189" d="M78 0l110 137q-88 119 -88 367t49.5 370.5t154 173t301 50.5t300.5 -58l39 47h158l-105 -129q94 -123 94.5 -429t-105 -422.5t-390.5 -116.5q-209 0 -320 65l-45 -55h-153zM387 544.5q0 -100.5 19 -143.5l333 433q-37 35 -125 34.5t-123.5 -10.5t-61.5 -47t-34 -101.5 t-8 -165zM444 262q37 -41 143.5 -41t142.5 20.5t48 55.5q27 74 27 213t-21 188z" />
<glyph unicode="&#xf9;" d="M78 365v722h287v-729q0 -145 120 -145q82 0 138.5 20.5t124.5 73.5v780h286v-1087h-231l-55 115q-18 -10 -51 -31t-51.5 -32t-48.5 -26.5t-56 -23.5q-63 -20 -140 -20q-323 0 -323 383zM221 1503h252l184 -282h-186z" />
<glyph unicode="&#xfa;" d="M78 365v722h287v-729q0 -145 120 -145q82 0 138.5 20.5t124.5 73.5v780h286v-1087h-231l-55 115q-18 -10 -51 -31t-51.5 -32t-48.5 -26.5t-56 -23.5q-63 -20 -140 -20q-323 0 -323 383zM463 1221l184 282h252l-250 -282h-186z" />
<glyph unicode="&#xfb;" d="M78 365v722h287v-729q0 -145 120 -145q82 0 138.5 20.5t124.5 73.5v780h286v-1087h-231l-55 115q-18 -10 -51 -31t-51.5 -32t-48.5 -26.5t-56 -23.5q-63 -20 -140 -20q-323 0 -323 383zM240 1221l221 278h213l198 -278h-190l-121 122l-129 -122h-192z" />
<glyph unicode="&#xfc;" d="M78 365v722h287v-729q0 -145 120 -145q82 0 138.5 20.5t124.5 73.5v780h286v-1087h-231l-55 115q-18 -10 -51 -31t-51.5 -32t-48.5 -26.5t-56 -23.5q-63 -20 -140 -20q-323 0 -323 383zM174 1341.5q0 49.5 36 85t86 35.5t85 -34.5t35 -85t-35 -86t-85 -35.5t-86 35.5 t-36 85zM696 1341.5q0 49.5 36 85t86 35.5t85 -34.5t35 -85t-35 -86t-85 -35.5t-86 35.5t-36 85z" />
<glyph unicode="&#xfd;" horiz-adv-x="1183" d="M33 1087h301l188 -761q10 -37 24.5 -49.5t23 -17.5t19.5 -8t17 -3t16 -1l9 -1l217 841h299l-377 -1431l-149 -209h-205l153 553q-250 0 -323 276zM498 1221l184 282h252l-250 -282h-186z" />
<glyph unicode="&#xfe;" horiz-adv-x="1138" d="M109 -553v2155h286v-633q61 49 150.5 87t177.5 38q354 0 354 -553q0 -334 -98 -459q-86 -109 -256 -109q-76 0 -167 19.5t-161 56.5v-602h-286zM395 238q88 -33 252 -39q49 0 78 22q66 55 65.5 342t-143.5 287q-143 -6 -252 -72v-540z" />
<glyph unicode="&#xff;" horiz-adv-x="1183" d="M33 1087h301l188 -761q10 -37 24.5 -49.5t23 -17.5t19.5 -8t17 -3t16 -1l9 -1l217 841h299l-377 -1431l-149 -209h-205l153 553q-250 0 -323 276zM209 1341.5q0 49.5 36 85t85 35.5t84 -34.5t35 -85t-35 -86t-84 -35.5t-85 35.5t-36 85zM731 1341.5q0 49.5 36 85t85 35.5 t84 -34.5t35 -85t-35 -86t-84 -35.5t-85 35.5t-36 85z" />
<glyph unicode="&#x152;" horiz-adv-x="2064" d="M102 757q0 130 15.5 245.5t42 196.5t70.5 138.5t91.5 90t112.5 51.5q106 31 233.5 30.5t190.5 -6.5q154 -16 244 -96q72 92 217 92q12 0 271 -7t392 -26v-237h-571q-76 0 -94 -37q-12 -29 -12 -78v-233l583 -21v-237l-583 -19v-233q0 -78 43 -95q33 -12 84 -12h550v-235 q-104 -14 -489 -29l-129 -6h-35q-164 0 -235 92q-70 -53 -163 -73.5t-193.5 -20.5t-151.5 3t-106.5 12t-96.5 26.5t-82 45t-69.5 67.5t-55 96.5t-42 128t-24 164t-8.5 222.5zM389 727q0 -115 8.5 -195.5t27.5 -138t58 -86.5q70 -51 208 -51t202.5 37t94.5 140.5t30 263 t-7 242.5t-24.5 139.5t-39 89t-62.5 51.5q-61 27 -148.5 26.5t-121 -3.5t-70.5 -13t-58.5 -31.5t-43 -58.5t-32 -91.5t-16.5 -130t-6 -190.5z" />
<glyph unicode="&#x153;" horiz-adv-x="1777" d="M78 537.5q0 158.5 24.5 267t86 174t152.5 92.5t232 27q238 0 342 -92q51 51 131 70.5t188.5 19.5t166 -4.5t115 -18.5t90 -40.5t61.5 -69.5q49 -80 49 -265q0 -186 -135 -243q-68 -29 -168 -29h-344v-39t11.5 -73t43.5 -60q51 -35 174 -35q252 0 400 21v-193 q-111 -41 -238 -47q-166 -10 -322.5 -10t-230.5 84q-102 -84 -334 -84q-279 0 -389 125q-57 65 -81.5 164.5t-24.5 258zM365 534.5q0 -110.5 10 -172t37.5 -93t62.5 -41t92.5 -9.5t89 5t56 20.5t37 36t20.5 61.5q12 61 12 186t-8 183.5t-31.5 95.5t-61.5 48t-107.5 11 t-105.5 -9t-61.5 -46t-33.5 -101.5t-8 -175zM1069 633h270q91 0 91 82q0 102 -27 132t-111 30t-117.5 -6.5t-62.5 -31t-36 -67.5t-7 -81v-58z" />
<glyph unicode="&#x178;" horiz-adv-x="1343" d="M70 1499h311l293 -719l321 719h312l-494 -1034v-465h-287v465zM307 1745q0 41 17 70q35 57 94 57t94 -34t35 -84t-35 -86t-84 -36t-85 36t-36 77zM829 1753q0 49 36 84t85 35t84 -34t35 -84t-35 -86t-84 -36t-85 36t-36 85z" />
<glyph unicode="&#x2c6;" horiz-adv-x="786" d="M78 1087l221 277h213l197 -277h-191l-121 123l-127 -123h-192z" />
<glyph unicode="&#x2dc;" horiz-adv-x="858" d="M78 1200q131 143 248 143q49 -2 116.5 -36.5t86 -34.5h22.5q78 0 180 78l49 -123q-127 -139 -229 -140q-51 0 -123 36t-98.5 36t-43 -2t-30.5 -6l-24.5 -7t-26 -11.5t-23.5 -13.5t-26.5 -15t-28.5 -17z" />
<glyph unicode="&#x2000;" horiz-adv-x="958" />
<glyph unicode="&#x2001;" horiz-adv-x="1917" />
<glyph unicode="&#x2002;" horiz-adv-x="958" />
<glyph unicode="&#x2003;" horiz-adv-x="1917" />
<glyph unicode="&#x2004;" horiz-adv-x="639" />
<glyph unicode="&#x2005;" horiz-adv-x="479" />
<glyph unicode="&#x2006;" horiz-adv-x="319" />
<glyph unicode="&#x2007;" horiz-adv-x="319" />
<glyph unicode="&#x2008;" horiz-adv-x="239" />
<glyph unicode="&#x2009;" horiz-adv-x="383" />
<glyph unicode="&#x200a;" horiz-adv-x="106" />
<glyph unicode="&#x2010;" horiz-adv-x="724" d="M41 473v242h643v-242h-643z" />
<glyph unicode="&#x2011;" horiz-adv-x="724" d="M41 473v242h643v-242h-643z" />
<glyph unicode="&#x2012;" horiz-adv-x="724" d="M41 473v242h643v-242h-643z" />
<glyph unicode="&#x2013;" horiz-adv-x="1050" d="M41 467v244h969v-244h-969z" />
<glyph unicode="&#x2014;" horiz-adv-x="1507" d="M41 471v244h1425v-244h-1425z" />
<glyph unicode="&#x2018;" horiz-adv-x="530" d="M125 1057v272q0 193 211 193q27 0 59 -6v-113h-2q-66 0 -65 -68v-43h24q53 0 54 -51v-184q0 -57 -54 -58h-176q-51 0 -51 58z" />
<glyph unicode="&#x2019;" horiz-adv-x="530" d="M125 1282v182q0 57 53 58h176q51 0 52 -58v-272q0 -193 -213 -193q-27 0 -58 7v112h2q66 0 66 68v41h-25q-53 0 -53 55z" />
<glyph unicode="&#x201a;" horiz-adv-x="530" d="M125 53v183q0 59 53 59h176q51 0 52 -59v-271q0 -194 -211 -194q-27 0 -60 6v112h2q66 0 66 68v43h-25q-53 0 -53 53z" />
<glyph unicode="&#x201c;" horiz-adv-x="870" d="M113 1055v272q0 193 211 193q29 0 59 -7v-112q-66 0 -66 -68v-41h25q23 0 38 -14t15 -41v-182q0 -57 -53 -58h-178q-51 0 -51 58zM477 1055v272q0 193 213 193q18 0 31 -2l29 -5v-112h-2q-66 0 -66 -68v-41h25q23 0 38 -14t15 -41v-182q0 -57 -53 -58h-177q-53 0 -53 58z " />
<glyph unicode="&#x201d;" horiz-adv-x="870" d="M113 1278v184q0 57 53 58h178q51 0 51 -58v-272q0 -193 -213 -193q-27 0 -59 7v112h2q66 0 65 68v41h-24q-23 0 -38 14t-15 39zM477 1278v184q0 57 55 58h177q51 0 51 -58v-272q0 -195 -213 -195q-16 0 -31 2l-27 7v112h3q63 0 63 68v41h-23q-25 0 -40 14t-15 39z" />
<glyph unicode="&#x201e;" horiz-adv-x="870" d="M113 53v183q0 59 53 59h178q51 0 51 -59v-271q0 -194 -213 -194q-27 0 -59 6v112h2q66 0 65 68v43h-24q-23 0 -38 13.5t-15 39.5zM477 53v183q0 57 55 57h177q51 0 51 -57v-271q0 -195 -213 -194q-16 0 -31 2l-27 4v112h3q63 0 63 68v43h-23q-25 0 -40 13.5t-15 39.5z " />
<glyph unicode="&#x2022;" horiz-adv-x="632" d="M133 659v242q0 72 68 72h229q72 0 72 -72v-242q0 -66 -72 -65h-229q-31 0 -49.5 17t-18.5 48z" />
<glyph unicode="&#x2026;" horiz-adv-x="1652" d="M606 47v184q0 51 49 52h176q51 0 52 -52v-184q0 -47 -52 -47h-176q-20 0 -34.5 13.5t-14.5 33.5zM662 47q0 -20 14 -33.5t35 -13.5h176q51 0 51 47v184q0 51 -51 52h-176q-49 0 -49 -52v-184zM719 47v184q0 51 49 52h176q51 0 51 -52v-184q0 -47 -51 -47h-176 q-23 0 -36 13.5t-13 33.5z" />
<glyph unicode="&#x202f;" horiz-adv-x="383" />
<glyph unicode="&#x2039;" horiz-adv-x="729" d="M78 725l422 416l157 -156l-268 -260l273 -268l-152 -158z" />
<glyph unicode="&#x203a;" horiz-adv-x="729" d="M78 457l272 268l-266 260l156 156l422 -416l-433 -426z" />
<glyph unicode="&#x205f;" horiz-adv-x="479" />
<glyph unicode="&#x20ac;" horiz-adv-x="1263" d="M31 512v139l157 17v139l-157 16v131l157 21q0 176 41 274q16 45 53 98.5t89.5 87t134.5 57.5t181 24t264 -20.5t276 -53.5v-209q-301 29 -414 29t-157 -6.5t-73.5 -17.5t-50 -32.5t-32 -41t-17.5 -54.5q-8 -51 -8 -135l479 -17v-139l-479 -12v-139l479 -17v-139 q-283 -6 -411 -12l-68 -4q0 -203 141 -248q61 -18 144 -19q164 0 397 35l78 10v-204q-195 -82 -545 -82q-221 0 -354 114q-147 127 -148 394z" />
<glyph unicode="&#x2122;" horiz-adv-x="1443" d="M31 1335v164h575v-164h-192v-551h-189v551h-194zM641 784l78 715h194l123 -420l99 420h200l86 -715h-186l-39 377l-76 -377h-166l-94 377l-31 -377h-188z" />
<glyph unicode="&#xe000;" horiz-adv-x="1085" d="M0 0v1085h1085v-1085h-1085z" />
<glyph unicode="&#xfb03;" horiz-adv-x="2062" d="M31 868v185l202 34v183q0 115 56 207q31 51 92 81.5t185 30.5t251 -49v-172l-184 2q-88 2 -103 -61q-8 -33 -10 -99l-2 -123h457v82q0 123 53 221.5t156 157.5q104 61 246 62q141 0 283 -20.5t183 -37.5v-172l-374 13h-17q-244 0 -243 -236v-70l710 -20v-1067h-289v868 h-423v-868h-287v868h-455v-868h-289v868h-198z" />
<glyph unicode="&#xfb04;" horiz-adv-x="2254" d="M31 868v185l202 34v183q0 115 56 207q31 51 92 81.5t185 30.5t251 -49v-172l-184 2h-21.5t-43 -9t-33.5 -34q-14 -37 -15 -117l-2 -123h463v93q0 428 403 428l611 -4v-1172q0 -111 20.5 -151.5t73.5 -61.5q123 -43 137 -43v-176h-237q-147 0 -214 87t-67 300v1004l-268 2 q-61 0 -97 -19q-76 -35 -75 -194v-93h245v-219h-247v-868h-287v868h-461v-868h-289v868h-198z" />
</font>
</defs>
</svg>
